#TITLE:Wall Street down-sizer;
#SUBTITLE:;
#ARTIST:Thomas Howard Lichtenstein;
#TITLETRANSLIT:;
#SUBTITLETRANSLIT:;
#ARTISTTRANSLIT:;
#GENRE:;
#CREDIT:;
#BANNER:Wall Street down-sizer.png;
#BACKGROUND:Wall Street down-sizer-bg.png;
#LYRICSPATH:Wall Street down-sizer.lrc;
#CDTITLE:;
#MUSIC:Wall Street down-sizer.ogg;
#OFFSET:-0.004000;
#SAMPLESTART:29.948971;
#SAMPLELENGTH:12.000000;
#SELECTABLE:YES;
#BPMS:0.000000=160.000000
;
#STOPS:
;
#BGCHANGES:0.000=Wall Street down-sizer.mp4=1.000=0=0=0=StretchNoLoop====,
99999=-nosongbg-=1.000=0=0=0 // don't automatically add -songbackground-
;
#KEYSOUNDS:;
#ATTACKS:;

//---------------dance-single - ----------------
#NOTES:
     dance-single:
     :
     Hard:
     14:
     0.714156,1.083136,0.201983,0.363570,0.545355,495.000000,475.000000,20.000000,36.000000,0.000000,0.000000,0.714156,1.083136,0.201983,0.363570,0.545355,495.000000,475.000000,20.000000,36.000000,0.000000,0.000000:
// measure 0
0000
0000
0000
0000
,  // measure 1
0000
0000
0000
0000
,  // measure 2
0000
0000
0000
0000
,  // measure 3
0000
0000
0000
0000
,  // measure 4
1000
0000
0100
0000
0010
0000
0000
0010
0001
0000
1000
0000
0010
0000
0010
0000
,  // measure 5
0001
0000
0010
0000
0010
0000
1000
0100
0000
0010
0001
0000
1000
0000
0000
0000
,  // measure 6
0001
0000
0100
0000
0010
0000
0000
0010
1000
0000
0001
0000
0010
0000
0011
0000
,  // measure 7
0000
0000
1103
0000
0000
0000
0001
0100
0000
0000
0310
0000
0010
0000
0000
0000
,  // measure 8
2001
0000
0000
0000
3100
0000
0010
0100
0000
0100
0010
0000
0001
0000
0200
0000
,  // measure 9
0000
0000
1300
0000
0100
0000
0010
0100
0000
0001
1000
0000
0001
0000
0020
0000
,  // measure 10
0000
0000
1030
0000
0010
0000
0100
0010
0000
0010
0001
0000
0100
0000
0020
0000
,  // measure 11
0003
0000
1030
0000
0100
0000
1000
0010
0000
0100
0001
0000
1000
0000
0001
0000
,  // measure 12
0021
0000
0000
0000
0130
0000
0000
0100
1000
0000
0001
0000
0100
0000
0000
0000
,  // measure 13
0001
0000
0020
0000
0000
2030
0000
0000
3020
0000
0000
0032
0000
0000
0103
0000
,  // measure 14
0010
0000
1000
0000
0001
0000
0000
1000
0100
0000
0010
0000
0001
0000
0100
0000
,  // measure 15
0020
0000
0000
0000
1030
0000
0001
0010
0000
0100
1000
0000
0010
0000
0100
0000
,  // measure 16
0001
0000
0001
0000
1000
0000
0001
0010
0000
0000
0100
0000
0100
0000
1000
0000
,  // measure 17
0001
0000
0100
0000
0010
0000
1000
0100
0000
0010
0001
0000
0100
0000
0020
0000
,  // measure 18
0000
0031
0010
0100
0010
1000
0100
0010
,  // measure 19
0001
1000
0000
1000
0001
0000
0100
0010
0000
0100
0010
0000
1000
0001
1000
3001
,  // measure 20
1000
0000
0100
0000
0001
0000
0100
0010
0100
0000
0010
0000
0001
0000
0200
0000
,  // measure 21
0000
1300
0100
1000
0100
0001
0010
0100
,  // measure 22
1000
0010
0010
0010
0100
0100
0001
0010
,  // measure 23
0100
0000
1000
0000
0001
0000
1000
0010
1000
0000
0100
0000
0010
0000
0001
0000
,  // measure 24
1100
0000
0000
0000
0101
0000
0000
1000
0001
1000
0001
0000
0100
0000
0020
0000
,  // measure 25
0000
0031
0010
0001
0010
1000
0100
0010
,  // measure 26
0001
0100
0100
0100
0010
0010
1000
2100
,  // measure 27
0000
0000
3001
0000
0100
0000
0010
0100
0010
0100
0010
0000
1000
0001
1000
0000
,  // measure 28
0101
0000
0000
0000
1001
0000
0000
0000
0001
0010
0100
0000
1000
0000
0020
0000
,  // measure 29
0000
0000
0130
0000
0010
0000
1000
0100
1000
0000
0001
0000
1000
0000
0020
0000
,  // measure 30
0000
0000
0100
0000
0100
0000
0100
0000
0130
0000
0001
1000
0001
0000
0020
0000
,  // measure 31
0000
0000
0130
0000
1000
0000
0001
0100
0000
0100
0010
0000
1000
0000
0001
0000
,  // measure 32
1010
0000
0000
0000
1001
0000
0000
0001
1000
0001
1000
0000
0100
0000
0020
0000
,  // measure 33
0000
0000
0130
0000
1000
0000
0001
0100
0001
0000
1000
0000
0001
0000
0020
0000
,  // measure 34
0000
0000
0100
0000
0100
0000
0100
0000
0130
0000
1000
0001
1000
0000
0020
0000
,  // measure 35
0000
0000
0130
0000
0001
0000
0010
0000
0100
0010
0100
0000
1000
0001
1000
0001
,  // measure 36
1000
0000
0000
0000
1010
0000
0000
1000
0100
0000
0010
0000
0001
0010
0001
0000
,  // measure 37
1000
0000
0001
0100
0000
0010
0100
0000
1000
0100
0000
0001
1000
0000
0100
0000
,  // measure 38
0010
0001
0100
0010
0000
0310
1000
0001
,  // measure 39
1000
0000
0200
0000
0000
0302
0000
0000
0203
0000
0000
2300
0000
0000
3010
0000
,  // measure 40
0100
0000
0001
0000
1000
0100
0000
1000
0100
0000
1000
0001
0000
1000
0001
0000
,  // measure 41
0000
0000
1000
0000
0001
0100
0000
0001
0100
0000
0001
1000
0000
0001
1000
0000
,  // measure 42
0000
0000
0001
0000
1000
0010
0000
0100
0001
0000
1000
0100
0000
0010
0001
0000
,  // measure 43
0100
0100
0010
0010
1000
0100
0010
0001
,  // measure 44
1000
0001
1000
0001
1000
0000
0000
0000
0001
0000
0101
0000
0000
0000
2001
0000
,  // measure 45
0000
0000
3100
0000
0001
0000
0100
0300
1000
0000
0010
0000
0100
0000
0001
0000
,  // measure 46
1000
0000
0100
0000
0100
0000
0010
0100
0010
0000
0001
0000
1000
0000
0020
0000
,  // measure 47
0000
0130
0100
0001
0010
0100
1000
0010
,  // measure 48
0100
0001
0100
0001
0100
0001
0100
0001
0100
0000
0101
0000
0000
0000
1002
0000
,  // measure 49
0000
0000
0013
0000
1000
0000
0010
0030
0001
0000
0100
0000
0010
0000
1000
0000
,  // measure 50
0001
0000
0010
0000
0010
0000
0100
0010
0100
0000
1000
0000
0001
0000
0200
0000
,  // measure 51
0000
0000
0310
0000
0010
0000
2000
0000
0000
0000
3100
0000
0010
0030
0001
0000
,  // measure 52
1000
0010
1000
0010
1000
0010
1000
0010
1000
0010
1000
0010
1000
0010
1000
0010
,  // measure 53
1000
0000
0001
0101
0000
1000
0001
2000
,  // measure 54
0000
3100
0100
0001
0100
0100
0010
0020
,  // measure 55
0000
3000
1330
0000
0010
0000
0001
0000
0100
0000
0010
0000
1000
0000
0100
0000
,  // measure 56
1000
0001
1000
0001
1000
0001
1000
0001
1000
0001
1000
0001
1000
0001
1000
0001
,  // measure 57
1000
0001
1000
0001
1000
0001
1000
0001
1000
0001
1000
0001
1000
0001
1000
0001
,  // measure 58
0200
0000
0000
0000
0310
0000
0120
0000
0000
0000
1030
0000
0001
1000
0001
0000
,  // measure 59
1000
0100
0000
0100
0010
0000
0001
0100
0000
0100
0010
0000
1000
0000
0001
0000
,  // measure 60
2002
0000
0000
0000
,  // measure 61
0000
0000
0000
0000
,  // measure 62
0000
0000
0000
3003
,  // measure 63
0020
0000
0000
0000
0030
0030
0030
0000
,  // measure 64
0000
0000
0000
0000
,  // measure 65
1031
0000
0000
0000
;

//---------------dance-single - ----------------
#NOTES:
     dance-single:
     :
     Medium:
     10:
     0.471776,0.557979,0.363570,0.323174,0.015149,327.000000,291.000000,36.000000,32.000000,0.000000,0.000000,0.471776,0.557979,0.363570,0.323174,0.015149,327.000000,291.000000,36.000000,32.000000,0.000000,0.000000:
0000
0000
0000
0000
,
0000
0000
0000
0000
,
0000
0000
0000
0000
,
0000
0000
0000
0000
,
0102
0000
0000
0000
1000
0003
0000
0000
0001
0000
1000
0000
0010
0000
0000
0000
,
1000
0100
0020
0000
0031
0000
1000
0000
,
1010
0000
0110
0000
0102
0000
1003
0100
,
1000
0000
0100
0000
0020
0000
0000
0000
0031
0030
0001
0000
1000
0000
0000
0000
,
2010
0000
0000
0000
0001
3000
0000
0000
1000
0000
0001
0000
0100
0000
0000
0000
,
0001
0010
0200
0000
1300
0000
0001
1000
,
0100
0000
0100
0000
0010
0100
0010
0000
,
0001
1000
0001
0200
0000
0000
0310
0000
,
1002
0000
0013
0000
0001
0010
0200
0000
,
1300
0001
0101
1010
,
2002
0000
3003
0000
1000
0100
0010
0000
,
0002
0000
0103
0010
1000
1000
3001
0000
,
1000
0010
1000
0020
0000
0100
0130
0000
,
0001
0010
0100
0000
1000
0010
0100
0000
,
0002
0000
0013
0100
0010
0100
1300
0010
,
0100
0000
1002
0000
1003
0100
0010
0001
,
1000
0000
1100
0000
0001
0100
0000
0100
,
0000
0020
0000
0000
1030
0000
0001
0000
,
1000
0001
1000
0100
0010
0002
0000
0000
,
1003
0000
1010
0000
0001
0100
0010
0000
,
1001
0000
1001
0000
0001
0010
0000
0010
,
0000
0200
0000
0000
1300
0000
0301
0000
,
1000
0001
1000
0010
0100
0002
0000
2003
,
0000
3100
0010
0200
0000
1300
0100
0010
,
0001
0000
0011
0000
1000
0010
0000
0110
,
0000
0210
0000
0000
0301
0000
1000
0000
,
0001
1000
0001
0010
0100
2000
0000
0000
,
3001
0000
0101
0000
1000
0010
0100
0000
,
1001
0000
1001
0000
1000
0100
0000
0110
,
0000
0120
0000
0000
0031
0000
1030
0000
,
0001
1000
0001
0100
0010
2000
0000
3002
,
0000
0013
0100
0020
0000
0000
0130
0000
,
1001
0000
1100
0000
0000
1000
0001
0000
,
1001
0000
0101
0000
0000
0001
1000
0000
,
0001
0020
1000
0130
,
0010
0001
0100
0000
0010
1000
0100
0000
,
1001
0000
0011
0000
0000
0001
1000
0000
,
1001
0000
1010
0000
0000
1000
0001
0000
,
1000
0200
0001
0310
,
0100
1000
0010
0000
0100
0001
0010
0000
,
0001
1000
0001
0000
0000
1001
0000
0000
,
1000
0000
0010
0000
0100
0010
0100
0000
,
0001
0010
0100
0000
1000
0001
0001
0000
,
1000
0010
0100
0000
0001
0000
0010
0000
,
0001
1000
0001
1000
0001
0000
0000
1001
,
0000
0000
1000
0000
0001
0100
0010
0000
,
1000
0100
1000
0000
0001
0100
0100
0000
,
0010
0000
1000
0000
0100
0100
0010
0000
,
0001
0010
1000
0010
0001
0010
1000
3010
,
0001
0000
0000
1001
0000
0000
0000
0000
,
1000
0100
0010
0000
0001
0000
1000
0010
,
0000
0010
0100
0001
1000
0000
0001
0000
,
1000
0100
0001
0100
1000
0100
0001
0100
,
1000
0100
0001
0100
1000
0100
0001
0100
,
1000
0000
0000
1001
0000
0000
0000
0000
,
1000
0010
0100
0100
0001
1000
1000
0001
,
2002
0000
0000
0000
,
0000
0000
0000
0000
,
0000
0000
0000
3003
,
0020
0000
0030
0000
,
0000
0000
0000
0000
,
1001
0000
0000
0000
;

//---------------dance-single - ----------------
#NOTES:
     dance-single:
     :
     Easy:
     6:
     0.281334,0.581712,0.242380,0.272678,0.000000,195.000000,171.000000,24.000000,27.000000,0.000000,0.000000,0.281334,0.581712,0.242380,0.272678,0.000000,195.000000,171.000000,24.000000,27.000000,0.000000,0.000000:
0000
0000
0000
0000
,
0000
0000
0000
0000
,
0000
0000
0000
0000
,
0000
0000
0000
0000
,
2000
3000
0000
0010
,
0100
0100
0000
0000
,
0002
0023
0230
2300
,
3010
0010
1000
0000
,
0002
0003
1000
0100
,
0020
0030
0001
0000
,
1000
1000
0001
0001
,
0100
0010
1000
0000
,
0002
0003
0010
0100
,
2000
3000
0020
0030
,
2002
3003
1000
0001
,
0020
0030
0020
0030
,
0001
0001
1000
0000
,
1000
0010
0100
0000
,
0010
0010
1000
1000
,
0100
2002
0000
3003
,
1000
0001
0100
0100
,
0010
0010
0000
0000
,
0010
1000
0001
1000
,
0010
0010
0100
0000
,
0001
0001
0010
0100
,
0010
0010
0100
0000
,
1000
0100
0010
0100
,
1000
0001
0100
0000
,
0001
0001
0100
0010
,
0100
0100
0000
0000
,
0001
0010
0100
1000
,
0010
0100
0001
0000
,
1000
1000
0100
0010
,
0010
0010
0000
0000
,
0001
1000
0010
0000
,
0100
0100
0100
0000
,
2002
3003
1000
0000
,
0001
0010
0100
0000
,
1000
1000
0010
0000
,
0010
0010
0100
0000
,
0001
0100
0010
1000
,
0100
0010
0001
0000
,
1000
0010
0100
0001
,
0010
0100
1000
0000
,
1001
2002
3003
0000
,
1000
0000
0010
0000
,
0100
0100
0010
0000
,
0100
0100
0010
0000
,
1001
1001
2002
3003
,
0001
0000
0010
0000
,
0001
0100
0010
0000
,
1000
0100
0010
0000
,
1001
1001
1001
1001
,
2002
3003
0000
0000
,
0001
0100
0010
0000
,
1000
0100
0010
0000
,
1001
1001
1001
1001
,
1001
1001
1001
1001
,
1001
0000
0001
0000
,
1000
0010
0100
0001
,
2002
0000
0000
0000
,
0000
0000
0000
0000
,
0000
0000
0000
3003
,
0020
0000
0030
0000
,
1001
0000
0000
0000
;

//---------------dance-single - ----------------
#NOTES:
     dance-single:
     :
     Beginner:
     3:
     0.126961,0.295401,0.030298,0.000000,0.000000,88.000000,85.000000,3.000000,0.000000,0.000000,0.000000,0.126961,0.295401,0.030298,0.000000,0.000000,88.000000,85.000000,3.000000,0.000000,0.000000,0.000000:
0000
0000
0000
0000
,
0000
0000
0000
0000
,
0000
0000
0000
0000
,
0000
0000
0000
0000
,
0001
0000
0000
0000
,
0100
0000
0000
0000
,
0010
0000
0010
0000
,
0010
0000
0000
0000
,
1000
0000
0000
0000
,
0100
0000
0000
0000
,
0010
0000
0010
0000
,
0010
0000
0000
0000
,
0001
0000
0000
0000
,
1000
0000
0000
0000
,
0010
0000
0000
0000
,
0100
0000
0100
0000
,
0100
0000
0000
0000
,
0001
0000
0000
0000
,
1000
0000
0000
0000
,
0010
0010
0000
0000
,
1001
0000
1000
0000
,
1000
0000
0000
0000
,
0100
0000
0100
0000
,
0100
0000
0000
0000
,
0010
0000
0010
0000
,
0010
0000
0000
0000
,
0001
0000
0001
0000
,
0001
0000
0000
0000
,
0100
0100
0000
0000
,
0100
0000
0000
0000
,
0010
0000
0010
0000
,
0010
0000
0000
0000
,
1000
1000
0000
0000
,
1000
0000
0000
0000
,
0001
0000
0001
0000
,
0001
0000
0000
0000
,
1001
0000
0000
0000
,
1000
0000
0000
0000
,
0100
0000
0100
0000
,
0100
0000
0100
0000
,
0100
0000
0000
0000
,
0010
0000
0000
0000
,
0001
0000
0001
0000
,
0001
0000
0000
0000
,
1000
1000
0000
0000
,
1000
0000
0000
0000
,
0010
0000
0000
0000
,
0100
0000
0000
0000
,
0001
0001
0001
0000
,
0001
0000
0000
0000
,
0010
0000
0000
0000
,
0100
0000
0000
0000
,
1000
1000
1000
1000
,
1000
0000
0000
0000
,
0001
0000
0000
0000
,
0100
0000
0000
0000
,
0010
0010
0010
0010
,
0010
0010
0010
0010
,
0010
0000
0000
0000
,
1000
0000
0000
0000
,
0001
0000
0000
0000
,
0000
0000
0000
0000
,
0000
0000
0000
0000
,
0000
0000
0000
0000
,
0000
0000
0000
0000
,
1001
0000
0000
0000
;

//---------------dance-double - ----------------
#NOTES:
     dance-double:
     :
     Hard:
     14:
     0.672316,1.083136,0.302975,0.515058,0.464562,466.000000,436.000000,30.000000,51.000000,0.000000,0.000000,0.672316,1.083136,0.302975,0.515058,0.464562,466.000000,436.000000,30.000000,51.000000,0.000000,0.000000:
00000000
00000000
00000000
00000000
,
00000000
00000000
00000000
00000000
,
00000000
00000000
00000000
00000000
,
00000000
00000000
00000000
00000000
,
00021000
00000000
00000000
00000000
00330010
00000000
00000000
00000010
00000100
00000000
00000001
00000000
00000010
00000000
00000010
00000000
,
00001000
00000000
00000010
00000000
00000010
00000000
00000001
00000100
00000000
00000010
00001000
00000000
00000100
00000000
00000000
00000000
,
00020100
00000000
00000000
00000000
00031000
00000000
00000000
00001000
01003000
00000000
00100000
00000000
01000000
00000000
00020000
00000000
,
00000000
00000000
00130000
00300000
01000000
00000000
10000000
00100000
00000000
01000000
00010000
00000000
10000000
00000000
00000000
00000000
,
12000000
00000000
00000000
00000000
03100000
00000000
00000000
00100000
00010000
00000000
01000000
00000000
00001000
00000000
00020000
00000000
,
00000000
00000000
00030100
00000000
00001000
00000000
00000001
00000100
00000000
00000010
00001000
00000000
00000100
00000000
00000002
00000000
,
00000000
00000000
00000103
00000000
00000010
00000000
00000001
00001000
00000000
00000001
00000100
00000000
00000010
00000000
00002000
00000000
,
00000000
00000000
00003100
00000000
00010000
00000000
00001000
01000000
00001000
00000000
01000000
00000000
00100000
00000000
01000000
00000000
,
01020000
00000000
00000000
00000000
10030000
00030000
00000000
10000000
01000000
00000000
00100000
00000000
00010000
00000000
00000000
00000000
,
10000000
00000000
00200000
00000000
00000000
00320000
00000000
00000000
00032000
00000000
00000000
00003200
00000000
00000000
00000310
00000000
,
00002000
00000000
00000000
00000000
00003100
00000000
00001000
00000001
00001000
00000000
00000001
00000000
00000100
00000000
00001000
00000000
,
00000200
00000000
00000000
00000000
00000310
00000000
00001000
00000100
00000000
00010000
00001000
00000000
00010000
00000000
00000000
00000000
,
00001000
00000000
01000000
00000000
00100000
00000000
01000000
00010000
01000000
00000000
00010000
00000000
00100000
00000000
02000000
00000000
,
00000000
00000000
13000000
00000000
00100000
00000000
10000000
01000000
00000000
00100000
00001000
00000000
00010000
00000000
00000020
00000000
,
00000000
00000031
00000010
00000100
00000010
00001000
00000100
00010000
,
00001000
00100000
00000000
00100000
00001000
00000000
00010000
00000010
00000000
00000010
00010000
00000000
00001000
00010000
00001000
00010000
,
00001000
00000000
01000000
00000000
00100000
00000000
10000000
01000000
10000000
01000000
10000000
00000000
00010000
00000000
02000000
00000000
,
00000000
03100000
00010000
00001000
00000100
00000010
00001000
00000002
,
00000000
00000010
00000010
00000010
00000013
00000011
00000000
00002001
,
00000000
00000000
00003010
00000000
00000100
00000000
00000001
00001000
00000001
00000000
00000100
00000000
00000010
00000000
00010000
00000000
,
00010100
00000000
00000000
00000000
00101000
00000000
00000000
00001000
00010000
00001000
00010000
00000000
00001000
00000000
02000000
00000000
,
00000000
03100000
00010000
00100000
01000000
00100000
10000000
00020000
,
00000000
00100000
00100000
00100000
00130000
00110000
00000000
20010000
,
00000000
00000000
30100000
00000000
00010000
00000000
00100000
00000000
01000000
00010000
01000000
00000000
00001000
00010000
00001000
00000000
,
00011000
00000000
00000000
00000000
00001001
00000000
00000000
00000000
00000001
00000010
00000100
00000000
00001000
00000000
00000020
00000000
,
00000000
00000130
00000130
00001000
00001000
00010000
00000100
00020000
,
00000000
00000010
00000010
00001000
00031000
00011000
00000000
00201000
,
00000000
00000000
00310000
00000000
01000000
00000000
00100000
10000000
00100000
00000000
00010000
00000000
00001000
00000000
00000000
00000000
,
00011000
00000000
00000000
00000000
10010000
00000000
00000000
00000000
10000000
01000000
00100000
00000000
00010000
00000000
02000000
00000000
,
00000000
03100000
03100000
00010000
00010000
00001000
00100000
00002000
,
00000000
01000000
01000000
00010000
00013000
00011000
00000000
00010200
,
00000000
00000000
00001300
00000000
00000010
00000000
00000100
00000010
00000100
00000010
00000100
00000000
00000001
00001000
00000001
00001000
,
00000001
00000000
00000000
00000000
00000101
00000000
00000000
00001000
00000100
00000000
00010000
00000000
00001000
00000000
01000000
00000000
,
00100000
00000000
00000000
00100000
00000000
00000000
00200000
00000000
00000000
00000000
10300000
00000000
00010000
00000000
10000000
01000000
,
00100000
00001000
00010000
00010020
00000000
00000130
00001000
00000100
,
00000001
00000000
00000020
00000000
00000000
00000230
00000000
00000000
00020300
00000000
00000000
00032000
00000000
00000000
01003000
00000000
,
00000000
00000000
00002000
00000000
00000000
00000100
00000000
00000000
00010000
00000000
00000000
00100000
00000000
00000000
00013000
00000000
,
00000000
00000000
00020000
00000000
00000000
01000000
00000000
00000000
00001000
00000000
00000000
00000010
00000000
00000000
00031000
00000000
,
00000000
00000000
00002000
00000000
00000000
00100000
00000000
00000000
00023000
00000000
00000000
00000010
00000000
00000000
00031000
00000000
,
01000000
00100000
10000000
01000000
00100000
00001000
00010000
00000000
,
00001000
00010000
00001000
00010000
00001000
00000000
00000000
00000000
00000000
00000000
00010010
00000000
00000000
00000000
00002010
00030000
,
00000000
00003001
00000010
00001000
00010000
01000000
10000000
00200000
,
00000000
00000000
01300000
00000000
00010000
00000000
10000000
01000000
10000000
00000000
00010000
00000000
01000000
00000000
00200000
00000000
,
00000000
10300000
20000000
00000000
31000000
00100000
00001000
00010000
,
00001000
00010000
00001000
00010000
00001000
00010000
00001000
00010000
00001000
00000000
01000000
00000000
00000000
00000000
01020000
00003000
,
00000000
10030000
01000000
00010000
00001000
00000010
00000001
00000200
,
00000000
00000000
00000310
00000000
00001000
00000000
00000001
00000010
00000001
00000000
00001000
00000000
00000010
00000000
00000200
00000000
,
00000000
00000310
00000010
00000020
00000000
00001030
00000100
00010000
,
00001000
00010000
00001000
00010000
00001000
00010000
00001000
00010000
00001000
00010000
00031000
00010000
00031000
00010000
00001000
00010000
,
00001000
00000000
00000000
01001000
00000000
01100000
00000000
20000000
,
00000000
31000000
00100000
01000000
00100000
00010000
10000000
10000000
,
00100000
00010000
00010000
00100000
01000000
00010000
00100000
00001000
,
00010000
00001000
00010000
00001000
00010000
00001000
00010000
00001000
00010000
00001000
00010000
00001000
00010000
00001000
00010000
00001000
,
00010000
00001000
00010000
00001000
00010000
00001000
00010000
00001000
00010000
00001000
00010000
00001000
00010000
00001000
00010000
00001000
,
00010000
00000000
00000000
00010100
00000000
00001001
00000001
00000100
,
00000010
00001000
00000000
00000010
00001000
00000000
00000100
00010000
00000000
00000100
00010000
00000000
00001000
00000000
01000000
00000000
,
02200000
00000000
00000000
00000000
,
00000000
00000000
00000000
00000000
,
00000000
00000000
00000000
03300000
,
00022000
00000000
00033000
00000000
,
00000000
00000000
00000000
00000000
,
00000110
00000000
00000000
00000000
;

//---------------dance-double - ----------------
#NOTES:
     dance-double:
     :
     Medium:
     10:
     0.463119,0.557979,0.313074,0.403967,0.000000,321.000000,290.000000,31.000000,40.000000,0.000000,0.000000,0.463119,0.557979,0.313074,0.403967,0.000000,321.000000,290.000000,31.000000,40.000000,0.000000,0.000000:
00000000
00000000
00000000
00000000
,
00000000
00000000
00000000
00000000
,
00000000
00000000
00000000
00000000
,
00000000
00000000
00000000
00000000
,
00012000
00000000
00103000
00000000
00001000
00100000
00010000
00000000
,
00100000
00010000
01000000
00000000
00010000
01000000
00100000
00000000
,
20000000
00000000
30020000
00000000
00032000
00000000
00003001
00000100
,
00000001
00000100
00000020
00000000
00001030
00000100
00000010
00000000
,
00000012
00000000
00001003
00000000
00000001
00001000
00000100
00000000
,
00001000
00000010
00000100
00000000
00000010
00001000
00000001
00000000
,
00001000
00000100
00001000
00000100
00010000
00001000
00010000
00001000
,
00100000
00010000
00100000
00010000
10000000
00100000
01000000
00000000
,
20010000
00000000
31000000
00000000
10000000
01000000
00100000
00000000
,
00010000
02000000
00000000
03001000
00020000
00000000
00030100
00000000
,
00002002
00000000
00003003
00000000
00000001
00000100
00000010
00000000
,
00002000
00000000
00003001
00000010
00000100
00000010
00000200
00000000
,
00010300
00000000
00011000
00000000
00001000
00100000
00010000
00000000
,
01000000
00000000
01010000
00000000
10000000
01000000
00100000
00000000
,
00010000
10000000
00010000
10000000
00100000
01000000
00100000
01000000
,
00002000
00020000
00000000
00033000
,
00010100
00000000
00010100
00000000
00010000
00000010
00000000
00000010
,
00000000
00000200
00000000
00000000
00000301
00001000
00000001
00000000
,
00001000
00000100
00000010
00000100
00000010
00000200
00000000
00002300
,
00000000
00000000
00003010
00000000
00001000
00000100
00010000
00000000
,
00011000
00000000
00101000
00000000
00001000
01000000
00000000
01000000
,
00000000
00200000
00000000
00000000
10300000
00010000
10000000
00000000
,
00010000
01000000
00100000
00000000
10000000
01000000
00100000
00000000
,
00020000
00000000
01030000
00001000
00010000
00000000
00001000
00000000
,
00010100
00000000
00010100
00000000
00010000
00002000
00000000
02003000
,
00000000
03100000
01000000
00100000
01000000
00100000
01000000
00020000
,
00000000
00000000
10000000
00000000
10030000
00000000
00010000
01000000
,
00000000
01000000
00100000
00000000
10000000
00010000
00100000
00000000
,
00101000
00000000
00101000
00000000
00001000
00020000
00000000
00030020
,
00000000
00000130
00000010
00000100
00000010
00000100
00000010
00002000
,
00000000
00000000
00000001
00000000
00003001
00000000
00001000
00000010
,
00000000
00000010
00000100
00000000
00000001
00001000
00000100
00000000
,
00010000
00000000
00010100
00000000
00000000
00010000
00001000
00000000
,
00001000
00000000
01001000
00000000
00000000
00001000
00010000
00000000
,
00001000
00010000
00000010
00000000
00000000
00000000
00010010
00000000
,
00010000
00001000
00100000
00000000
00000000
00000000
00101000
00000000
,
00001000
00010000
00000010
00000110
,
00000010
00001000
00000100
00010100
,
00010000
00001000
00100000
01100000
,
00100000
00010000
01000000
01001000
,
00001000
00010000
00002000
00000000
00000000
00013000
00000000
00021000
,
00000000
00000000
00030010
00000000
00000100
00000010
00000100
00000000
,
00000001
00000010
00000100
00000000
00001000
00000010
00000100
00000000
,
00000002
00000000
00000023
00000000
00000130
00001000
00000010
00000000
,
00010000
00001000
00010000
00001000
00010000
00001000
00000000
00012000
,
00000000
00000000
01003000
00000000
00100000
01000000
00100000
00000000
,
10000000
01000000
00100000
00000000
00010000
01000000
00100000
00000000
,
20000000
00000000
32000000
00000000
03100000
00010000
01000000
00000000
,
00001000
00010000
00001000
00010000
00001000
00010000
00001000
00010000
,
00001000
00000000
00000000
00022000
00000000
00000000
00033000
00000000
,
00010000
00000000
00000010
00000000
00000100
00000010
00000100
00000000
,
00000001
00000000
00000010
00000000
00000100
00000010
00000100
00000000
,
00010000
00001000
00010000
00001000
00010000
00001000
00010000
00001000
,
00010000
00001000
00010000
00001000
00010000
00001000
00010000
00001000
,
00010000
00000000
00000000
00022000
00000000
00300000
00033000
00000000
,
01001000
00000000
01100000
00000000
10100000
00000000
10000000
00010000
,
20020000
00000000
00000000
00000000
,
00000000
00000000
00000000
00000000
,
00000000
00000000
00000000
30030000
,
00200000
00000000
00300000
00000000
,
00000000
00000000
00000000
00000000
,
00011000
00000000
00000000
00000000
;

//---------------dance-double - ----------------
#NOTES:
     dance-double:
     :
     Easy:
     6:
     0.291433,0.590802,0.252479,0.282777,0.000000,202.000000,177.000000,25.000000,28.000000,0.000000,0.000000,0.291433,0.590802,0.252479,0.282777,0.000000,202.000000,177.000000,25.000000,28.000000,0.000000,0.000000:
00000000
00000000
00000000
00000000
,
00000000
00000000
00000000
00000000
,
00000000
00000000
00000000
00000000
,
00000000
00000000
00000000
00000000
,
00022000
00033000
00010000
00000010
,
00000100
00000100
00000001
00000000
,
00001000
00000100
00001000
00000100
,
00010000
00001000
01000000
00000000
,
00020000
00030000
10000000
01000000
,
00100000
00100000
00010000
00000000
,
01000000
01000000
00001000
00001000
,
00010000
00000100
00000010
00000000
,
00000002
00000003
00001000
00001000
,
00000020
00000030
00000200
00000300
,
00002002
00003003
00001000
00000100
,
00010000
00010000
00001000
00001000
,
00100000
00100000
01000000
00000000
,
10000000
10000000
00100000
00000000
,
10000000
00100000
01000000
00001000
,
00010000
00022000
00000000
00033000
,
00010000
00000100
00000010
00000001
,
00000100
00000100
00000010
00000000
,
00001000
00000001
00001000
00000001
,
00001000
00000100
00010000
00000000
,
00001000
00001000
00100000
00010000
,
01000000
00100000
10000000
00000000
,
00010000
10000000
00010000
10000000
,
01000000
01000000
00100000
00000000
,
00001000
00010000
00001000
00010000
,
00000010
00000100
00000001
00000000
,
00001000
00000100
00001000
00000100
,
00010000
00001000
00100000
00000000
,
00010000
10000000
00010000
10000000
,
00100000
01000000
00010000
00000000
,
00100000
00001000
00100000
00001000
,
00010000
00000010
00000100
00000000
,
00002002
00003003
00001000
00000000
,
00000100
00000100
00010000
00000000
,
00010000
00010000
00001000
00000000
,
00001000
00001000
01000000
00000000
,
00200000
00300000
00100000
00100000
,
02000000
03000000
01000000
01000000
,
00002000
00003000
00001000
00001000
,
00020000
00030000
00000200
00000300
,
00001001
00002002
00003003
00000000
,
00000001
00000100
00000010
00000000
,
00001000
00000100
00010000
00000000
,
00001000
00100000
00010000
00000000
,
10010000
10010000
20020000
30030000
,
10000000
00000000
00010000
00000000
,
10000000
00100000
01000000
00000000
,
00010000
00100000
00001000
00000000
,
00011000
00011000
00011000
00011000
,
00022000
00033000
00000000
00000000
,
00010000
00000010
00000100
00000000
,
00000001
00000010
00000100
00000000
,
00011000
00011000
00011000
00011000
,
00011000
00011000
00011000
00011000
,
00022000
00000000
00033000
00000000
,
00001000
00100000
01000000
10000000
,
20020000
00000000
00000000
00000000
,
00000000
00000000
00000000
00000000
,
00000000
00000000
00000000
30030000
,
00200000
00000000
00300000
00000000
,
00000000
00000000
00000000
00000000
,
10010000
00000000
00000000
00000000
;
