#TITLE:VERTICAL ECLIPSE;
#SUBTITLE:;
#ARTIST:TAG;
#TITLETRANSLIT:;
#SUBTITLETRANSLIT:;
#ARTISTTRANSLIT:;
#GENRE:;
#CREDIT:;
#BANNER:Vertical Eclipse.png;
#BACKGROUND:Vertical Eclipse-bg.png;
#LYRICSPATH:;
#CDTITLE:;
#MUSIC:Vertical Eclipse.ogg;
#OFFSET:0.918000;
#SAMPLESTART:33.871937;
#SAMPLELENGTH:12.000000;
#SELECTABLE:YES;
#DISPLAYBPM:100.000000:400.000000;
#BPMS:0.000000=200.000000
,52.000000=400.000000
,80.000000=800.000000
,84.000000=400.000000
,144.000000=800.000000
,148.000000=400.000000
,172.000000=200.000000
,176.000000=400.000000
,230.000000=800.000000
,235.000000=400.000000
,302.000000=100.000000
,318.000000=200.000000
,346.000000=400.000000
,350.000000=200.000000
,380.000000=400.000000
,408.000000=800.000000
,412.000000=400.000000
,500.000000=800.000000
,508.000000=400.000000
,583.000000=800.000000
,585.000000=400.000000
,587.000000=800.000000
,595.000000=400.000000
;
#STOPS:80.000000=0.112000,
81.500000=0.113000,
83.000000=0.075000,
144.000000=0.112000,
145.500000=0.113000,
147.000000=0.075000,
175.000000=0.300000,
230.000000=0.075000,
231.000000=0.075000,
232.000000=0.075000,
233.000000=0.150000,
346.000000=0.075000,
346.500000=0.075000,
347.000000=0.075000,
347.500000=0.150000,
348.500000=0.075000,
349.000000=0.075000,
349.500000=0.075000,
378.000000=0.600000,
408.000000=0.113000,
409.500000=0.112000,
411.000000=0.075000,
500.000000=0.037000,
500.500000=0.037000,
501.000000=0.037000,
501.500000=0.037000,
502.000000=0.075000,
503.000000=0.038000,
503.500000=0.037000,
504.000000=0.037000,
504.500000=0.037000,
505.000000=0.075000,
506.000000=0.038000,
506.500000=0.037000,
507.000000=0.075000,
580.000000=0.150000,
583.000000=0.050000,
583.666687=0.050000,
584.333313=0.050000,
587.000000=0.050000,
587.666687=0.050000,
588.333313=0.050000,
589.000000=0.050000,
589.666687=0.050000,
590.333313=0.050000,
591.000000=0.050000,
591.666687=0.050000,
592.333313=0.050000,
593.000000=0.050000,
593.666687=0.050000,
594.333313=0.050000,
595.000000=0.150000
;
#BGCHANGES:4.000=Vertical Eclipse.mp4=1.000=0=0=1=====,
99999=-nosongbg-=1.000=0=0=0 // don't automatically add -songbackground-
;
#KEYSOUNDS:;
#ATTACKS:;

//---------------dance-single - ----------------
#NOTES:
     dance-single:
     :
     Hard:
     17:
     0.865052,1.552005,0.262908,1.272135,0.144175,714.000000,683.000000,31.000000,150.000000,0.000000,0.000000,0.865052,1.552005,0.262908,1.272135,0.144175,714.000000,683.000000,31.000000,150.000000,0.000000,0.000000:
0000
0000
0000
0000
,
0000
0000
0000
0000
,
0000
0000
0000
0000
,
0000
0000
0000
0000
,
0000
0000
0000
0000
,
2000
0000
3200
0000
,
0320
0000
0032
0000
,
0203
0000
0000
0020
0000
0000
0330
0000
,
2002
0000
0000
3003
,
0001
0003
0000
0101
0000
0000
0000
0000
,
1000
0100
0000
1100
0000
0000
0000
0000
,
0001
0000
0010
0000
0100
0000
1000
0000
0010
0100
0010
0100
0010
0100
0010
0100
,
0001
0000
0000
0000
0000
0000
0000
0000
0000
0000
1000
0001
1000
0000
0000
0000
,
0001
0010
0010
0001
,
0100
0100
0010
1000
,
0100
0010
0010
0001
,
0010
0010
0100
1000
,
0010
0100
0100
0001
,
1000
1000
0001
0010
,
0100
0000
1000
0000
0010
0000
1000
0001
,
1000
0000
0000
1010
0000
0000
1001
0000
,
0201
0000
0310
1000
,
1200
0000
0310
0001
,
2001
0000
3010
0100
,
0120
0000
1030
0001
,
0010
0010
0100
0100
,
1000
0001
1000
2020
,
3033
0000
1033
0000
0001
0003
0202
0000
,
3303
0000
0001
1000
0001
0000
1000
0000
,
0002
0023
2030
3002
,
0203
2300
3002
0023
,
2030
3002
0203
2300
,
3020
0000
0130
0000
0301
1000
0001
0000
,
2000
3200
0302
2003
,
3020
0032
2003
3200
,
0302
0000
2003
0000
3020
0000
0031
1000
,
0001
0000
0000
0101
0000
0000
1000
0000
,
2200
3333
1000
0100
,
1000
0000
0010
0100
0001
0000
0010
0000
,
0022
3333
0001
0010
,
0001
0000
0100
0010
1000
0000
0100
0000
,
1000
0010
1000
0010
1000
0000
0001
0100
,
0001
0000
1000
0100
0010
0001
1000
0001
,
0200
1000
3301
1001
,
0001
0100
0020
0000
1030
0030
0100
0000
,
0020
0000
0031
0000
2000
0000
3001
0100
,
0010
0100
0002
0000
1003
0000
0100
0000
,
0020
0000
0031
0000
2000
0000
3010
0100
,
0001
0100
0020
0000
0130
0000
0001
0000
,
2000
0000
3100
0000
0020
0000
0031
1000
,
0010
1000
0002
0000
0013
0000
0001
1000
,
0020
0133
0220
0330
,
0010
1000
0100
0010
,
0001
0000
1000
0000
0002
0000
0103
0010
,
0100
0000
0020
0000
1030
0100
0010
0001
,
2000
0000
0000
0000
3001
0000
1000
0010
,
1000
0000
0010
0000
0100
0001
1000
0000
,
0001
1000
0001
1000
0001
0000
0010
0000
,
0100
0000
2000
0000
0300
0000
3010
0100
,
0001
1000
0001
1000
0100
0000
1000
0001
,
0200
0000
1300
0000
0100
0000
0010
1000
,
0002
0000
1003
0100
0020
0000
0031
1000
,
0100
0020
1030
0010
,
0002
0000
0103
0010
2000
0000
3001
0100
,
0010
0200
1300
0100
,
0002
0000
1003
0100
0020
0000
0130
1000
,
0001
1000
0020
0000
1030
0000
0010
0000
,
0200
0301
2002
3003
,
0001
0010
0100
1000
,
0001
0000
1000
0000
0020
0000
0130
0001
,
1000
0002
0013
0100
,
2000
0000
3001
0100
,
0010
0000
1000
0100
0010
0000
0001
1000
,
0010
0100
0001
1000
0200
0000
0000
0000
,
0310
0001
1000
0010
,
0100
0000
0001
1000
0002
0000
0000
0000
,
0203
0000
0320
0000
,
2030
0000
3002
0000
2003
0100
3020
0001
,
0230
1000
0302
0010
2003
0000
0000
0000
,
0002
0000
0000
3003
0001
0000
1000
0100
,
1100
0000
0001
0010
0100
0010
1000
0310
,
0100
0010
0001
1000
0020
0000
0130
0001
,
0101
0000
1000
0100
0001
0100
2000
0000
,
3010
0000
0000
0000
1002
0000
0013
0100
,
2000
0000
3010
0000
0000
0100
0100
0000
,
0102
0000
1303
0000
0001
0010
0000
0100
,
0210
0000
1330
0000
0301
1000
0001
1000
,
0000
0001
0100
0010
2000
0000
0100
0000
,
0100
0100
0100
0100
,
0100
0100
3002
0100
,
0100
0100
0100
0100
,
0100
0000
0000
0000
0100
0000
0000
0000
1003
0100
1000
0100
0010
0000
0000
0001
,
1000
0000
0001
0000
0100
0000
0100
0000
0001
0100
0001
0100
0010
0000
0000
1000
,
0001
0000
1000
0000
0100
0000
0100
0000
1000
0100
1000
0000
0001
0100
0001
0000
,
1000
0010
1000
0000
0001
1000
0001
1000
0020
0000
0030
0000
1001
0000
0000
0000
,
2000
3200
0302
0203
,
1300
0010
0200
0000
0302
0000
2003
0000
,
3001
0010
0100
0000
0010
0100
1000
0000
,
0100
1000
0001
0000
1000
0001
0100
0000
,
0001
1000
0002
0000
0023
0000
2030
0000
,
3020
0032
0203
0310
,
1000
0100
0010
0000
0001
0000
1000
0001
,
0100
0000
0000
0101
0000
0000
1010
0000
,
0001
0000
1000
0010
0100
0000
0001
0000
,
1000
0100
0010
0000
0001
0010
0100
0000
,
2000
3020
0032
0023
,
1030
0001
0010
0000
0100
0000
1000
0000
,
0001
0100
0001
0000
1000
0010
1000
0000
,
0001
0010
0100
2200
,
3300
0001
0100
0202
,
0303
0000
1000
0100
0010
0000
0001
0000
,
2000
3010
0002
0013
,
2000
3010
0032
0013
,
2000
3100
0302
0103
,
2000
0000
3010
0100
0002
0000
0000
0000
,
1003
0000
0001
0100
0000
0010
1000
0000
,
0001
0000
1000
0100
0000
0010
0001
0000
,
1000
0010
0100
0001
1000
0000
0100
0300
,
0020
0000
0031
0000
1000
0000
0001
0100
,
0010
0000
1000
0001
0000
0001
2000
0000
,
3010
0000
0100
0000
0001
0000
0010
0100
,
1000
0000
0001
1000
0000
1000
0002
0000
,
0013
0000
0100
0000
1000
0000
0010
0100
,
0001
0000
1000
0100
0000
0010
0001
0000
,
1000
0000
0001
0100
0000
0010
1000
0000
,
0001
0100
0001
0100
0001
0000
1000
0010
,
1000
0010
1000
0000
0001
1000
0001
0000
,
1000
0000
0010
0000
0100
0000
0001
0000
0010
0000
0100
0000
,
1000
0000
0001
0000
0100
0000
0010
0000
1000
0000
0001
0000
,
1000
0000
0001
0100
0000
0010
1000
0010
,
2000
0000
0000
3200
0000
0000
0320
0000
,
0031
0000
1000
0010
0000
0100
0001
0100
,
0002
0000
0000
0023
0000
0000
0230
0000
,
1300
0000
0001
0100
0000
0001
0010
0100
,
1000
0000
0010
0000
0100
0001
1000
0000
,
2002
0000
0000
0000
,
0000
0000
3003
0000
0001
0000
1003
0001
,
1000
0100
0010
0001
,
1000
0010
0100
0001
1000
0000
0000
0000
,
0001
0010
0100
0000
1000
0010
0100
0300
,
0001
1000
0001
1000
0010
0000
0000
0000
,
1000
0010
1000
0010
1000
0001
1000
0000
,
0001
0010
0001
0010
0001
1000
0001
0000
,
2000
3100
0020
0031
,
0200
0000
0310
0000
2000
0000
3001
0010
,
0100
0000
0000
2002
0000
0000
3003
0000
0000
0001
0000
0100
,
0000
0010
0000
2000
0000
0000
0000
0000
0000
3301
0000
0010
,
0000
0100
0000
1000
0000
0010
0000
0100
0000
0001
0000
0010
,
0000
0100
0000
1000
0000
0010
0000
0100
0000
0001
0000
0000
,
2002
0000
0000
0000
,
0000
3003
0220
0000
,
0000
0000
0000
0000
,
0000
0000
0330
0000
;

//---------------dance-single - ----------------
#NOTES:
     dance-single:
     :
     Medium:
     14:
     0.691799,1.099337,0.424045,1.068594,0.050885,571.000000,521.000000,50.000000,126.000000,0.000000,0.000000,0.691799,1.099337,0.424045,1.068594,0.050885,571.000000,521.000000,50.000000,126.000000,0.000000,0.000000:
0000
0000
0000
0000
,
0000
0000
0000
0000
,
0000
0000
0000
0000
,
0000
0000
0000
0000
,
0000
0000
0000
0000
,
0002
0000
0203
0000
,
0320
0000
2030
0000
,
3200
0000
0000
0020
0000
0000
0330
0000
,
2002
0000
0000
3003
,
1000
0000
0000
1010
0000
0000
0000
0000
,
0001
0010
0000
0011
0000
0000
0000
0000
,
1000
0100
0010
0001
1000
0010
0001
0010
,
2000
0000
0000
0000
0000
3001
1001
0000
,
0001
0200
0000
0301
,
0010
0100
1000
0001
,
1000
0020
0000
1030
,
0100
0010
0001
0100
,
0010
2000
0000
3001
,
0010
0100
1000
0010
,
0100
0002
0000
1003
,
0100
0000
0000
0100
0000
0000
0010
0000
,
0002
0000
0103
0010
,
2000
0000
3100
0010
,
0002
0000
0103
0010
,
2000
0003
3001
0010
,
0011
0000
1001
0000
,
0001
0100
0010
1000
,
0000
0001
0100
0001
,
0000
1000
0100
1000
,
0000
0001
0100
0010
,
0100
1000
0100
0010
,
0100
0001
0010
0100
,
1000
0001
0100
0001
,
1000
0010
0100
0010
,
0001
0010
0100
0010
,
1000
0001
0010
0001
,
1000
0000
0000
0010
0000
0000
0100
0000
,
0202
3303
1000
0100
,
0020
0000
0331
1000
,
2020
3030
0001
0010
,
0200
0000
1300
0001
,
0202
0000
0303
0000
2020
0000
3030
3000
,
0001
0000
0010
0000
0100
0000
1000
0001
,
1000
0000
3003
1001
,
0001
0100
0002
0000
0000
0000
0133
0000
,
0010
1000
0200
0000
,
1300
0001
2000
0000
0000
0000
3013
0000
,
0010
0100
0002
0000
,
1003
0100
2000
0000
0000
0000
3301
0000
,
0001
0010
0200
0000
,
1300
0001
2000
0000
0000
0000
3031
0000
,
0001
0100
0020
0000
,
1330
0000
0001
0010
,
0100
0000
1000
0001
,
1000
0010
0100
0001
,
0010
0100
1000
0010
,
0100
0001
1000
0100
,
1000
0001
1000
0010
,
0100
0002
0000
1003
,
0100
0000
0010
0000
0001
0000
1000
0010
,
1000
0002
0000
0103
,
0010
0000
1000
0000
0001
0000
0010
0100
,
0010
0200
0000
1300
,
0020
0000
0000
0000
0130
0000
0001
0100
,
0001
2000
0000
3100
,
0010
0000
0001
0000
1000
0000
0010
0100
,
0010
0200
0000
0301
,
0010
0000
1002
3000
,
1033
0010
1000
0100
,
0010
0001
1000
0010
,
3001
0010
1000
0100
,
0010
0000
1032
0000
,
1303
0000
0000
0001
0100
0000
0010
0000
,
1000
0000
0001
1000
0002
0000
0000
0000
,
3023
0000
0130
1000
,
0001
0000
1000
0001
2000
0000
0000
0000
,
3020
0000
0230
0000
,
0302
2003
3200
0320
,
0032
0203
0320
0000
,
0200
0000
0000
0330
2001
0000
3100
0000
,
1100
0000
0001
0100
0000
0101
0000
0110
,
0000
1010
0000
1000
0001
0000
0010
0000
,
0011
0000
0001
0100
0000
0010
1000
0000
,
1010
0000
0002
0010
,
2003
0010
3002
0100
,
2003
0000
0100
0000
3002
0000
0000
0203
,
0000
0000
0310
0000
1000
0001
1000
0001
,
0000
1000
0100
0010
0002
0000
0003
0000
,
0011
0011
2000
3000
,
1010
1010
0002
0003
,
0101
0303
0101
0000
2000
0000
3000
0000
,
1100
0000
1100
0000
0001
1000
0100
1000
,
0001
1000
0010
0010
1000
0001
0010
0001
,
1000
0001
0100
0100
0001
0010
1000
0010
,
0001
0100
1000
0100
0002
0000
1003
0000
,
0001
0100
1000
0100
,
0001
0010
0100
1000
,
0000
2200
3330
0220
,
0330
3022
0333
2002
,
3003
0000
1000
0000
0010
0030
0100
0000
,
0001
0010
0100
0020
,
0000
0130
0100
1330
,
0001
0000
0000
0100
0000
0000
0010
0000
,
2020
3030
1000
1000
,
0001
0002
0000
0233
,
0000
0301
0010
0100
,
1000
0000
0010
0030
0001
0000
0010
0000
,
1000
0100
0010
0001
,
0100
0100
0010
0220
,
0330
1000
0001
2002
,
3003
0000
1000
0001
1000
0000
0000
0000
,
2200
3300
0202
0303
,
2203
3300
0202
0303
,
2323
3030
3022
0033
,
1033
0001
2002
3003
,
3001
0000
1000
0010
0000
1000
0010
0000
,
0100
0000
0001
0010
0000
0001
0010
0000
,
0100
0000
1000
0001
0000
1000
0001
0000
,
0200
0000
0310
1000
,
0001
0000
1000
0100
0000
0100
0010
0000
,
0002
0030
1033
0100
,
1000
0000
0001
0100
0000
0100
0010
0000
,
2000
0030
3001
0100
,
0202
0303
2020
3030
,
0001
0010
0100
1000
,
0001
0010
0001
0000
0000
0000
1000
0010
,
1000
0000
0000
0000
0001
1000
0001
0000
,
2002
0000
0000
3003
,
0001
0000
0100
0000
0010
0000
2000
0000
0000
0000
0000
0000
,
3001
0000
0100
0010
0000
1000
0010
0000
,
2000
0000
0000
3200
0000
0000
0301
0000
,
0100
0000
0010
0001
0000
1000
0001
0000
,
0200
0000
0000
2300
0000
0000
3100
0000
,
0010
0000
1000
0100
0000
0010
0001
0000
,
1000
0000
0001
0100
0000
0010
2000
0000
,
0002
0000
0000
0000
,
0000
0000
3003
0000
1000
0003
0001
0100
,
0001
0010
0100
1000
,
0010
0010
0110
0000
,
1000
0100
0010
0001
,
0100
0100
0110
0000
,
0001
0100
0001
0000
0100
0000
0010
0000
,
1000
0100
1000
0000
0100
0000
0010
0000
,
0002
0103
0020
1030
,
0002
0013
0200
1300
,
0001
0000
0000
2002
0000
0000
3003
0000
0000
1000
0000
0100
,
0000
0010
0000
0002
0000
0000
0000
0000
0000
1303
0000
0010
,
0000
1000
0000
0010
0000
1000
0000
0010
0000
0100
0000
0001
,
0000
0100
0000
0001
0000
0100
0000
0001
0000
1000
0000
0000
,
2002
0000
0000
0000
,
0000
3003
0220
0000
,
0000
0000
0000
0000
,
0000
0000
0330
0000
;

//---------------dance-single - ----------------
#NOTES:
     dance-single:
     :
     Easy:
     11:
     0.512489,0.776002,0.271389,0.958342,0.000000,423.000000,391.000000,32.000000,113.000000,0.000000,0.000000,0.512489,0.776002,0.271389,0.958342,0.000000,423.000000,391.000000,32.000000,113.000000,0.000000,0.000000:
0000
0000
0000
0000
,
0000
0000
0000
0000
,
0000
0000
0000
0000
,
0000
0000
0000
0000
,
0000
0000
0000
0000
,
2000
0000
3020
0000
,
0230
0000
0302
0000
,
0023
0000
0000
0200
0000
0000
3333
0000
,
2002
0000
0000
3003
,
0001
0000
0000
0001
0000
0000
0000
0000
,
1000
0000
0000
1000
0000
0000
0000
0000
,
0001
0000
0100
0000
0010
0000
1000
0001
,
1000
0000
0000
1001
,
0001
0100
0010
0000
,
1000
0100
0000
0100
,
0000
0010
0001
0000
,
1000
0010
0000
0010
,
0000
0100
0001
0000
,
1000
0100
0000
0100
,
0000
0010
0001
0000
,
1000
0000
0000
0001
0000
0000
0100
0000
,
0200
0000
0310
0000
,
2001
0000
3100
3010
,
0200
0000
0313
0000
,
1002
0000
0103
0010
,
2000
0000
3002
0000
,
1003
0100
0010
0001
,
0000
1000
0100
1000
,
0000
0001
0100
0001
,
0000
0000
1000
0200
,
0300
1000
0002
0003
,
1000
0020
0030
1000
,
0002
0003
1003
0100
,
0020
0030
0001
2000
,
3030
0001
0200
3300
,
0001
0020
0330
0001
,
1000
0000
0000
0001
0000
0000
0100
0000
,
0020
0000
1030
0001
,
0020
0000
0031
1000
,
0200
0000
1300
0001
,
0200
0000
0301
0000
,
0101
0000
1001
0000
,
1010
0000
0110
0000
,
2002
0000
3003
0110
,
1000
0020
0000
0000
,
0130
0001
1000
0000
,
0001
0020
0000
0000
,
0130
1000
0010
0000
,
1000
0002
0000
0000
,
0103
0010
0100
0000
,
0001
2000
0000
0000
,
3100
0000
2002
0000
,
3003
0000
1000
0001
,
0100
0000
0001
0000
,
1000
0100
0000
0100
,
0010
0000
0001
0000
,
1000
0001
0000
0001
,
0100
0000
0001
1000
,
0100
0020
0000
3333
,
0110
0000
1001
0000
,
1000
0200
0000
0310
,
0001
1000
0010
0000
,
0100
0002
0000
0013
,
0100
1000
0001
0000
,
1000
0020
0000
0130
,
0001
0010
0100
0000
,
1000
0002
0000
0103
,
0010
0000
2002
0000
,
3003
0000
0001
1000
,
0100
0000
1000
0000
,
0001
0100
0000
0100
,
0010
0000
2000
0000
,
3001
0000
1000
0100
,
0010
0001
0200
0000
,
0310
0000
0100
0001
,
0010
0100
2000
0000
,
3002
0000
0203
0000
,
0320
2030
3002
0023
,
0230
2300
3020
0000
,
0200
0330
1002
0023
,
0230
0000
1300
0001
0000
1000
0000
0010
,
0000
0100
0000
0100
0000
0000
0001
0000
,
0101
0000
1000
0100
0000
0010
0001
0000
,
1001
0000
2000
0000
,
3020
0000
0230
0000
,
0302
0000
0000
0000
0023
0000
0000
0230
,
0000
0000
2300
0000
3001
0100
0001
0100
,
0000
0001
0010
0100
2000
0000
3000
0000
,
1000
1000
0002
0003
,
0001
0001
0200
0300
,
0100
0100
0020
0030
,
0010
0000
0010
0000
1000
0100
1000
0000
,
0001
0000
1000
0000
0001
0100
0001
0000
,
1000
0000
0001
0000
1000
0010
0100
0000
,
0001
0010
0100
0000
2000
0000
3001
0000
,
0001
0100
0001
0100
,
0010
1000
0100
0020
,
0000
0032
0000
2003
,
0000
3020
0000
0230
,
0000
0301
1000
0001
,
1000
0010
0100
0002
,
0000
0013
0020
0000
,
0130
0000
0000
1000
0000
0000
0001
0000
,
0200
0000
0310
2000
,
0000
3002
0000
0023
,
0000
0130
1000
0002
,
0000
1003
0010
0100
,
0001
1000
0001
1000
,
0100
0010
0100
0020
,
0000
0031
1030
0020
,
0000
0230
0000
0300
,
2001
3000
1002
0003
,
2001
3000
1002
0003
,
2001
3000
1002
0003
,
2001
3003
0220
0330
,
1001
0000
0001
0100
,
0010
0000
1000
0100
,
0010
0000
0001
1000
,
0020
0000
0230
0000
,
0301
1000
0001
1000
,
0100
0000
0010
0000
,
0001
0010
0001
0010
,
0100
0000
1000
0000
,
0001
0100
0001
0000
,
1000
0010
1000
0000
,
2002
0000
0000
0000
,
0000
0000
0000
3003
,
0130
0000
0000
0000
,
0000
0000
1001
0000
,
0001
0000
0000
0100
0000
0000
0010
0000
,
0010
0000
0000
1000
0000
0000
0001
0000
,
0001
0000
0000
1000
0000
0000
0100
0000
,
0100
0000
0000
0010
0000
0000
0001
0000
,
0001
0000
0000
1000
0000
0000
0010
0000
,
0010
0000
0000
0100
0000
0000
0001
0000
,
2002
0000
0000
0000
,
0000
0000
3003
0000
,
0001
0010
0100
1000
,
0010
0100
0001
0000
,
1000
0100
0010
0001
,
0100
0010
1000
0000
,
0001
0100
0001
0100
,
0010
1000
0010
1000
,
0002
0000
0023
0000
,
0230
0000
2300
0000
,
3010
2002
0000
0000
,
0330
0000
3003
2000
,
3000
0200
0330
0023
,
0030
0002
0003
0000
,
2002
0000
0000
0000
,
0000
3003
0220
0000
,
0000
0000
0000
0000
,
0000
0000
0330
0000
;

//---------------dance-single - ----------------
#NOTES:
     dance-single:
     :
     Beginner:
     6:
     0.162349,0.382913,0.025443,0.000000,0.000000,134.000000,131.000000,3.000000,0.000000,0.000000,0.000000,0.162349,0.382913,0.025443,0.000000,0.000000,134.000000,131.000000,3.000000,0.000000,0.000000,0.000000:
0000
0000
0000
0000
,
0000
0000
0000
0000
,
0000
0000
0000
0000
,
0000
0000
0000
0000
,
0000
0000
0000
0000
,
0001
0000
0000
0000
,
1000
0000
0000
0000
,
0010
0000
0000
0000
,
0100
0000
0000
0000
,
1001
0000
0000
0000
,
0000
0000
0000
0000
,
0000
0000
0000
0000
,
0000
0000
0000
0000
,
0001
0000
0000
0000
,
0000
0000
0000
0000
,
1000
0000
0000
0000
,
0000
0000
0000
0000
,
0010
0000
0000
0000
,
0000
0000
0000
0000
,
0100
0000
0000
0000
,
0000
0000
0000
0000
,
0010
0000
0000
0000
,
0000
0000
0000
0000
,
1000
0000
0000
0000
,
0000
0000
0000
0000
,
0001
0000
0000
0000
,
0001
0000
0000
0000
,
0000
0000
0000
0000
,
0000
0000
0000
0000
,
1000
0000
1000
0000
,
0000
0000
0000
0000
,
1000
0000
1000
0000
,
0000
0000
0000
0000
,
0010
0000
0010
0000
,
0000
0000
0000
0000
,
0010
0000
0010
0000
,
0000
0000
0000
0000
,
0100
0000
0000
0000
,
0100
0000
0000
0000
,
0100
0000
0000
0000
,
0000
0000
0000
0000
,
0010
0000
0000
0000
,
0010
0000
0000
0000
,
0010
0000
0000
0000
,
0000
0000
0000
0000
,
1000
0000
1000
0000
,
0000
0000
0000
0000
,
0001
0000
0001
0000
,
0000
0000
0000
0000
,
0010
0000
0010
0000
,
0000
0000
0000
0000
,
0100
0000
0100
0000
,
0000
0000
0000
0000
,
0000
0000
1000
0000
,
0000
0000
0000
0000
,
0000
0000
0010
0000
,
0000
0000
0010
0000
,
0000
0000
0010
0000
,
0000
0000
0000
0000
,
0000
0000
0000
0000
,
0100
0000
0000
0000
,
0001
0000
0001
0000
,
0000
0000
0000
0000
,
1000
0000
1000
0000
,
0000
0000
0000
0000
,
0100
0000
0100
0000
,
0000
0000
0000
0000
,
0010
0000
0010
0000
,
0000
0000
0000
0000
,
0000
0000
0001
0000
,
0000
0000
0001
0000
,
0000
0000
0001
0000
,
0000
0000
0000
0000
,
0000
0000
1000
0000
,
0000
0000
0000
0000
,
0000
0000
0010
0000
,
0000
0000
0100
0000
,
0000
0000
0001
0001
,
0001
0000
1000
0000
,
1000
0000
1000
0000
,
0000
0000
0010
0000
,
0010
0000
0010
0000
,
0000
0000
0100
0100
,
0000
0000
0100
0000
,
0000
0000
0001
0000
,
0000
0000
1000
0000
,
0000
0000
0100
0000
,
0000
0000
0100
0000
,
0000
0000
0000
0000
,
0000
0000
0010
0000
,
0000
0000
0000
0000
,
0000
0000
0001
0001
,
0000
0000
1000
1000
,
0000
0000
0010
0010
,
0010
0000
0010
0000
,
1000
0000
0000
0000
,
0000
0000
0000
0000
,
0001
0000
0000
0000
,
0001
0000
0000
0000
,
0001
0000
0000
0000
,
0000
0000
0000
0000
,
0010
0000
0000
0000
,
0010
0000
0000
0000
,
0010
0000
0000
0000
,
0000
0000
0000
0000
,
0100
0000
0000
0000
,
0000
0000
0000
0000
,
1000
0000
0000
0000
,
1000
0000
0000
0000
,
1000
0000
0000
0000
,
0000
0000
0000
0000
,
0010
0000
0010
0000
,
0010
0000
0010
0000
,
0010
0000
0010
0000
,
0010
0000
0000
0000
,
0010
0000
0000
0000
,
0100
0000
0000
0000
,
0100
0000
0000
0000
,
0000
0000
0000
0000
,
0001
0000
0000
0000
,
0001
0000
0000
0000
,
0001
0000
0000
0000
,
0000
0000
0000
0000
,
1000
0000
0000
0000
,
1000
0000
0000
0000
,
1000
0000
0000
0000
,
0000
0000
0000
0000
,
1001
0000
0000
0000
,
0000
0000
0000
0000
,
0001
0000
0000
0000
,
0000
0000
0010
0000
,
0010
0000
0000
0000
,
0000
0000
0100
0000
,
0100
0000
0000
0000
,
0000
0000
1000
0000
,
1000
0000
0000
0000
,
0000
0000
0000
0000
,
0001
0000
0001
0000
,
0001
0000
0000
0000
,
0001
0000
0001
0000
,
0001
0000
0000
0000
,
1000
0000
1000
0000
,
1000
0000
0000
0000
,
1000
0000
1000
0000
,
1000
0000
0000
0000
,
0000
0010
0000
0000
,
0000
0000
0000
1000
,
0000
0000
0000
0001
,
0000
0000
0000
0000
,
0100
0000
0000
0000
,
0000
0000
1001
0000
;

//---------------dance-double - ----------------
#NOTES:
     dance-double:
     :
     Hard:
     17:
     0.861417,1.552005,0.313793,1.390868,0.139935,711.000000,674.000000,37.000000,164.000000,0.000000,0.000000,0.861417,1.552005,0.313793,1.390868,0.139935,711.000000,674.000000,37.000000,164.000000,0.000000,0.000000:
00000000
00000000
00000000
00000000
,
00000000
00000000
00000000
00000000
,
00000000
00000000
00000000
00000000
,
00000000
00000000
00000000
00000000
,
00000000
00000000
00000000
00000000
,
00020000
00000000
00032000
00000000
,
00203000
00000000
00300020
00000000
,
02000030
00000000
00000000
00000200
00000000
00000000
03000300
00000000
,
00022000
00000000
00000000
00333000
,
00101000
00000000
00000000
00101000
00000000
00000000
00000000
00000000
,
00000010
00010000
00000000
00010010
00000000
00000000
00000000
00000000
,
00010000
00000000
00001000
00000000
00010000
00000000
00001000
00000000
00100000
01000000
00100000
01000000
00100000
01000000
00100000
01000000
,
10000000
00000000
00000000
00000000
00000000
00000000
00000000
00000000
00000000
00000000
00010000
10000000
00010000
00000000
00000000
00000000
,
10000000
00100000
00100000
01000000
,
00010000
00010000
00100000
00001000
,
00010000
00000010
00000010
00001000
,
00000001
00000001
00000100
00000010
,
00001000
00000100
00000100
00010000
,
00001000
00001000
01000000
00100000
,
10000000
00000000
00010000
00000000
00010000
00000000
00100000
00001000
,
00100000
00000000
00000000
00101000
00000000
00000000
00011000
00000000
,
00020200
00030000
00001300
00000010
,
00000100
00000001
00001000
00000100
,
00020200
00000300
00031000
00100000
,
00010000
01000000
00100000
10000000
,
20200000
30300000
20020000
30030000
,
00010000
00100000
00001000
00022000
,
00033000
00010000
00000010
00000220
,
00000330
00000000
00330001
00000100
00000001
00000000
00001000
00000000
,
00030302
00000023
00002030
00003002
,
00000203
00002330
00003002
00000203
,
00002300
00023000
00230000
20300000
,
32000000
00000000
03200000
00000000
00310000
10000000
00010000
00000000
,
20303000
32000000
03020000
20030000
,
30200000
03320000
20030000
30200000
,
00320000
00000000
00032000
00000000
00003200
00000000
00000301
00001000
,
00000001
00000000
00000000
00000101
00000000
00000000
00001010
00000000
,
00002002
00000003
00003100
00010000
,
00001000
00000000
01000000
00100000
01000000
00000000
00010000
00000000
,
02020000
03000000
00130000
00001000
,
00010000
00000000
00000010
00000100
00000010
00000000
00001000
00000000
,
00000001
00000010
00000001
00000010
00000001
00000000
00001000
00000010
,
00000100
00000000
00000001
00000000
00001000
00000100
00010000
00001000
,
00200000
10000000
00310000
10310000
,
10000000
00100000
02000000
00000000
03010000
00000000
10000000
00000000
,
02000000
00000000
03100000
00000000
00002000
00000000
00013000
00000010
,
00010000
00000010
00000200
00000000
00000301
00000000
00001000
00000000
,
00000002
00000000
00000013
00000000
00000200
00000000
00001300
00000010
,
00001000
00000010
00020000
00000000
00031000
00000000
00100000
00000000
,
02000000
00000000
13000000
00000000
00020000
00000000
01030000
00001000
,
01000000
00001000
00020000
00000000
00030010
00000000
00000100
00000000
,
00000002
00000013
00000022
00000033
,
00001000
00000010
00000001
00000010
,
00001000
00000000
00000001
00000000
00002000
00000000
00003100
00010000
,
00002000
00000000
00103000
00000000
00010000
01000000
00100000
01000000
,
00020000
00000000
10030000
00000000
02000000
00000000
03100000
00010000
,
00100000
00000000
00320000
00000000
01030000
00001000
02000000
00000000
,
03010000
00100000
00010000
00100000
00001000
00000000
00010000
00000000
,
00001000
00000000
00020000
00000000
00000000
00000000
00030010
00000100
,
00000010
00000100
00000001
00001000
00000002
00000000
00000013
00000100
,
00001000
00000020
00003031
00000010
,
00002000
00000000
00003100
00000000
00020000
00000000
00031000
01000000
,
00010000
00200000
10300000
00100000
,
00020000
00000000
01030000
00000000
03200000
00000000
10300000
01000000
,
00100000
00002000
00003010
00000001
,
00002000
00000000
00003010
00000000
00000200
00000000
00000301
00000010
,
00000100
00020000
01030000
10000000
,
00200000
01300000
20020000
30330000
,
00010000
10000000
01000000
00100000
,
00010000
10000000
00100000
00000000
02000000
00000000
03001000
00010000
,
00000100
00000000
00002000
00000000
00003001
00000100
00000010
00000100
,
00000002
00001003
00002200
00003300
,
00000100
00010000
00001000
00010000
00001000
00000000
01000000
00000000
,
00010000
00100000
01000000
10000000
00200000
00000000
00000000
00000000
,
01300000
10000000
01000000
00010000
,
00100000
00000000
00001000
00010000
00002000
00000000
00000000
00000000
,
00003020
00000000
00000032
00000000
,
00000203
00000000
00002300
00000000
00023000
00000100
00032000
00100000
,
00023000
00000010
00032000
00100000
00023000
00000000
00000000
00000000
,
00200000
00000000
00330000
00000000
10000000
00000000
00010000
01000000
,
01010000
00000000
10000000
01000000
00100000
01000000
00010000
01000000
,
00001000
01000000
00010000
01000000
00200000
00000000
00301000
00010000
,
00010020
00000000
00000130
00000100
00001000
00000100
00000001
00000000
,
00000101
00000000
00000000
00000000
00002000
00000000
00003100
00010000
,
00010100
00000000
00020000
00000000
00030000
00001000
00001000
00000000
,
00011000
00000000
00001000
00000100
00000020
00000000
00001330
00000100
,
00002100
00000000
00003301
00000000
00001000
00000100
00000010
00000002
,
00000000
00000103
00001000
00010000
00002000
00000000
00000010
00000000
,
00000010
00000010
00000010
00000010
,
00000010
00000010
00023000
00100000
,
00100000
00100000
00100000
00100000
,
00100000
00000000
00000000
00000000
00100000
00000000
00000000
00000000
00031000
00100000
00001000
00100000
00010000
00000000
00000000
10000000
,
00100000
00000000
01000000
00000000
00002000
00000000
00000000
00000000
00013000
00000010
00010000
00000010
00001000
00000000
00000000
00000001
,
00000010
00000000
00000100
00000000
00020000
00000000
00000000
00000000
00031000
00100000
00001000
00000000
00010000
00000010
00010000
00000000
,
00001000
00010000
00001000
00010000
00100000
01000000
00010000
10000000
02000000
00000000
03000000
00000000
10010000
00000000
00000000
00000000
,
10000000
01000000
00100000
00000000
00020000
00000000
02030000
00000000
,
23000000
32000000
03020000
00230000
,
00301000
00010000
00000010
00000000
00010000
00001000
00100000
00000000
,
00001000
00010000
00000100
00000000
00010000
00001000
01000000
00000000
,
00001000
00020000
00030020
00000230
,
00000302
00000023
00002030
00003020
,
00000031
00000100
00000010
00000000
00001000
00000000
00000100
00010000
,
00001000
00000000
00000000
00101000
00000000
00000000
00010010
00000000
,
00011000
00000000
00001000
01000000
00100000
00000000
10000000
00000000
,
00010000
00100000
01000000
00000000
10000000
00100000
01000000
00000000
,
00010000
00200000
00302000
00003020
,
00000031
00001000
00000010
00000000
00000130
00000000
00000301
00000000
,
00002003
00003200
00000302
00000203
,
00001300
00000010
00010000
00020200
,
00000300
00031000
00100000
00202000
,
00300000
00000000
00013000
00000010
00010000
00000000
00001000
00000000
,
00200000
00301000
00000020
00001030
,
00200000
00301000
00000020
00001030
,
00200000
00301000
00000020
00001030
,
00200000
00000000
00301000
00010000
00100000
00000000
00000000
00000000
,
10000000
00000000
00010000
01000000
00000000
00100000
10000000
00000000
,
00010000
00000000
00100000
00001000
00000000
00010000
00000010
00000000
,
00000100
00000000
00000001
00000010
00000000
00000100
00001000
00000000
,
00000002
00000000
00000103
00000000
00000010
00000000
00001000
00000100
,
00010000
00000000
00001000
01000000
00000000
01000000
00100000
00000000
,
20000000
00000000
30010000
01000000
00010000
00000000
10000000
00000000
,
00010000
00000000
00100000
00001000
00000000
00001000
00010000
00000000
,
00000200
00000000
00001300
00000010
00001000
00000000
00000001
00000000
,
00002002
00003333
00022000
00033330
,
00001000
00000000
00100000
00000000
01000000
00100000
01000000
00000000
,
10000000
00010000
10000000
00010000
10000000
00000000
00001000
00100000
,
00001000
00100000
00001000
00000000
00010000
00001000
00010000
00000000
,
00001000
00000000
00000100
00000000
00001000
00000000
00010000
00000000
01000000
00000000
00010000
00000000
,
00001000
00000000
01000000
00000000
00100000
00000000
10000000
00000000
00000000
00000000
00000000
00000000
,
00010000
00000000
10000000
01000000
00000000
01000000
00100000
00000000
,
00001000
00000000
00010000
00000010
00000000
00000100
00000001
00000000
,
00001000
00000000
00000001
00000010
00000000
00000010
00000100
00000000
,
00010000
00000000
00001000
01000000
00000000
00100000
10000000
00000000
,
00010000
00000000
10000000
01000000
00000000
01000000
00100000
00000000
,
00001000
00000000
01000000
00000000
00001000
00010000
00001000
00010000
,
00002000
00000300
00000000
00020000
,
00000000
00000000
00033000
00000000
00010000
00000000
00000100
00001000
,
00000100
00000010
00000001
00000100
,
00000010
00001000
00000100
00010000
00001000
00000000
00000000
00000000
,
00100000
00010000
00100000
00000000
00001000
00010000
00001000
00000000
,
01000000
00010000
01000000
00010000
00100000
00000000
00000000
00000000
,
00001000
00100000
00001000
00100000
00001000
00010000
00001000
00000000
,
00010000
00000010
00010000
00000010
00010000
00001000
00010000
00000000
,
00002000
00103000
02000000
13000000
,
00200000
00000000
01300000
00000000
03002000
00000000
00013000
00000010
,
00000100
00000000
00000000
00002002
00000000
00000000
00003003
00000000
00000000
00000001
00000000
00000010
,
00000000
00000100
00000000
00020000
00000000
00000000
00000000
00000000
00000000
00031000
00000000
01000000
,
00000000
00100000
00000000
10000000
00000000
01000000
00000000
00100000
00000000
00001000
00000000
00010000
,
00000000
00100000
00000000
00010000
00000000
00001000
00000000
00000010
00000000
00000001
00000000
00000000
,
00002002
00000000
00000000
00000000
,
00000000
00003003
00022000
00000000
,
00000000
00000000
00000000
00000000
,
00000000
00000000
00033000
00000000
;

//---------------dance-double - ----------------
#NOTES:
     dance-double:
     :
     Medium:
     14:
     0.660299,1.034670,0.398602,1.127960,0.050885,545.000000,498.000000,47.000000,133.000000,0.000000,0.000000,0.660299,1.034670,0.398602,1.127960,0.050885,545.000000,498.000000,47.000000,133.000000,0.000000,0.000000:
00000000
00000000
00000000
00000000
,
00000000
00000000
00000000
00000000
,
00000000
00000000
00000000
00000000
,
00000000
00000000
00000000
00000000
,
00000000
00000000
00000000
00000000
,
00002000
00000000
00203000
00000000
,
00320000
00000000
20030000
00000000
,
32000000
00000000
00000000
00200000
00000000
00000000
03300000
00000000
,
20020000
00000000
00000000
30030000
,
00010000
00000000
00000000
01010000
00000000
00000000
00000000
00000000
,
00001000
00010000
00000000
00011000
00000000
00000000
00000000
00000000
,
00000100
00001000
00000100
00001000
00000001
00000100
00001000
00000100
,
00000001
00000000
00000000
00001001
,
00000001
00000100
00000020
00000000
,
00001030
00000200
00000000
00010300
,
00001000
01000000
00200000
00000000
,
10300000
02000000
00000000
03100000
,
00001000
00010000
00002000
00000000
,
00013000
00000020
00000000
00000130
,
00000001
00001000
00000100
00000010
,
00000001
00000000
00000000
00001000
00000000
00000000
00000100
00000000
,
00001200
00000000
00010300
00000000
,
00201000
00000000
00310000
00000000
,
01002000
00000000
00013000
00000000
,
00001020
00000000
00010030
00000000
,
00020200
00030300
00202000
00303000
,
00001000
00010000
00001000
00020000
,
00030000
00100000
10000000
00010000
,
00000000
10000000
01000000
00100000
,
00000000
00010000
01000000
00100000
,
01000000
10000000
01000000
00100000
,
01000000
00010000
00100000
00001000
,
00010000
00000100
00001000
00000001
,
00001000
00000100
00000010
00000100
,
00000001
00000100
00000010
00000100
,
00001000
00000001
00000100
00000010
,
00010000
00000000
00000000
00001000
00000000
00000000
00100000
00000000
,
00220000
00330000
00010000
01000000
,
00100000
10000000
00010000
00000000
,
00202000
00303000
00001000
00010000
,
00000010
00000100
00000001
00000000
,
00000001
00000010
00001000
00010000
,
01000000
10000000
00100000
01000000
,
00200000
00000000
00300000
10010000
,
10000000
01000000
20000000
00000000
00000000
00000000
30100000
00000000
,
01000000
00001000
00200000
00000000
,
00301000
00010000
00002000
00000000
00000000
00000000
00013000
00000000
,
00000010
00000100
00000002
00000000
,
00001003
00000100
00002000
00000000
00000000
00000000
00003001
00000000
,
00000100
00000010
00020000
00000000
,
00031000
00100000
00002000
00000000
00000000
00000000
00103000
00000000
,
00001000
01000000
00200000
00000000
,
10300000
00000000
00010000
10000000
,
00010000
00000000
10000000
01000000
,
00010000
00001000
00000010
00000001
,
00000200
00000000
00000320
00000000
,
00001030
00000100
00000001
00000100
,
00020000
00000000
00031000
00100000
,
00001000
00021000
00000000
00030310
,
00000100
00000000
00000001
00000000
00001000
00000000
00000001
00000010
,
00000001
00000000
00000020
00000300
00000000
00000000
00000130
00000000
,
00010000
00000000
00001000
00000000
01000000
00000000
00010000
01000000
,
00010000
20000000
00000000
30100000
,
01000000
00000000
00010000
00000000
00100000
00000000
00001000
00100000
,
00001000
00020000
00000000
00030010
,
00000100
00000000
00000001
00000000
00001000
00000000
00000100
00000010
,
00000100
00000020
00000000
00000031
,
00001000
00000000
00000202
00000303
,
00001000
00000100
00010000
00001000
,
01000000
00100000
20000000
00000000
,
31000000
00200000
00000000
00310000
,
02000000
03000000
20020000
30030000
,
00010000
00000000
00000000
00100000
00001000
00000000
00010000
00000000
,
00000010
00000100
00000020
00000000
,
00002030
00000000
00003001
00000010
,
00000100
00000000
00010000
00001000
00020000
00000000
00000000
00000000
,
00230000
00000000
20300000
00000000
,
32000000
03020000
00032000
00003020
,
00000032
00000000
00000203
00000030
00002303
00000000
00000000
00000000
,
00020000
00000000
00033000
00000000
00010100
00000000
00010000
00001000
,
01000000
00000000
00010000
00010000
00000000
10100000
00000000
10010000
,
00000000
01100000
00000000
20020000
00000000
30000000
00130000
00001000
,
00010000
00000000
00000010
00000010
00000000
00000100
00000100
00000000
,
00000110
00000000
00000002
00000100
,
00002003
00000010
00003200
00010000
,
00200000
00000300
00001000
00000000
00320000
00000000
00000000
02030000
,
00000000
00000000
03200000
00000000
10300000
00010000
10030000
00020000
,
00000000
01030000
00100000
00010000
00002000
00000000
00003300
00000000
,
00101000
00101000
00020000
00030000
,
00010010
00010010
00002000
00003000
,
01001000
01001000
00020000
00030000
,
00010100
00000000
00010100
00000000
00010000
00001000
00010000
00001000
,
00000100
00001000
00020000
00000000
00031000
00010000
00001000
00010000
,
01000000
00010000
00002000
00000000
00013000
00100000
10000000
01000000
,
00010000
00001000
00000010
00000001
00002000
00000000
00003001
00000000
,
00000001
00000100
00000010
00001000
,
00000100
00000001
00000100
00010000
,
00000000
00020200
00030300
00202000
,
00303000
00022000
00033000
20020000
,
30030000
00010000
01000000
00100000
,
10000000
01000000
00010000
02000000
,
00000000
13000000
30100000
01000000
,
00010000
00000000
00000000
00100000
00000000
00000000
01000000
00000000
,
22000000
33030000
00010000
01000000
,
10000000
01000000
00010000
00200000
,
00000000
03301000
00010000
00000020
,
00000000
00013030
00000100
00010000
,
00001000
00000100
00000001
00000010
,
00000100
00010000
00001000
00200000
,
00000000
00301000
00010000
00000020
,
00000000
00000000
00010030
00001000
00010000
00000000
00000000
00000000
,
00020020
00030030
00202000
00303300
,
00020020
00030030
00202000
00303000
,
00020020
00030030
00202000
00303000
,
00001000
00010000
00022000
00033000
,
00001000
00000000
00030000
00001000
00100000
00000000
00010000
00000000
,
01000000
00000000
00000000
01000000
00100000
00000000
10000000
00000000
,
00010000
00000000
00000000
00010000
00100000
00000000
00001000
00000000
,
00000020
00000000
00000331
00001000
,
00001002
00000000
00000000
00000203
00000000
00000000
00000310
00000000
,
00020000
00000000
00031000
00100000
,
00020000
00000000
00000000
02030000
00000000
00000000
03100000
00000000
,
20000000
00000000
30010000
00100000
,
01000000
10000000
00100000
01000000
,
00010000
00100000
00001000
00010000
,
00000200
00010000
00010300
00002000
,
00100000
00103000
00001000
00010000
,
00011000
00000000
00033000
00000000
,
00010000
00000000
00000100
00000000
00000010
00000000
00000001
00000000
00000000
00000000
00000000
00000000
,
00001000
00000000
00000001
00000100
00000000
00000100
00000010
00000000
,
00020000
00000000
00000000
00032000
00000000
00000300
00203000
00000000
,
00310000
00000000
10000000
00100000
00000000
00100000
01000000
00000000
,
00002000
00000000
00000000
00023000
00000000
00000000
00030200
00000000
,
00001300
00000000
00000001
00000100
00000000
00000100
00000010
00000000
,
00010000
00001000
00100000
01000000
,
20000000
00000000
00000000
00020000
,
00000000
00000000
00000000
33330000
,
10000000
01000000
00100000
00010000
,
00001000
00000100
00000010
00000000
,
00000001
00000100
00000010
00001000
,
00010000
01000000
00100000
00000000
,
10000000
00100000
01000000
00010000
,
00100000
00001000
00010000
00000100
,
00000010
00000001
00000100
00000010
,
00001000
00000100
00010000
00001000
,
00100000
00000000
00000000
00022000
00000000
00000000
00033000
00000000
00000000
00001000
00000000
00010000
,
00000000
00001000
00000000
00010000
00000000
00000000
00000000
00000000
00000000
00001000
00000000
01000000
,
00000000
00001000
00000000
01000000
00000000
00001000
00000000
01000000
00000000
00001000
00000000
00010000
,
00000000
00000100
00000000
00010000
00000000
00000100
00000000
00010000
00000000
00000100
00000000
00000000
,
00000220
00000000
00000000
00000000
,
00000330
00000000
00022000
00000000
,
00000000
00000000
00000000
00000000
,
00000000
00000000
00033000
00000000
;

//---------------dance-double - ----------------
#NOTES:
     dance-double:
     :
     Easy:
     11:
     0.467661,0.711336,0.212023,0.941380,0.000000,386.000000,361.000000,25.000000,111.000000,0.000000,0.000000,0.467661,0.711336,0.212023,0.941380,0.000000,386.000000,361.000000,25.000000,111.000000,0.000000,0.000000:
00000000
00000000
00000000
00000000
,
00000000
00000000
00000000
00000000
,
00000000
00000000
00000000
00000000
,
00000000
00000000
00000000
00000000
,
00000000
00000000
00000000
00000000
,
00020000
00000000
00030200
00000000
,
00020300
00000000
00032000
00000000
,
02003000
00000000
00000000
00200000
00000000
00000000
03300000
00000000
,
20020000
00000000
00000000
30030000
,
10000000
00000000
00000000
10000000
00000000
00000000
00000000
00000000
,
00010000
00000000
00000000
00010000
00000000
00000000
00000000
00000000
,
00001000
00000000
00000000
00001000
00000000
00000000
00000000
00000000
,
00000001
00000000
00000000
00000000
,
00000001
00000000
00000100
00000000
,
00000010
00000000
00000010
00000000
,
00001000
00000000
00000100
00000000
,
00010000
00000000
00010000
00000000
,
00001000
00000000
00100000
00000000
,
00010000
00000000
00010000
00000000
,
10000000
00000000
00100000
00000000
,
01000000
00000000
00000000
01000000
00000000
00000000
01000000
00000000
,
00200000
00000000
00000000
00000000
,
02300000
00000000
00000000
00000000
,
03002000
00000000
00000000
00000000
,
00023000
00003000
00000000
00000000
00000000
00000000
00000000
00000000
,
00030100
00000000
00000010
00000000
,
00000001
00001000
00000001
00001000
,
00000000
00000001
00000100
00000001
,
00000000
00001000
00000100
00001000
,
00000000
00000000
00000001
00000200
,
00000300
00000001
00002000
00003000
,
00000001
00000020
00000030
00000001
,
00002000
00003000
00000100
00000000
,
00010000
00000000
00001000
00200000
,
00300000
00010000
00200000
00300000
,
01000000
00200000
00300000
00010000
,
10000000
00000000
00000000
10000000
00000000
00000000
10000000
00000000
,
00200000
00000000
01300000
00000000
,
01020000
00000000
00130000
00000000
,
00200000
00000000
00301000
00000000
,
00021000
00000000
00030100
00000000
,
00010100
00000000
00000110
00000000
,
00000011
00000000
00000110
00000000
,
00002002
00000000
00000000
00003003
,
00000001
00000200
00000000
00000000
,
00000310
00000000
00001000
00000000
,
00000100
00020000
00000000
00000000
,
00031000
00000000
01000000
00000000
,
00010000
00200000
00000000
00000000
,
01300000
00000000
10000000
00000000
,
00100000
32000000
00000000
00000000
,
03010000
00000000
20000000
00000000
,
30010000
00000000
10000000
00100000
,
01000000
00000000
00010000
00000000
,
00100000
00000000
00001000
00010000
,
00001000
00000000
00020000
00000000
,
00030010
00000000
00000020
00000000
,
00000130
00000000
00000001
00001000
,
00000001
00001000
00000000
00000000
,
00001001
00000000
00000002
00000000
,
00001003
00000100
00020000
00000000
,
00031000
00030000
02000000
00000000
,
03010000
10000000
00200000
00000000
,
01300000
00000000
00001000
00000000
,
00100000
00010000
00200000
00000000
,
01330000
00000000
10000000
00000000
,
00010000
01000000
00002000
00000000
,
00013000
00000000
00020200
00000000
,
00033300
00000000
00000100
00000010
,
00000001
00000000
00001000
00000010
,
00001000
00000000
00000001
00000100
,
00000001
00000000
00002000
00000000
,
00000100
00000000
00000001
00000000
,
00003100
00000000
00010000
00001000
,
00010000
00001000
00100000
00010000
,
01000000
00000000
20010000
00000000
,
30200000
00000000
02300000
00000000
,
03002000
00023000
00030200
00000320
,
00000032
00002003
00003020
00000000
,
00000200
00000330
00001001
00001000
,
00000100
00000000
00010000
00020000
00000000
00032000
00000000
02003000
,
00000000
03200000
00000000
10300000
00000000
00000000
00010000
00000000
,
01010000
00000000
10000000
02000000
00000000
03100000
00002000
00000300
,
00013000
00000000
00020000
00000100
,
00030200
00000010
00000320
00000001
,
00000032
00000000
00000100
00000000
00000203
00000000
00000000
00000320
,
00000000
00000000
00010030
00000000
00001000
00010000
00001000
00010000
,
00000000
00000000
00001000
00010000
00002000
00000000
00000000
00000000
,
00100000
00100000
00023000
00000000
,
00000010
00000010
00032000
00000000
,
01000000
01000000
00023000
00000000
,
00000100
00000000
00030100
00030000
00010000
00000000
00001000
00000000
,
00100000
00010000
01000000
00001000
,
00010000
00000000
00000010
00000000
00001000
00000100
00001000
00000000
,
00000100
00010000
00000100
00000000
00020000
00000000
00031000
00000000
,
01000000
00000000
00010000
00000000
,
10000000
00100000
10000000
00200000
,
00000000
02300000
00000000
03002000
,
00000000
00023000
00000000
00030200
,
00000000
00001300
00000001
00000000
,
00000100
00000010
00000100
00000020
,
00000000
00010030
00020000
00000000
,
00031000
00000000
00000000
00001000
00000000
00000000
00001000
00000000
,
00200000
00000000
01300000
20000000
,
00000000
30020000
00000000
02030000
,
00000000
03100000
10000000
00020000
,
00000000
00130000
00001000
00010000
,
00002000
00000000
02003000
00000000
,
03001000
00100000
00001000
00200000
,
00000000
00301000
00010000
00000200
,
00000000
00010330
00001000
00000000
,
00012000
00003300
00021000
00030000
,
00012000
00003000
00021000
00030000
,
00012000
00003000
00021000
00030000
,
00022000
00000000
00000000
00033000
,
10010000
00000000
10000000
00000000
,
00010000
01000000
00100000
00000000
,
10000000
01000000
00100000
00000000
,
00002000
00000000
00013000
00000000
,
00000100
00000000
00000000
00001000
00000000
00000000
00000001
00000000
,
00000200
00000000
00000310
00000000
,
00001000
00000000
00000000
00000100
00000000
00000000
00010000
00000000
,
00002000
00000000
00103000
00000000
,
00010000
01000000
00010000
00000000
,
10000000
00100000
10000000
00000000
,
00020000
00000000
00000000
00230000
,
00000000
00000000
00302000
00000000
,
00013000
00000000
00000000
00000000
,
00000000
00000000
00011000
00000000
,
00010000
00000000
00000000
00001000
00000000
00000000
00100000
00000000
,
00100000
00000000
00000000
00001000
00000000
00000000
00010000
00000000
,
00001000
00000000
00000000
00010000
00000000
00000000
00000010
00000000
,
00000010
00000000
00000000
00010000
00000000
00000000
00001000
00000000
,
00100000
00000000
00000000
00100000
00000000
00000000
01000000
00000000
,
10000000
00000000
00000000
10000000
00000000
00000000
00010000
00000000
,
01000000
00000000
00000000
01000000
00000000
00000000
00002000
00000000
,
00020000
00000000
00000000
00033000
,
00010000
00000000
00000100
00000000
,
00000010
00000001
00000100
00000000
,
00000001
00000000
00000100
00000000
,
00000010
00010000
00001000
00000000
,
00100000
00010000
00100000
00000000
,
00001000
00010000
00001000
00000000
,
00010000
00000010
00010000
00000000
,
00001000
00010000
00001000
00000000
,
00010000
00022000
00000000
00000000
,
00000000
00000000
00033000
00002000
,
00000000
00203000
00000000
02300000
,
00000000
23000000
00000000
30100000
,
02200000
00000000
00000000
00000000
,
03300000
00000000
00022000
00000000
,
00000000
00000000
00000000
00000000
,
00000000
00000000
00033000
00000000
;

//---------------dance-single - ----------------
#NOTES:
     dance-single:
     :
     Challenge:
     18:
     1.031035,1.940006,0.542778,0.932899,0.284110,851.000000,787.000000,64.000000,110.000000,0.000000,0.000000,1.031035,1.940006,0.542778,0.932899,0.284110,851.000000,787.000000,64.000000,110.000000,0.000000,0.000000:
// measure 0
0000
0000
0000
0000
,  // measure 1
0000
0000
0000
0000
,  // measure 2
0000
0000
0000
0000
,  // measure 3
0000
0000
0000
0000
,  // measure 4
0000
0000
0000
0000
,  // measure 5
0002
0000
0023
0000
,  // measure 6
0230
0000
2300
0000
,  // measure 7
3020
0000
0000
0200
0000
0000
0330
0000
,  // measure 8
2002
0000
0000
3003
,  // measure 9
1010
0000
0000
1010
0000
0000
0000
0000
,  // measure 10
0001
0010
0000
0011
0000
0000
0000
0000
,  // measure 11
0001
0000
1000
0000
0010
0000
0100
0000
0001
0010
0100
1000
0010
0100
0001
1000
,  // measure 12
0001
0000
0000
0000
0000
0000
0000
0000
0000
0000
1000
0100
0010
0000
0000
0000
,  // measure 13
0001
0000
1000
0010
0100
0000
0001
0000
,  // measure 14
1000
0100
1000
0000
0001
0100
0001
0000
,  // measure 15
1000
0000
0001
0010
0100
0000
1000
0000
,  // measure 16
0001
0010
0001
0000
1000
0010
1000
0000
,  // measure 17
0001
0000
1000
0100
0010
0000
0001
0000
,  // measure 18
1000
0010
1000
0000
0010
0100
0010
0000
,  // measure 19
1000
0000
0001
0010
0100
0000
1000
0010
,  // measure 20
0100
0000
0000
0110
0000
0000
0101
0000
,  // measure 21
1001
0000
1000
0100
0010
0000
0001
0000
,  // measure 22
0101
0000
0100
0010
1000
0000
0001
0000
,  // measure 23
0011
0000
0010
0100
1000
0000
0001
0000
,  // measure 24
1001
0000
1000
0010
0100
0000
0001
0000
,  // measure 25
0022
0333
2200
3330
,  // measure 26
1010
0110
0101
1001
,  // measure 27
0000
0101
0011
0101
,  // measure 28
0000
1100
1010
1100
,  // measure 29
0001
0010
0200
0000
0310
0000
0001
0100
,  // measure 30
0020
0000
0130
0000
0001
0010
0200
0000
,  // measure 31
0310
0000
0001
0100
0020
0000
0130
0000
,  // measure 32
0001
0010
0100
0000
1000
0000
0001
0000
,  // measure 33
1000
0010
0200
0000
0310
0000
1000
0100
,  // measure 34
0020
0000
0130
0000
1000
0010
0200
0000
,  // measure 35
0310
0000
1000
0100
0010
0000
0001
1000
,  // measure 36
0010
0000
0000
1010
0000
0000
0110
0000
,  // measure 37
0101
0000
1000
0100
0010
0000
0001
1000
,  // measure 38
0010
0000
0100
0001
1000
0000
0001
0000
,  // measure 39
0011
0000
0010
0100
1000
0000
0001
1000
,  // measure 40
0010
0000
1000
0010
0100
0000
0001
0000
,  // measure 41
1000
0100
0010
0001
1000
0000
0001
0100
,  // measure 42
0010
1000
0100
0010
0001
1000
0010
0100
,  // measure 43
0001
0000
1000
0100
1000
0000
0001
0100
0010
0000
0010
0000
1001
0000
0000
0000
,  // measure 44
1000
0100
0020
0000
0031
0000
1000
0010
,  // measure 45
0100
0000
0001
0010
0100
0000
1000
0001
,  // measure 46
0100
0001
0200
0000
0310
0000
1000
0100
,  // measure 47
0010
0000
0001
1000
0010
0000
0100
0001
,  // measure 48
0100
0001
2000
0000
3100
0000
0010
0001
,  // measure 49
1000
0000
0001
0100
0010
0000
1030
0001
,  // measure 50
0010
0001
0020
0000
0130
0000
1000
0001
,  // measure 51
0100
0010
0220
0330
,  // measure 52
1000
0010
0100
0000
0001
0010
0100
0000
,  // measure 53
1000
0001
0100
0000
0002
0000
0013
0100
,  // measure 54
1000
0010
3100
0001
1000
0100
0010
0001
,  // measure 55
2000
0000
0000
0000
3001
0000
1000
0010
,  // measure 56
0100
0000
0001
0000
0010
0100
1000
0000
,  // measure 57
0001
0100
0010
1000
0100
0000
1100
0000
,  // measure 58
0110
0000
0022
0000
0033
0000
1000
0001
,  // measure 59
0100
0010
1000
0100
0020
0000
0031
1000
,  // measure 60
0010
0100
0020
0000
0031
0000
0010
1000
,  // measure 61
0100
0000
0010
0001
0100
0000
0001
1000
,  // measure 62
0100
0010
0200
0000
0301
0000
0100
1000
,  // measure 63
0010
0000
0100
0001
1000
0000
0001
0100
,  // measure 64
0010
1000
0020
0000
0031
0000
0010
1000
,  // measure 65
0100
0000
0010
0001
0100
0000
0001
1000
,  // measure 66
0100
0010
0200
0000
0301
0000
0100
1000
,  // measure 67
0001
0100
0220
0333
,  // measure 68
0001
0100
0010
0000
1000
0100
0010
0000
,  // measure 69
0001
1000
0010
0000
2000
0000
3100
0010
,  // measure 70
0001
0100
0013
1000
0001
0010
0100
1000
,  // measure 71
0002
0000
1003
0010
,  // measure 72
0100
0000
0001
0010
0100
0000
1000
0000
,  // measure 73
0001
0100
0001
0100
0001
0000
1000
0010
,  // measure 74
0100
0000
0001
0010
0100
1000
0010
0100
,  // measure 75
0001
1000
0100
0010
0002
0000
0000
0000
,  // measure 76
0203
0000
0320
0000
,  // measure 77
2030
0000
0000
0000
3002
0000
0000
0000
2003
3100
0010
0001
0200
0310
1000
0001
,  // measure 78
0020
0130
1000
0001
2000
3010
0100
0001
0020
0000
0000
0000
0000
0000
0000
0000
,  // measure 79
0200
0000
0000
0330
1001
0000
0001
0100
,  // measure 80
0101
0000
1000
0010
1000
0100
0100
1000
,  // measure 81
1010
0010
0100
0001
1000
0000
0001
0010
,  // measure 82
0011
0000
1000
1000
0001
0100
0100
0010
,  // measure 83
0110
0000
0000
0000
2010
0000
3001
3010
,  // measure 84
0012
0000
1003
0000
0001
0100
3100
0010
,  // measure 85
2010
0000
3103
0000
1000
0100
0010
0001
,  // measure 86
0012
0000
1303
0000
1010
0110
0101
1001
,  // measure 87
0000
0011
0110
1100
2002
0000
0000
0000
,  // measure 88
0000
0000
0000
0000
,  // measure 89
0000
0000
0000
0000
,  // measure 90
0000
0000
0000
0000
,  // measure 91
0000
0000
0000
0000
3003
0000
0000
0000
0001
0100
0010
0100
0001
0000
1000
0100
,  // measure 92
0010
0000
0001
1000
0010
0100
0001
0000
1000
0100
0010
0100
1000
0000
0001
0100
,  // measure 93
0010
0000
1000
0001
0010
0100
1000
0000
0001
0100
0001
0100
0010
1000
0010
1000
,  // measure 94
0001
0010
0100
1000
0010
0100
0001
1000
0002
0000
0000
0000
1003
0000
0000
0000
,  // measure 95
0001
0100
2000
0000
3200
0000
0320
0000
,  // measure 96
1030
0100
0002
0000
0203
0000
2300
0000
,  // measure 97
3001
0100
0010
0000
0010
1000
0100
0000
,  // measure 98
1000
0100
0010
0000
0010
0001
1000
0000
,  // measure 99
0010
2000
3032
0023
,  // measure 100
2330
3020
0332
0203
,  // measure 101
0310
1000
0001
0000
0010
0000
0001
1000
,  // measure 102
0100
0000
0000
1100
0000
0000
1001
0000
,  // measure 103
0101
0000
0100
0010
2000
0000
3002
0000
,  // measure 104
1003
0100
0010
0000
0001
0100
0010
0000
,  // measure 105
1000
0001
2000
0000
3020
0000
0032
0000
,  // measure 106
0013
0100
0002
0000
2003
0000
3200
0000
,  // measure 107
0310
0001
0010
0000
0100
1000
0100
0000
,  // measure 108
1000
0010
0100
0001
1000
0001
0020
0000
,  // measure 109
0000
0000
0130
1000
0001
0000
0200
0000
,  // measure 110
0000
0000
0301
0010
0100
0000
1000
0000
,  // measure 111
2001
3010
1002
0013
,  // measure 112
2001
3100
1002
0103
,  // measure 113
2001
3010
1002
0103
,  // measure 114
2001
0000
3100
0010
0001
0000
0330
0000
,  // measure 115
1000
0000
0001
0103
0000
1000
0100
0001
,  // measure 116
1000
0000
0001
0010
0000
0010
0100
1000
,  // measure 117
0001
0000
1000
0010
0000
0001
0010
1000
,  // measure 118
0001
0000
0010
0000
0100
0000
1000
0001
,  // measure 119
1000
0000
0001
0100
0000
0100
0010
0000
,  // measure 120
1010
0000
0001
0010
0100
1000
0010
0100
,  // measure 121
0001
0000
1000
0100
0000
0100
0010
0000
,  // measure 122
0011
0000
1000
0001
0100
0010
1000
0001
,  // measure 123
0010
0000
0001
0100
0010
0000
1000
0100
,  // measure 124
0010
0000
0001
0000
1000
0001
1000
0001
,  // measure 125
1000
0010
0100
0001
1000
0000
0001
0010
,  // measure 126
0100
1000
0001
0000
1000
0010
0100
0000
,  // measure 127
0001
0000
0000
0000
0200
0300
0300
0000
0200
0300
0300
0000
1000
0000
0000
0000
0020
0030
0030
0000
0020
0030
0030
0000
,  // measure 128
0001
0000
0000
0000
0200
0300
0300
0000
0200
0300
0300
0000
1000
0000
0000
0000
0001
0000
0000
0000
1000
0000
0000
0000
,  // measure 129
0001
0000
1000
0100
0000
0010
0001
1000
,  // measure 130
0001
0000
1000
0010
0000
0100
0001
0000
,  // measure 131
1000
0000
0001
0010
0000
0100
1000
0001
,  // measure 132
1000
0000
0001
0100
0000
0010
1000
0000
,  // measure 133
0001
0000
1000
0100
0000
0010
0001
1000
,  // measure 134
0001
0000
0100
0000
0001
0010
0100
1000
,  // measure 135
0020
0000
0000
0200
,  // measure 136
0000
0000
0330
0000
0100
0000
0010
1000
,  // measure 137
0001
0010
0001
0010
0001
0010
0001
0010
,  // measure 138
0100
1000
0010
0100
0001
0000
0000
0000
,  // measure 139
1000
0100
1000
0100
1000
0100
1000
0100
,  // measure 140
0010
0001
0100
0010
1000
0000
0000
0000
,  // measure 141
0001
0100
0010
1000
0100
0010
0001
1000
,  // measure 142
0001
0100
0010
1000
0100
1000
0001
0100
,  // measure 143
0010
1000
0010
1000
0001
0010
0001
0010
,  // measure 144
0100
1000
0100
1000
0001
0100
0010
1000
,  // measure 145
0001
0000
0000
0000
0000
0000
2002
0000
0000
0000
0000
0000
3003
0000
0000
0000
0000
0000
1000
0000
0000
0000
0200
0300
,  // measure 146
0300
0000
0200
0300
0300
0000
0001
0000
0000
0000
0000
0000
0000
0000
0000
0000
0000
0000
1000
0000
0000
0000
0020
0030
,  // measure 147
0030
0000
0020
0030
0030
0000
0001
0000
0000
0000
0200
0300
0300
0000
0200
0300
0300
0000
1000
0000
0000
0000
0020
0033
,  // measure 148
0030
0000
0020
0030
0030
0000
0001
0000
0000
0000
0200
0300
0300
0000
0200
0300
0300
0000
1000
0000
0000
0000
0000
0000
,  // measure 149
2002
0000
0000
0000
,  // measure 150
0000
3003
0220
0000
,  // measure 151
0000
0000
0000
0000
,  // measure 152
0000
0000
0330
0000
;

//---------------dance-double - ----------------
#NOTES:
     dance-double:
     :
     Challenge:
     18:
     0.986208,1.810672,0.551259,1.373906,0.237465,814.000000,749.000000,65.000000,162.000000,0.000000,0.000000,0.986208,1.810672,0.551259,1.373906,0.237465,814.000000,749.000000,65.000000,162.000000,0.000000,0.000000:
00000000
00000000
00000000
00000000
,
00000000
00000000
00000000
00000000
,
00000000
00000000
00000000
00000000
,
00000000
00000000
00000000
00000000
,
00000000
00000000
00000000
00000000
,
00002000
00000000
00023000
00000000
,
00030020
00000000
00200030
00000000
,
00300200
00000000
00003000
02000000
00300000
00000000
03000300
00000000
,
00022000
00000000
00000000
00033000
,
00010010
00000000
00000000
00010010
00000000
00000000
00000000
00000000
,
00100000
00001000
00000000
00101000
00000000
00000000
00000000
00000000
,
00001000
00000000
00010000
00000000
00000010
00000000
00000100
00000000
00000001
00000010
00000100
00001000
00000010
00000100
00000001
00001000
,
00000001
00000000
00000000
00000000
00000000
00000000
00000000
00000000
00000000
00000000
00000001
00000010
00000100
00000000
00000000
00000000
,
00001000
00000000
00000001
00000100
00000001
00000000
00001000
00000000
,
00000100
00010000
00000100
00000000
00020000
00000000
00032000
00000000
,
00103000
00000000
00010000
01000000
00010000
00000000
01000000
00000000
,
00100000
10000000
00100000
00000000
20000000
00000000
30020000
00000000
,
00130000
00000000
00010000
10000000
00010000
00000000
00100000
00000000
,
01000000
00100000
01000000
00000000
00200000
00000000
00302000
00000300
,
00013000
00000000
00000010
00010000
00000010
00000000
00000100
00000000
,
00000101
00000000
00000000
00000110
00000000
00000000
00001010
00000000
,
00001001
00000000
00000001
00000010
00000100
00000000
00010000
00000000
,
00011000
00000000
00001000
01000000
00100000
00000000
10000000
00000000
,
10100000
00000000
00100000
01000000
00010000
00000000
00100000
00000000
,
00101000
00000000
00001000
00010000
00000100
00000000
00001000
00000000
,
00002020
00003030
00000202
00000303
,
00000101
00000110
00001010
00001001
,
00000000
00001100
00010100
00001100
,
00000000
00011000
00101000
00011000
,
00001000
01000000
00200000
00000000
02300000
00000000
03001000
00100000
,
02000000
00000000
03200000
00000000
00301000
01000000
00200000
00000000
,
02300000
00000000
03001000
00100000
02000000
00000000
03200000
00000000
,
00301000
01000000
00200000
00000000
00320000
00000000
00032000
00000000
,
00013300
00000010
00000200
00000000
00000320
00000000
00010030
00000100
,
00000020
00000000
00000230
00000000
00010300
00000010
00000200
00000000
,
00000320
00000000
00010030
00000100
00000020
00000000
00000130
00010000
,
00001300
00000000
00000000
00011000
00000000
00000000
00101000
00000000
,
00120000
00000000
10030000
00100000
01000000
00000000
00010000
00100000
,
01000000
00000000
10000000
00010000
00100000
00000000
00001000
00000000
,
00021000
00000000
00030100
00001000
00000010
00000000
00000100
00000001
,
00001000
00000000
00000001
00000010
00000100
00000000
00001000
00000000
,
00000100
00010000
00000100
00010000
00001000
00000000
00010000
00001000
,
00010000
00001000
01000000
00010000
00100000
01000000
10000000
00010000
,
01000000
00000000
00010000
10000000
00100000
00000000
10000000
00010000
00100000
00000000
00100000
00000000
10010000
00000000
00000000
00000000
,
10000000
01000000
00200000
00000000
00310000
00000000
01000000
00010000
,
01000000
00000000
00010000
00100000
00001000
00000000
00010000
00000010
,
00000100
00000010
00000200
00000000
00000301
00000000
00001000
00000100
,
00001000
00000000
00000010
00010000
00001000
00000000
00100000
00010000
,
01000000
00010000
02000000
00000000
03100000
00000000
10000000
01000000
,
10000000
00000000
01000000
00100000
00001000
00000000
00010000
00000010
,
00001000
00000010
00002000
00000000
00003001
00000000
00001000
00000100
,
00000010
00000001
00000202
00000303
,
00000001
00000100
00000010
00001000
,
00000001
00001000
00000001
00000000
00002000
00000000
00003100
00010000
,
00001000
00100000
00020000
00000000
10030000
00100000
01000000
00010000
,
00200000
00000000
00000000
00000000
01300000
00000000
10000000
01000000
,
00100000
00000000
00010000
00000000
01000000
00001000
00010000
00000000
,
00001000
00100000
00101000
00011000
,
00010100
00000000
00002200
00000000
00003300
00000000
00000001
00000100
,
00000010
00000100
00000010
00001000
00000001
00000000
00000010
00000100
,
00001000
00000000
00000020
00000000
00000031
00000000
00000010
00001000
,
00000100
00000000
00010000
00000000
00001000
00000000
00100000
00010000
,
01000000
00000000
00200000
00000000
00310000
00000000
00100000
10000000
,
00010000
00000000
00130000
00001000
00100000
00000000
00001000
00010000
,
00000010
00000000
00000200
00000000
00001300
00000000
00000100
00000010
,
00001000
00000100
00010000
00001000
,
00100000
00010000
02000000
00000000
03010000
00000000
01000000
00100000
,
10000000
00010000
02020000
33330000
,
10000000
01000000
00100000
00010000
,
10000000
00010000
10000000
00000000
00020000
00000000
00130000
00001000
,
00010000
00000100
00002000
00000000
00003001
00000100
00000010
00001000
,
00000200
00000000
00000310
00000001
,
00001000
00000001
00000100
00000000
00000010
00000000
00010000
00001000
,
00010000
00001000
00010000
00001000
00200000
00000000
00000000
00000000
,
00310000
01000000
00100000
10000000
01000000
00100000
00010000
01000000
,
00001000
00010000
00000100
00000010
00000002
00000000
00000000
00000000
,
00002003
00000000
00023000
00000000
,
20030000
00000000
00000000
00000000
30200000
00000000
00000000
00000000
20300000
31000000
00010000
00001000
02000000
03100000
03010000
00001000
,
00020000
00033100
00000010
00000001
00002000
00003010
00000001
00000010
00000200
00000000
00000000
00000000
00000000
00000000
00000000
00000000
,
00000020
00000000
00000000
00000330
00001001
00000000
00000001
00000010
,
00000011
00000000
00001000
00000010
00000100
00000010
00000001
00000010
,
00001010
00001000
00000100
00010000
00001000
00000000
01000000
00010000
,
02010000
00000000
03010000
00010000
00100000
01000000
01000000
10000000
,
10200000
00000000
01300000
00010000
00200000
00000000
00301000
00100000
,
00101000
00000000
00001000
00010000
00000010
00000100
00000130
00000001
,
00000101
00000000
00001000
00000100
00020000
00000000
00031000
01000000
,
01200000
00000000
10300000
00000000
10100000
01100000
01010000
10010000
,
00000000
00110000
00101000
00010100
00022000
00000000
00000000
00000000
,
00000000
00000000
00000000
00000000
,
00000000
00000000
00000000
00000000
,
00000000
00000000
00000000
00000000
,
00000000
00000000
00000000
00000000
00033000
00000000
00000000
00000000
00010000
00000100
00001000
00000100
00010000
00000000
00000100
00001000
,
00000010
00000000
00000100
00000000
00001000
00000000
00010000
00000000
00001000
00100000
00010000
00100000
00001000
00000000
00100000
00010000
,
01000000
00000000
00100000
00000000
00010000
00000000
00001000
00000000
00010000
00001000
00100000
00001000
00010000
00000100
00001000
00000010
,
00000100
00000001
00000010
00000001
00000100
00000010
00001000
00000001
00002000
00000000
00000000
00000000
00003301
00000000
00000000
00000000
,
00000001
00000100
00002000
00000000
00023000
00000000
00230000
00000000
,
10300000
01000000
00020000
00000000
00032000
00000000
00003020
00000000
,
00000031
00000100
00000010
00000000
00000010
00010000
00001000
00000000
,
00001000
00100000
01000000
00000000
01000000
10000000
00010000
00000000
,
10000000
00100000
00020000
00000000
00032000
00000000
00003200
00000000
,
00000302
00000023
00002030
00023000
,
00031000
01000000
00200000
00000000
20300000
00000000
30010000
00100000
,
00001000
00000000
00000000
00101000
00000000
00000000
00011000
00000000
,
00010100
00000000
00000100
00000010
00000002
00000000
00002003
00000000
,
00003010
00000100
00000002
00000000
00000013
00000100
00020000
00000000
,
00031000
01000000
00200000
00000000
20300000
00000000
30020000
00000000
,
00130000
01000000
00200000
00000000
00320000
00000000
20030000
00000000
,
30100000
01000000
00020000
00000000
00130000
00001000
00020000
00000000
,
00030200
00000030
00001300
00000001
00001000
00000010
00000200
00000000
,
00000000
00000310
00000110
00002002
,
00003003
00000000
00001000
00000100
00000010
00000000
00000001
00000000
,
00002002
00030000
00033003
00000000
00022000
00000000
00033000
00000000
,
20020000
30030000
00022000
00033000
,
00002002
00003003
00022000
00033000
,
20010000
00000000
31300000
00100000
00010000
00000000
03300000
00000000
,
20000000
00000000
30010000
01000000
00000000
10000000
01000000
00000000
,
00020000
00000000
00130000
00001000
00000000
00010000
00000100
00000000
,
00002000
00000000
00003010
00000001
00000000
00000010
00001000
00000000
,
00000002
00000000
00000013
00000000
00000001
00000000
00001000
00000100
,
00010000
00000000
00001000
00100000
00000000
00100000
00020000
00300000
,
01030000
00000000
00100000
10000000
00100000
10000000
01000000
00100000
,
00001000
00000000
00010000
00000100
00000000
00000100
00002000
00000300
,
00003010
00000000
00000100
00000001
00000100
00000001
00000010
00000100
,
00010000
00001000
00100000
01000000
,
10000000
00000000
00010000
00000000
10000000
00100000
01000000
00010000
,
00100000
00001000
00100000
00001000
00100000
00000000
00001000
00010000
,
00001000
00010000
00001000
00000000
00010000
00000010
00010000
00000000
,
00001000
00000000
00000000
00000000
00020000
00030000
00000000
00000000
00020000
00030000
00000000
00000000
00100000
00000000
00000000
00000000
00020000
00033000
00030000
00000000
00020000
00033000
00003000
00000000
,
00000010
00000000
00000000
00000000
00002000
00003000
00000000
00000000
00002000
00003000
00000000
00000000
00010000
00000000
00000000
00000000
00002000
00003000
00000000
00000000
00002000
00003000
00000000
00000000
,
00000002
00000000
00000103
00000010
00000000
00001000
00000100
00001000
,
00000100
00000000
00010000
00001000
00000000
01000000
00010000
00000000
,
20000000
00000000
30100000
01000000
00000000
00010000
00100000
00010000
,
00100000
00000000
00001000
00010000
00000000
00000010
00001000
00000000
,
00000001
00000000
00000010
00000100
00000000
00000100
00010000
00001000
,
00010000
00000000
00001000
00000000
01000000
00010000
00100000
01000000
,
20000000
00000000
00000000
00020000
,
00000000
00000000
30030000
00000000
10030000
00000000
00010000
00100000
,
00001000
00010000
00001000
00010000
00000100
00001000
00000100
00001000
,
00000001
00000100
00000010
00001000
00000100
00000000
00000000
00000000
,
00010000
00001000
00010000
00001000
00100000
00010000
00100000
00010000
,
10000000
00100000
01000000
00010000
00100000
00000000
00000000
00000000
,
00001000
00010000
00000100
00001000
00000010
00000100
00000001
00000010
,
00000100
00010000
00001000
00100000
00010000
01000000
00100000
10000000
,
00020000
00230000
00302000
00023000
,
00030020
00000000
00000230
00000000
00000302
00000000
00000013
00000100
,
00010000
00000000
00000000
00022000
00000000
00000000
00033000
00000000
00000000
00001000
00000000
01000000
,
00000000
00000000
00001000
00000000
00000000
00000000
00020000
00000000
00000000
00000000
00000000
00000000
00030000
00000000
00000000
00000000
00000000
00000000
00000100
00000000
00000000
00000000
00020000
00030000
,
00000000
00000000
00020000
00030000
00000000
00000000
00100000
00000000
00000000
00000000
00002000
00003000
00000000
00000000
00002000
00003000
00000000
00000000
00000010
00000000
00000000
00000000
00020000
00330000
,
00000000
00000000
00020000
00030000
00000000
00000000
01000000
00000000
00000000
00000000
00002000
00003000
00000000
00000000
00002000
00003000
00000000
00000000
00000100
00000000
00000000
00000000
00000000
00000000
,
00000220
00000000
00000000
00000000
,
00000000
00000330
00022000
00000000
,
00000000
00000000
00000000
00000000
,
00000000
00000000
00033000
00000000
;
