#TITLE:とびっきりのふわっふわ;
#SUBTITLE:;
#ARTIST:日向美ビタースイーツ♪;
#TITLETRANSLIT:Tobikkiri no fuwaffuwa;
#SUBTITLETRANSLIT:;
#ARTISTTRANSLIT:Hinatami Bitter Sweets♪;
#GENRE:;
#CREDIT:;
#BANNER:Tobikkiri no fuwaffuwa.png;
#BACKGROUND:Tobikkiri no fuwaffuwa-bg.png;
#LYRICSPATH:Tobikkiri no fuwaffuwa.lrc;
#CDTITLE:;
#MUSIC:Tobikkiri no fuwaffuwa.ogg;
#OFFSET:0.000000;
#SAMPLESTART:95.999031;
#SAMPLELENGTH:12.000000;
#SELECTABLE:YES;
#BPMS:0.000000=110.000000
;
#STOPS:
;
#BGCHANGES:0.000=Tobikkiri no fuwaffuwa.mp4=1.000=0=0=1=====,
99999=-nosongbg-=1.000=0=0=0 // don't automatically add -songbackground-
;
#KEYSOUNDS:;
#ATTACKS:;

//---------------dance-single - ----------------
#NOTES:
     dance-single:
     :
     Hard:
     12:
     0.544396,0.624639,0.172433,0.448326,0.435394,442.000000,422.000000,20.000000,52.000000,0.000000,0.000000,0.544396,0.624639,0.172433,0.448326,0.435394,442.000000,422.000000,20.000000,52.000000,0.000000,0.000000:
0000
0000
0000
0000
,
0000
0000
0000
0000
,
0000
0000
0000
0000
,
0000
0000
0000
0000
,
0001
0000
1000
0100
0000
1000
0100
0000
0010
0000
0000
0000
0002
0000
0000
0000
,
1003
0000
0001
0100
0000
0001
0100
0000
0010
0000
0000
0000
2030
0000
0000
0000
,
3001
0000
1000
0010
0000
0100
0001
0000
0010
0000
0000
0001
1000
0000
0001
0000
,
0200
0000
0000
0000
0000
0000
0310
0000
0000
0000
0000
0000
1000
0000
0001
1000
0000
0000
0001
0000
0010
0100
0000
1000
,
0001
0000
0100
0010
0100
0000
0001
0000
0010
0000
0100
1000
0001
0000
1000
0000
,
0010
0000
0000
1000
0000
0001
1000
0000
0000
0001
0000
0000
0201
0000
0000
0001
0000
0000
0320
0000
0000
0000
0000
0000
,
1030
0000
0000
0000
0000
0000
0010
0000
0000
0100
0000
0000
0010
0000
0000
0000
0000
0000
1000
0000
0000
0100
0000
0000
0010
0000
0000
0000
0000
0000
0001
0000
0000
0000
1000
0000
0001
0000
0000
0000
0000
0000
0100
0000
0000
0000
0000
0000
,
0010
0000
0000
1000
0000
0100
0010
0000
0001
1000
0000
0000
1020
0000
0000
1000
0000
0000
0230
0000
0000
0000
0000
0000
,
0301
0000
0000
0000
0000
0000
0010
0000
0000
0000
0000
0000
0100
0000
0000
0000
0000
0000
1000
0000
0000
0000
0010
0000
0100
0000
0000
0000
0000
0000
0001
0000
0000
1000
0000
0000
0001
0000
0000
0000
0000
0000
1000
0000
0000
0000
0000
0000
,
0100
0000
0000
0000
0000
0000
0010
0000
0000
0001
0000
0000
0100
0000
0000
0000
0000
0000
0010
0000
0000
0000
0000
0000
0010
0000
0000
0000
0000
0000
1000
0000
0000
0000
0010
0000
0100
0000
0000
0000
0000
0000
0001
0000
0000
0000
0000
0000
,
1000
0000
0000
0000
0000
0000
0100
0000
0000
0000
0000
0000
0001
0000
0000
0000
0000
0000
0100
0000
0000
1000
0000
0000
0100
0000
0000
0000
0000
0000
1000
0000
0000
0000
0000
0000
0010
0000
0000
0000
0000
0000
0100
0000
0000
0000
0001
0000
,
0100
0010
1000
0001
0010
0230
2300
3001
,
0101
0000
0000
1000
0000
0100
0010
0000
0000
0001
0000
0100
0010
0000
0000
1000
0000
0001
1000
0000
0000
0010
0000
0000
,
0200
1000
0010
0301
0202
0303
2020
3030
,
1000
0000
0000
0000
0000
0000
0001
0000
0000
0010
0000
0000
0100
0000
0000
0000
0000
0000
1000
0000
0000
0010
0000
0000
0100
0000
0000
0000
0000
0000
0001
0000
0000
0000
1000
0000
0001
0000
0000
0000
0000
0000
0100
0000
0000
0000
0000
0000
,
0020
0001
0100
1030
2020
3030
0202
0303
,
1000
0000
0000
0100
0000
0000
1000
0000
0010
0100
0000
0000
0001
0000
0010
0100
0000
0000
1000
0000
0000
0001
0000
0000
,
0100
0000
0010
0100
0010
0000
2000
0000
0001
0000
0001
0000
3001
0000
0000
0000
,
0101
0000
0001
0100
0010
0000
1000
0000
1100
0000
1000
0100
0010
0000
0001
0000
,
1002
0000
0000
0100
0000
0000
3103
0000
0000
0000
0000
0000
0001
0000
1000
0001
0000
0000
0010
0000
0000
0100
0000
0000
,
1100
0000
0000
0001
0100
0000
0000
0010
0100
0010
0000
1000
0001
0000
0000
0000
,
1000
0000
0100
0010
0100
0010
0000
0001
0000
1000
0000
0010
0100
0000
0001
0000
,
0101
0000
0000
1000
0100
0000
0000
0010
0100
0010
0000
0001
1000
0000
0000
0000
,
0001
0000
0100
0010
0100
0010
0000
2000
0000
0000
0100
0000
3100
0000
0000
0000
,
1000
0000
0000
1010
0000
0000
0001
0000
0000
0011
0000
0000
0100
0000
0000
0001
0000
0010
0100
0000
0100
1000
0000
0000
,
0001
0000
0000
0101
0000
0000
1000
0000
0000
1100
0000
0000
0010
0000
0000
1000
0000
0100
0010
0000
0010
0001
0000
0000
,
1000
0000
0010
1000
0000
0000
0001
0000
0010
0001
0000
0000
1000
0000
0100
1000
0000
0000
0001
0000
0100
0001
0000
0000
,
0200
0000
0000
0000
0000
0000
0000
0000
0000
3320
0000
0000
0000
0000
0000
0000
0000
0000
0130
0000
0000
0030
0000
0000
1001
0000
0000
0000
0000
0000
0000
0000
0000
0000
0001
0000
3013
0000
0000
0000
0000
0000
0100
0000
0000
0000
0000
0000
,
1100
0000
0000
0001
0000
0100
0001
0000
0000
0100
0000
0010
1000
0000
0000
0001
0000
0010
0100
0000
0100
1000
0000
0000
,
0011
0000
0000
1000
0000
0010
1000
0000
0000
0010
0000
0100
0001
0000
0000
1000
0000
0100
0010
0000
0010
0001
0000
1000
,
0001
0000
0000
0100
0000
0010
1000
0000
0000
0001
0000
0000
1000
0000
0000
0100
0000
0010
0001
0000
0000
1000
0000
0000
,
0001
0000
0000
1000
0000
0010
1000
0000
0000
0001
0000
0010
0001
0000
0000
1000
0000
0100
0010
0000
0010
0001
0000
0000
,
1000
0000
0000
0010
0000
0000
0200
0000
0000
1000
0000
0000
0310
0000
0000
1000
0000
0100
0010
0000
0000
0001
0000
0000
,
1000
0000
0001
0100
0000
0001
0100
0000
0010
0000
1000
0000
0031
0000
0000
0000
,
1000
0000
0000
0010
0000
0100
0010
0000
0000
1000
0000
0000
0200
0000
0000
0001
0000
0000
2330
0000
0000
0010
0000
0000
,
0002
0000
0000
0000
3003
0000
0000
0000
3001
0000
1000
0100
0000
0010
0001
0000
,
1000
0010
0200
1000
0320
0001
2030
0100
,
3002
1000
0023
1000
0230
0001
2300
3002
,
0103
0010
2000
0010
3200
0001
0320
1000
,
0032
0000
0000
0100
0000
0000
2003
0000
0000
0010
0000
0000
3001
0000
0010
0001
0000
0000
1000
0000
0010
0100
0000
0100
,
0001
0000
1000
0100
0000
1000
0100
0000
0000
0000
0000
0000
0200
0000
0000
0000
,
0310
0000
0001
0100
0000
0001
0100
0000
0000
0000
0000
0000
0200
0000
0000
0000
,
0310
0000
1000
0100
0000
1000
0100
0000
0000
0000
0000
0000
0200
0000
0000
0000
,
0320
0000
0332
0000
1003
0010
0001
0010
,
1000
0000
0001
0010
0000
1000
0010
0000
0001
0000
1000
0000
0020
0000
0230
0000
,
0301
0000
1000
0100
0000
0001
0100
0000
1000
0000
0001
0000
0200
0000
0320
0000
,
1030
0000
0001
0010
0000
1000
0010
0000
0100
0000
0000
1000
0010
0000
0100
0000
,
0001
0000
1000
0000
0001
0010
0100
0000
2002
0000
0000
0000
3003
0000
0000
0000
;

//---------------dance-single - ----------------
#NOTES:
     dance-single:
     :
     Medium:
     8:
     0.311611,0.379245,0.060352,0.301758,0.077595,253.000000,246.000000,7.000000,35.000000,0.000000,0.000000,0.311611,0.379245,0.060352,0.301758,0.077595,253.000000,246.000000,7.000000,35.000000,0.000000,0.000000:
0000
0000
0000
0000
,
0000
0000
0000
0000
,
0000
0000
0000
0000
,
0000
0000
0000
0000
,
0000
0000
1000
0100
0000
1000
0100
0000
0000
0000
0000
0000
0000
0000
0000
0000
,
0000
0000
0010
0001
0000
0010
0001
0000
0000
0000
0000
0000
0000
0000
0000
0000
,
0000
0000
1000
0010
0000
1000
0010
0000
0100
0000
0000
0000
0001
0000
1000
0000
,
0200
0000
0000
0000
0310
0000
0010
0001
,
2000
0000
3100
0000
1000
0001
0100
0000
,
0001
0100
0010
0000
2000
0000
3002
0000
,
0013
0000
0001
1000
0010
0000
1000
0001
,
0200
0310
2000
3002
,
1003
0100
0010
0000
0001
1000
0010
0000
,
1000
0010
0100
0001
2000
0000
3100
0000
,
1000
0001
1000
0000
0001
0100
0010
0000
,
0200
0001
0020
0330
,
1000
0010
1000
0010
0100
0010
0100
0010
,
2000
3000
0002
2003
,
3001
0010
0001
0010
0100
0010
0100
0010
,
0002
0003
2000
3002
,
0103
0010
0100
0000
0010
0000
0010
0000
,
1000
0100
0010
0000
0001
0000
0000
0000
,
1000
0001
0100
0010
,
2002
0000
3003
0000
0001
1000
0100
0000
,
1100
0000
0101
0000
1000
0001
0100
0000
,
0010
0010
0010
0000
,
0101
0000
1100
0000
0001
1000
0100
0000
,
0010
0010
0010
0000
,
0001
0010
0001
0010
0100
0100
0100
0000
,
1000
0010
1000
0010
0100
0100
0100
0000
,
0010
1000
0100
0000
0010
0001
0100
0000
,
0001
0010
0100
0000
2002
0000
3003
0000
,
2000
0000
0100
0000
0010
0010
3010
0000
,
0002
0000
0100
0000
0010
0010
0013
0000
,
0001
1000
0100
0000
1000
0001
0100
0000
,
0001
0100
0010
0000
0100
0100
0100
0000
,
0010
0000
0010
0000
1000
0100
0010
0000
,
0001
1000
0001
1000
0020
0000
0230
0000
,
0301
0000
1000
0100
0020
0000
0032
0000
,
2000
0000
0000
3003
,
0000
0000
0001
0100
0001
0100
0001
0100
,
0010
1000
0010
1000
0010
1000
0001
0001
,
0000
0000
1000
0100
1000
0100
1000
0100
,
0010
0001
0010
0001
0010
0001
1000
1000
,
0000
0000
0001
0100
0000
0001
0100
0000
0000
0000
0000
0000
0000
0000
0000
0000
,
0000
0000
0100
0010
0000
0100
0010
0000
0000
0000
0000
0000
0000
0000
0000
0000
,
0000
0000
0010
1000
0000
0010
1000
0000
0000
0000
0000
0000
0000
0000
0000
0000
,
2000
0000
3200
0000
0310
0001
1000
0001
,
0000
0000
1000
0100
0000
1000
0100
0000
0000
0000
0000
0000
0200
0000
0000
0000
,
0310
0000
0001
0010
0000
0001
0010
0000
0000
0000
0000
0000
0002
0000
0000
0000
,
0103
0000
0001
0100
0000
0001
0100
0000
0020
0000
0000
0000
1030
0000
0001
0000
,
0020
0130
2002
3003
;

//---------------dance-single - ----------------
#NOTES:
     dance-single:
     :
     Easy:
     4:
     0.178591,0.223085,0.051730,0.224163,0.000000,145.000000,139.000000,6.000000,26.000000,0.000000,0.000000,0.178591,0.223085,0.051730,0.224163,0.000000,145.000000,139.000000,6.000000,26.000000,0.000000,0.000000:
0000
0000
0000
0000
,
0000
0000
0000
0000
,
0000
0000
0000
0000
,
0000
0000
0000
0000
,
0001
0100
0000
0001
,
1000
0100
0000
1000
,
0001
0010
0000
0001
,
0200
0300
0020
0030
,
1000
0001
1000
0100
,
0010
0000
0020
0030
,
0001
1000
0001
0001
,
0100
0000
0200
0300
,
0010
0010
1000
0000
,
1000
1000
0100
0000
,
0100
0100
0010
0010
,
0001
0000
1000
0000
,
0001
0100
0010
0100
,
0001
0000
0002
0003
,
1000
0100
0010
0100
,
1000
0000
2000
3000
,
0001
0100
0010
0000
,
0010
0010
1000
0000
,
1000
0100
0010
0001
,
0200
0000
0300
0000
,
0001
0001
0100
0000
,
0001
1000
0001
0000
,
1000
1000
0100
0000
,
1000
0001
1000
0000
,
0001
0100
0010
1000
,
0100
0010
0001
0000
,
1000
0010
0100
0001
,
0010
0010
0100
0000
,
1001
0000
1000
0010
,
0110
0000
0001
1000
,
1001
0000
0001
0010
,
0110
0000
0100
0000
,
1000
0100
0010
0000
,
0001
1000
0010
0000
,
0100
0100
0010
0010
,
2002
0000
0000
3003
,
0000
0002
0203
0320
,
0230
0302
2003
3002
,
0003
2000
3200
0320
,
0230
2300
3002
2003
,
3000
0001
0000
0001
,
0000
1000
0000
1000
,
0000
0010
0000
0010
,
0000
0100
0000
0100
,
0001
0010
0000
0010
,
0100
1000
0000
1000
,
0010
0100
0000
0100
,
0020
0030
2002
3003
;

//---------------dance-single - ----------------
#NOTES:
     dance-single:
     :
     Beginner:
     2:
     0.092375,0.133205,0.008622,0.000000,0.000000,75.000000,74.000000,1.000000,0.000000,0.000000,0.000000,0.092375,0.133205,0.008622,0.000000,0.000000,75.000000,74.000000,1.000000,0.000000,0.000000,0.000000:
0000
0000
0000
0000
,
0000
0000
0000
0000
,
0000
0000
0000
0000
,
0000
0000
0000
0000
,
1000
0000
0000
0000
,
0001
0000
0000
0000
,
0100
0000
0000
0000
,
0010
0000
0000
0000
,
1000
0000
1000
0000
,
1000
0000
0000
0000
,
0100
0000
0100
0000
,
0100
0000
0000
0000
,
0010
0000
0000
0000
,
0001
0000
0000
0000
,
1000
0000
0000
0000
,
0010
0000
0000
0000
,
0100
0000
0100
0000
,
0100
0000
0000
0000
,
0001
0000
0001
0000
,
0001
0000
0000
0000
,
0010
0000
0000
0000
,
0100
0000
0000
0000
,
1000
0000
1000
0000
,
1000
0000
0000
0000
,
0010
0010
0000
0010
,
0000
0000
0000
0000
,
0100
0100
0000
0100
,
0000
0000
0000
0000
,
0001
0000
0001
0000
,
0001
0000
0001
0000
,
1000
0000
1000
0000
,
1000
0000
1000
0000
,
0010
0000
0000
0100
,
0100
0000
0000
0001
,
0001
0000
0000
0000
,
0010
0000
0010
0000
,
0010
0000
0000
0000
,
0100
0000
0100
0000
,
0100
0000
0000
0000
,
1000
0000
0000
0000
,
0000
0001
0001
0000
,
0001
0000
0001
0000
,
0000
1000
1000
0000
,
1000
0000
1000
0000
,
0010
0000
0000
0100
,
0100
0000
0000
0001
,
0001
0000
0000
1000
,
1000
0000
0000
0000
,
0100
0000
0000
0010
,
0010
0000
0000
0001
,
0001
0000
0001
0000
,
1000
0000
1001
0000
;

//---------------dance-double - ----------------
#NOTES:
     dance-double:
     :
     Hard:
     12:
     0.534543,0.624639,0.327623,0.620759,0.422461,434.000000,396.000000,38.000000,72.000000,0.000000,0.000000,0.534543,0.624639,0.327623,0.620759,0.422461,434.000000,396.000000,38.000000,72.000000,0.000000,0.000000:
00000000
00000000
00000000
00000000
,
00000000
00000000
00000000
00000000
,
00000000
00000000
00000000
00000000
,
00000000
00000000
00000000
00000000
,
00001000
00000000
00100000
00010000
00000000
00100000
00010000
00000000
00000000
00000000
00000000
00000000
00102000
00000000
00000000
00000000
,
00013000
00000000
00000010
00001000
00000000
00000010
00001000
00000000
00000000
00000000
00000000
00000000
00020010
00000000
00000000
00000000
,
00031000
00000000
01000000
00010000
00000000
01000000
00010000
00000000
10000000
00000000
00000000
00010000
00100000
00000000
01000000
00000000
,
20000000
00000000
00000000
00000000
00000000
00000000
30100000
00000000
00000000
00000000
00000000
00000000
10000000
00000000
00010000
10000000
00000000
00000000
00010000
00000000
00100000
00001000
00000000
00000000
,
00010000
00000000
00000000
00000000
00000000
00000000
00000100
00000000
00000000
00000000
00001000
00000000
00000100
00000000
00000000
00000000
00000000
00000000
00001000
00000000
00000000
00000000
00000000
00000000
00000010
00000000
00000000
00000000
00000000
00000000
00000100
00000000
00000000
00000001
00000000
00000000
00001000
00000000
00000000
00000000
00000000
00000000
00000001
00000000
00000000
00000000
00000000
00000000
,
00000010
00000000
00000100
00000010
00000100
00000000
00010000
00000000
00020100
00000000
00000300
00000000
00032000
00000000
00000000
00000000
,
01003000
00000000
00010000
01000000
00010000
00000000
10000000
01000000
00100000
00000000
00010000
00000000
01000000
00000000
00001000
00000000
,
00202000
00303000
00011000
00010020
,
00000130
00000000
00000000
00000001
00000000
00000100
00000001
00000000
00000000
00001000
00000000
00000100
00001000
00000000
00000000
00000001
00000000
00000000
00000100
00000000
00000000
00000010
00000000
00000000
,
00010000
00000000
00000000
00001000
00000000
00100000
00001000
00000000
00000000
00100000
00000000
00000000
02000000
00000000
00000000
00000000
00000000
00000000
13000000
00000000
00000000
00010000
00000000
00000000
,
01000000
00000000
00000000
00100000
00000000
01000000
00100000
00000000
00000000
10000000
00000000
00010000
10000000
00000000
00000000
00010000
00000000
00000000
00100000
00000000
00000000
00001000
00000000
00000000
,
00102000
00000000
00013000
00000010
00000100
00000010
00000010
00000010
,
00001000
00000000
00000000
00000001
00000000
00000100
00000001
00000000
00000000
00001000
00000000
00000100
00001000
00000000
00000000
00000001
00000000
00000100
00000020
00000000
00000000
00002030
00000000
00000000
,
00003200
00003000
00000000
00000001
00000000
00000000
00000010
00000000
00000000
00001300
00000000
00000000
00020200
00000000
00000000
00030300
00030300
00000000
00202000
00000000
00000000
00303000
00000000
00000000
,
10010000
00000000
00000000
10000000
00000000
00100000
10000000
00000000
00000000
00010000
00000000
00100000
00010000
00000000
00000000
10000000
00000000
00100000
02000000
00000000
00000000
03020000
00000000
00000000
,
00230000
00030000
00000000
10000000
00000000
00000000
01000000
00000000
00000000
00310000
00000000
00000000
00202000
00000000
00000000
00303000
00303000
00000000
00020200
00000000
00000000
00030300
00000000
00000000
,
00011000
00000000
00000000
00001000
00000000
00000000
00000200
00000000
00000000
00010000
00000000
00000000
00000310
00000000
00000000
00001000
00000000
00000100
00000010
00000000
00000000
00000001
00000000
00000000
,
00002000
00000000
00000000
00003010
00000000
00000100
00000010
00000000
00000000
00020000
00000000
00000000
00001000
00000000
00000000
01000000
00000000
00000000
00031000
00000000
00000000
00000000
00000000
00000000
,
01001000
00000000
00000000
00001000
00000000
00100000
00010000
00000000
00000000
10000000
00000000
00000000
10100000
00000000
00000000
00100000
00000000
01000000
00010000
00000000
00000000
00100000
00000000
00000000
,
00202000
00000000
00000000
00000000
00000000
00000000
00000000
00000000
00000000
00303000
00000000
00000000
00001000
00000000
00010000
00000010
00000000
00000000
00000010
00000000
00000000
00000100
00000000
00000000
,
00000101
00000000
00000000
00001000
00000100
00000000
00000000
00010000
00001000
00010000
00000000
00001000
01000000
00000000
00000000
00000000
,
00002000
00000000
01003000
00100000
00010000
00200000
00000000
20300000
00000000
30020000
00000000
00130000
01000000
00000000
10000000
00000000
,
10100000
00000000
00000000
00010000
00100000
00000000
00000000
00001000
00010000
00001000
00000000
00010000
00000010
00000000
00000000
00000000
,
00020000
00000000
00030010
00000100
00001000
00000200
00000000
00000302
00000000
00001003
00000100
00003000
00000020
00000300
00000000
00000000
,
00000031
00000000
00000000
00000101
00000000
00000000
00001000
00000000
00000000
00001100
00000000
00000000
00010000
00000000
00000000
00001000
00000000
01000000
00100000
00000000
00000000
10000000
00000000
00010000
,
13000000
00000000
00000000
11000000
00000000
00000000
00010000
00000000
00000000
01010000
00000000
00000000
00001000
00000000
00000000
00010000
00000000
00000100
00000010
00000000
00000000
00000110
00000000
00000000
,
00000001
00000000
00000000
00000100
00000000
00000000
00000010
00000000
00000000
00000010
00000000
00000000
00001000
00000000
00000100
00010000
00000000
00000000
00001000
00000000
00010000
00001000
00000000
00010000
,
00002000
00000000
00000000
00000000
00000000
00000000
00000000
00000000
00000000
02003000
00000000
00000000
00000000
00000000
00000000
00000000
00000000
00000000
03100000
00000000
00000000
00000000
00000000
00000000
10010000
00000000
00000000
00000000
00000000
00000000
00000000
00000000
00000000
00000000
00010000
00000000
00100000
00000000
00000000
00000000
00000000
00000000
01000000
00000000
00000000
00000000
00000000
00000000
,
11000000
00000000
00000000
00010000
00000000
01000000
00100000
00000000
00000000
01000000
00000000
00001000
00010000
00000000
00000000
00001000
00000000
00010000
00000100
00000000
00000100
00000010
00000000
00000000
,
00000011
00000000
00000000
00001000
00000000
00000010
00000100
00000000
00000000
00000010
00000000
00010000
00001000
00000000
00000000
00010000
00000000
00001000
01000000
00000000
01000000
00100000
00000000
00000000
,
10100000
00000000
00000000
00000000
00000000
00000000
10000000
00000000
00000000
00000000
00010000
00000000
00200000
00000000
00000000
00000000
00000000
00000000
01000000
00000000
00000000
00000000
00000000
00000000
00302000
00000000
00000000
00000000
00000000
00000000
00013000
00000000
00000000
00000010
00000000
00000000
00000100
00000000
00000000
00000000
00000000
00000000
00000110
00000000
00000000
00000000
00000000
00000000
,
00001000
00000000
00000000
00000000
00000000
00000000
00000001
00000000
00000000
00000000
00001000
00000000
00000020
00000000
00000000
00000000
00000000
00000000
00000100
00000000
00000000
00000000
00000000
00000000
00020330
00000000
00000000
00000000
00000000
00000000
00031000
00000000
00000000
00100000
00000000
00000000
01000000
00000000
00000000
00000000
00000000
00000000
01100000
00000000
00000000
00000000
00000000
00000000
,
10000000
00000000
00000000
00000000
00000000
00000000
00100000
00000000
00000000
00000000
00000000
00000000
01000000
00000000
00000000
00000000
00000000
00000000
00010000
00000000
00000000
00000000
00100000
00000000
00001000
00000000
00000000
00000000
00000000
00000000
00010000
00000000
00000000
00001000
00000000
00000000
00010000
00000000
00000000
00000000
00000000
00000000
00000010
00000000
00000000
00000000
00000000
00000000
,
00000100
00000000
00000001
00001000
00000000
00000001
00001000
00000000
00000100
00000000
00000010
00000000
00002001
00000000
00000000
00000000
,
00003001
00000000
00000200
00000000
00002300
00000000
00023000
00300000
00230000
00000000
00001000
00000000
02300000
00000000
00001000
00000000
,
03020000
00000000
00000000
00000000
00100000
00000000
00130000
00000000
00010000
00000000
10000000
00100000
00000000
00100000
01000000
00000000
,
01010000
00000000
20000000
01000000
30020000
01000000
00230000
10000000
,
00302000
00000000
00010000
00000000
00003200
00000000
00010000
00000000
00000320
00000000
00001000
00000000
00000233
00000030
00000301
00000000
,
00000101
00000000
00000002
00000010
00002003
00000010
00003200
00000001
,
00020300
00000000
00000000
00000000
00000000
00000000
00001000
00000000
00000000
00000000
00000000
00000000
00230000
00000000
00000000
00000000
00000000
00000000
00001000
00000000
00000000
00000000
00000000
00000000
01300000
00000000
00000000
00000000
00100000
00000000
01000000
00000000
00000000
00000000
00000000
00000000
33010000
00000000
00000000
03000000
00100000
00000000
00001000
00000000
00000000
00000000
00001000
00000000
,
00010000
00000000
00000100
00001000
00000000
00000100
00001000
00000000
00000000
00000000
00000000
00000000
00020100
00000000
00000000
00000000
,
00031000
00000000
01000000
00010000
00000000
01000000
00010000
00000000
00000000
00000000
00000000
00000000
01002000
00000000
00000000
00000000
,
00013000
00000000
00000010
00001000
00000000
00000010
00001000
00000000
00000000
00000000
00000000
00000000
00020010
00000000
00000000
00000000
,
00032000
00000000
00233000
00000000
00310000
01000000
10000000
01000000
,
00010000
00000000
10000000
01000000
00000000
00100000
00010000
00000000
00001000
00000000
00000100
00000000
00000012
00000000
00000000
00000000
,
00001033
00000000
00000001
00000100
00000000
00000010
00001000
00000000
00010000
00000000
01000000
00000000
20100000
00000000
00000000
00000000
,
30010000
00000000
00100000
01000000
00000000
00100000
01000000
00000000
10000000
00000000
00000000
00010000
01000000
00000000
00100000
00000000
,
00020000
00030010
00022000
00033000
;

//---------------dance-double - ----------------
#NOTES:
     dance-double:
     :
     Medium:
     8:
     0.328855,0.356937,0.155190,0.439704,0.094838,267.000000,249.000000,18.000000,51.000000,0.000000,0.000000,0.328855,0.356937,0.155190,0.439704,0.094838,267.000000,249.000000,18.000000,51.000000,0.000000,0.000000:
00000000
00000000
00000000
00000000
,
00000000
00000000
00000000
00000000
,
00000000
00000000
00000000
00000000
,
00000000
00000000
00000000
00000000
,
00000000
00000000
00010000
00001000
00000000
00010000
00001000
00000000
00000000
00000000
00000000
00000000
00000000
00000000
00000000
00000000
,
00000000
00000000
00100000
00010000
00000000
00100000
00010000
00000000
00000000
00000000
00000000
00000000
00000000
00000000
00000000
00000000
,
00000000
00000000
10000000
00100000
00000000
10000000
00100000
00000000
02000000
00000000
00000000
00000000
03010000
00000000
00100000
00000000
,
00002000
00000000
00000000
00000000
00013000
00000000
00001000
00010000
,
00000200
00000000
00002300
00000000
00003001
00000100
00000010
00000000
,
00001000
00000100
00000010
00000001
00002000
00000000
00003200
00000000
,
00010300
00001000
00010000
00001000
01000000
00100000
01000000
00100000
,
20000000
00010000
32000000
03200000
,
00301000
00010000
00001000
00000000
00100000
00100000
00100000
00000000
,
00001000
00010000
00000010
00000100
00000002
00000000
00001003
00000000
,
00000001
00000010
00000100
00000000
00001000
00000010
00000100
00000000
,
00000220
00000000
00000330
00000000
00001000
00000100
00000010
00000001
,
00001000
00000010
00001000
00000010
00010000
00001000
00010000
00001000
,
00200000
00310000
00110000
10010000
,
00010000
01000000
00010000
01000000
00001000
00010000
00001000
00010000
,
00000200
00001300
00001100
00001001
,
00000001
00000100
00000010
00000000
00001000
00000100
00010000
00000000
,
00001000
00100000
00010000
10000000
00200000
00000000
01300000
00000000
,
20100000
30010000
00102000
00013000
,
00010020
00000000
00000000
00000000
00000130
00000001
00001000
00000000
,
00000001
00000000
00000000
00000000
00000100
00000000
00000000
00000010
00000000
00000010
00000000
00000000
00000100
00000000
00000000
00000000
,
00000010
00001000
00000100
00000000
00010000
00000000
00001000
00000000
,
00100000
00000000
00000000
00000000
00010000
00000000
00000000
01000000
00000000
01000000
00000000
00000000
00010000
00000000
00000000
00000000
,
10000000
01000000
00100000
00000000
00010000
01000000
00100000
00000000
,
00000000
10000000
01000000
10000000
01000000
00000000
01100000
00000000
,
00002000
00023000
00030020
00000130
,
00000001
00000100
00000010
00000000
00001000
00000100
00000010
00000000
,
00001100
00011000
00220000
00330000
,
00001000
00010000
00001000
00010000
00100000
00000000
00100000
00000000
,
00010000
00001000
00010000
00001000
00000010
00000000
00000010
00000000
,
00001000
00010000
00001000
00010000
01000000
00000000
01000000
00000000
,
00020000
00032000
00003200
00000310
,
00001010
00000000
00000101
00000000
00001000
00000100
00010000
00000000
,
00001000
00100000
00001000
00100000
02000000
00000000
23000000
00000000
,
30100000
01000000
00010000
00000000
01010000
00000000
00011000
00000000
,
00002200
00000000
00000000
00003300
,
00000001
00000100
00000020
00000000
00002030
00000000
00003200
00000000
,
00020300
00000000
00032000
00000000
00103000
01000000
10000000
00000000
,
00010000
01000000
00200000
00000000
02300000
00000000
03002000
00000000
,
00023000
00000000
00030200
00000000
00001300
00000010
00000100
00000000
,
00000000
00000000
00000001
00000100
00000000
00000001
00000100
00000000
00000000
00000000
00000000
00000000
00000200
00000000
00000000
00000000
,
00000300
00000000
00000010
00001000
00000000
00000010
00001000
00000000
00000000
00000000
00000000
00000000
00002000
00000000
00000000
00000000
,
00003000
00000000
00000100
00010000
00000000
00000100
00010000
00000000
00000000
00000000
00000000
00000000
00020000
00000000
00000000
00000000
,
00032000
00000000
02003000
00000000
03100000
10000000
00010000
00000000
,
00000000
00000000
10000000
01000000
00000000
10000000
01000000
00000000
00000000
00000000
00000000
00000000
00200000
00000000
00000000
00000000
,
00301000
00000000
00010000
00001000
00000000
00010000
00001000
00000000
00000000
00000000
00000000
00000000
00020000
00000000
00000000
00000000
,
00030010
00000000
00001000
00000010
00000000
00001000
00000010
00000000
00000200
00000000
00000000
00000000
00000301
00000000
00000010
00000000
,
00000200
00001300
00002002
00003003
;

//---------------dance-double - ----------------
#NOTES:
     dance-double:
     :
     Easy:
     4:
     0.195835,0.223085,0.094838,0.301758,0.000000,159.000000,148.000000,11.000000,35.000000,0.000000,0.000000,0.195835,0.223085,0.094838,0.301758,0.000000,159.000000,148.000000,11.000000,35.000000,0.000000,0.000000:
// measure 0
00000000
00000000
00000000
00000000
,  // measure 1
00000000
00000000
00000000
00000000
,  // measure 2
00000000
00000000
00000000
00000000
,  // measure 3
00000000
00000000
00000000
00000000
,  // measure 4
00010000
00001000
00100000
00000000
,  // measure 5
00001000
00010000
00000010
00000000
,  // measure 6
00010000
00001000
01000000
00000000
,  // measure 7
00100000
00000000
10010000
00000000
,  // measure 8
10000000
01000000
00100000
00010000
,  // measure 9
01000000
01000000
00001000
00000000
,  // measure 10
00010000
00001000
00010000
00000100
,  // measure 11
00000010
00000010
00000001
00000000
,  // measure 12
00001000
00000001
00000100
00000000
,  // measure 13
00000001
00000100
00000010
00000000
,  // measure 14
00001000
00000100
00010000
00001000
,  // measure 15
00200000
00000000
00000000
00300000
,  // measure 16
00010000
10000000
00100000
01000000
,  // measure 17
00002000
00003000
00010000
00010000
,  // measure 18
00000100
00001000
00000010
00000100
,  // measure 19
00000020
00000030
00001000
00001000
,  // measure 20
00000100
00010000
00001000
00000000
,  // measure 21
00100000
00010000
01000000
00000000
,  // measure 22
00200000
00300000
00200000
00300000
,  // measure 23
20020000
00000000
00000000
30030000
,  // measure 24
10000000
01000000
00100000
00001000
,  // measure 25
00010000
00000000
00000010
00000000
,  // measure 26
00001000
00000010
00000100
00000001
,  // measure 27
00001000
00000000
00000100
00000000
,  // measure 28
00010000
00010000
00001000
00001000
,  // measure 29
00100000
00010000
01000000
00000000
,  // measure 30
00010000
01000000
00100000
10000000
,  // measure 31
01000000
01000000
01100000
00000000
,  // measure 32
10010000
00000000
00010000
01000000
,  // measure 33
01100000
00000000
01000000
00001000
,  // measure 34
00011000
00000000
00010000
00000100
,  // measure 35
00000110
00000000
00000010
00000001
,  // measure 36
00001000
00001000
00000001
00000001
,  // measure 37
00000100
00000010
00010000
00000000
,  // measure 38
00001000
00100000
01000000
01000000
,  // measure 39
20020000
00000000
00000000
30030000
,  // measure 40
00000000
20000000
30200000
02300000
,  // measure 41
03002000
00023000
00030200
00000320
,  // measure 42
00000030
00000002
00000203
00000320
,  // measure 43
00020030
00032000
00203000
01300000
,  // measure 44
10010000
00000000
00010000
02000000
,  // measure 45
03001000
00000000
00001000
00020000
,  // measure 46
00030100
00000000
00000100
00002000
,  // measure 47
00003002
00000203
00000320
00001030
,  // measure 48
00000100
00020000
00031000
00000000
,  // measure 49
00001000
00200000
00310000
00000000
,  // measure 50
00010000
20000000
30100000
01000000
,  // measure 51
02200000
03300000
20020000
30030000
;
