#TITLE:TOCCATA;
#SUBTITLE:;
#ARTIST:BanYa Production;
#TITLETRANSLIT:;
#SUBTITLETRANSLIT:;
#ARTISTTRANSLIT:;
#GENRE:;
#CREDIT:;
#BANNER:Toccata.png;
#BACKGROUND:Toccata-bg.png;
#LYRICSPATH:;
#CDTITLE:;
#MUSIC:Toccata.ogg;
#OFFSET:-0.000000;
#SAMPLESTART:76.135368;
#SAMPLELENGTH:12.000000;
#SELECTABLE:YES;
#BPMS:0.000000=104.000000
;
#STOPS:
;
#BGCHANGES:0.000=Toccata.mp4=1.000=0=0=0=StretchNoLoop====,
99999=-nosongbg-=1.000=0=0=0 // don't automatically add -songbackground-
;
#KEYSOUNDS:;
#ATTACKS:;

//---------------dance-single - ----------------
#NOTES:
     dance-single:
     :
     Hard:
     12:
     0.530561,0.565080,0.223241,0.273978,0.466778,366.000000,344.000000,22.000000,27.000000,0.000000,0.000000,0.530561,0.565080,0.223241,0.273978,0.466778,366.000000,344.000000,22.000000,27.000000,0.000000,0.000000:
0000
0000
0000
0000
,
0000
0000
0000
0000
,
0000
0000
0000
0000
,
0000
0000
0000
0000
,
1000
0000
0000
0010
0000
0000
2020
0000
0000
0000
0000
0000
0000
0000
0000
0000
,
3330
0000
0000
0000
0000
0000
0000
0000
2000
0000
0000
3200
0000
0000
0310
0000
,
0002
0100
0000
0100
,
1003
0000
0000
0000
1001
0000
0000
1001
0000
0000
0001
0000
0101
0000
0000
0000
,
1000
0100
1000
0000
0100
0000
0010
0000
0001
0100
0001
0000
0100
0000
0010
0000
,
1000
0010
1000
0000
0100
0000
0010
0000
0001
0010
0001
0000
1000
0000
0001
0000
,
1000
0100
0010
0000
0001
0000
0001
0000
0100
0000
0100
0000
0010
0000
1000
0000
,
0001
0010
0100
0000
1000
0000
1000
0000
0010
0000
0010
0000
0100
0000
0001
0000
,
1000
0100
0010
0000
0001
0010
0100
0000
1000
0010
0100
0000
0001
0010
0100
1000
,
0002
0000
0000
0000
0103
0000
0000
0001
1000
0000
0100
0000
1100
0000
0000
0000
,
2000
0000
0000
0000
3010
0000
0000
1000
0001
0000
0001
0000
1000
0100
0010
0000
,
0001
0100
0010
0100
0002
0000
0000
1003
0100
0000
0020
0000
0130
1000
0001
0000
,
1000
0010
0100
0010
2000
0000
3001
0000
1000
0100
0010
0001
0200
0000
0310
0000
,
1000
0010
0100
0010
2000
0000
0000
3001
0010
0000
0200
0000
0310
0001
1000
0000
,
0001
0100
0010
0100
0002
0000
1003
0000
0001
0010
0100
1000
0020
0000
0130
0000
,
0031
0000
0001
0000
1000
0000
1000
0000
0001
0010
0100
1000
0100
0010
0001
0000
,
1000
0000
0010
0000
0100
0000
0001
0000
1000
0100
0010
0001
0010
0100
1000
0000
,
1010
0000
0010
0000
0100
0000
0001
0000
1000
0100
1000
0000
0001
0000
0001
0000
,
0100
0000
1010
0000
0100
0000
0011
0000
0001
0100
0010
0000
1000
0000
0000
0000
,
0001
0010
0001
0000
0011
0000
0000
0000
1000
0100
1000
0000
1100
0000
0000
0000
,
0001
0100
0001
0000
0101
0000
0000
0000
1000
0100
0010
0000
0001
0010
0100
0000
,
1000
0010
1000
0000
0101
0000
0000
0000
0001
0010
0001
0000
1100
0000
0000
0000
,
0001
1000
0001
0000
0110
0000
0000
0000
1002
0000
0000
0000
0023
0000
0000
0000
,
0130
0000
0100
0000
1000
0000
0010
0000
0100
0001
1000
0000
0100
0000
0010
0000
,
0001
0001
1000
1000
0100
0001
0100
1000
,
0001
0100
0001
0000
1000
0100
1000
0000
0001
0010
0001
0000
1000
0010
1000
0000
,
0001
0100
0010
0000
1000
0100
0010
0000
0001
0010
0100
1000
0100
0010
0001
1000
,
0020
0000
0000
0000
0130
0000
0001
0000
1000
0000
0001
0000
0010
0000
0000
0001
,
0200
0000
0000
0000
0310
0000
1000
0000
0001
0010
0000
0010
0100
0000
1000
0000
,
0001
0100
1000
0100
0010
0000
0000
0000
2010
0000
3001
3000
0012
0000
1003
0000
,
0001
0010
0100
0010
0001
0000
1000
0010
0100
0001
0100
0001
2000
0000
3010
0000
,
1000
0010
0001
0010
0100
0000
0000
0000
0102
0000
1003
0003
2100
0000
3001
0000
,
1000
0100
0010
0100
1000
0000
0001
0100
0010
1000
0010
1000
0002
0000
0013
0000
,
0100
0000
0100
0000
1000
0000
0001
0000
1000
0100
0010
0001
0010
0100
1000
0000
,
0001
0000
0100
0000
1000
0000
0100
0000
0001
0010
0100
1000
0100
0010
0001
0000
,
0101
0000
0100
0000
0010
1000
0010
1000
0001
0010
0100
0000
1000
0000
0001
0000
,
1000
0000
0110
0000
0001
0000
0110
0000
1000
0100
0010
0001
0010
0100
1000
0020
,
0200
0330
0000
0000
;

//---------------dance-single - ----------------
#NOTES:
     dance-single:
     :
     Challenge:
     14:
     0.643631,0.711582,0.142063,0.365304,0.862524,444.000000,430.000000,14.000000,36.000000,0.000000,0.000000,0.643631,0.711582,0.142063,0.365304,0.862524,444.000000,430.000000,14.000000,36.000000,0.000000,0.000000:
0000
0000
0000
0000
,
0000
0000
0000
0000
,
0000
0000
0000
0000
,
0000
0000
0000
0000
,
0001
0000
0000
0100
0000
0000
0202
0000
0000
0000
0000
0000
0000
0000
0000
0000
,
0303
0000
0000
0000
0000
0000
0000
0000
2000
0000
0000
3200
0000
0000
0313
0000
,
0002
0100
1000
0100
,
1003
0000
0100
0000
1100
0000
0001
0010
0000
0100
1000
0000
0101
0000
2000
0000
,
3001
0100
0001
0100
0010
0100
0010
0100
1000
0100
1000
0100
0010
0100
0010
0100
,
0001
0010
0001
0010
0100
0010
0100
0010
1000
0010
1000
0010
0100
0010
0100
0010
,
0001
0100
0010
1000
0001
0010
0100
1000
0001
0100
0010
1000
0001
0010
0100
0100
,
1000
0010
0100
0001
1000
0100
0010
0001
1000
0010
0100
0001
1000
0100
0010
0010
,
0001
0100
1000
0100
0010
0100
1000
0100
0001
0010
1000
0010
0100
0010
0001
1000
,
0020
0000
0000
0000
0130
0000
0001
0010
0100
0000
0100
0000
1000
0001
0000
0000
,
2000
0000
0000
0000
3100
0000
1000
0010
0100
0000
0100
0000
0001
1000
0010
0010
,
1000
0100
0010
0001
0200
0000
0000
0301
0020
0000
0000
0130
1000
0001
1000
0010
,
0100
0001
0010
0100
2000
0000
0000
3001
0100
1000
0001
0010
2000
0000
0000
0000
,
3001
0010
0100
1000
0020
0000
0000
1030
0200
0000
0000
0310
0001
1000
0001
0100
,
0010
1000
0100
0010
0002
0000
0000
1003
0010
0001
1000
0100
0002
0000
0000
0000
,
0013
0000
0010
0000
0100
0000
0100
0000
1000
0010
1000
0010
0100
0001
0100
0001
,
1000
0000
0000
0100
0000
0000
0010
0000
0000
0001
0000
0000
0010
0000
0000
0100
0000
0000
1000
0000
0000
0001
0000
0000
0100
0000
0010
0000
0100
0000
0010
0000
0100
0000
0010
0000
1000
0000
0000
0100
0000
0000
0010
0000
0000
0001
0000
0000
,
1000
0000
0001
0100
0010
0100
0001
0010
0100
1000
0020
0000
0130
0000
0002
0000
,
1003
0000
1100
0000
0100
0000
0110
0000
0010
0001
1000
0001
0100
0010
0100
0000
,
0301
0010
0100
0000
2100
0000
3001
0000
1000
0010
0100
0000
0102
0000
1003
0000
,
0001
0010
0001
0000
1000
0010
1000
0000
0001
0100
0010
0000
1000
0100
0010
0000
,
0001
0010
1000
0000
1020
0000
0130
0000
1000
0010
0001
0000
0021
0000
0130
0000
,
0001
0100
1000
0000
1200
0000
0310
0000
1000
0100
0010
0001
0010
0100
1000
0001
,
0100
0000
0100
0000
0010
0000
0010
0000
1000
0100
0010
0000
0001
0000
0100
0000
,
0010
0010
1000
1000
0001
0010
1000
0010
,
0001
0100
0001
0100
1000
0100
1000
0100
0010
0100
0010
0100
0001
0010
0100
1000
,
0001
0001
0100
0100
0010
0010
1000
1000
0001
0001
0010
0010
0100
0100
1000
1000
,
0010
0100
0101
0001
1000
0100
1100
1000
,
0002
0000
0000
0000
0013
0000
0001
0000
1000
0010
0100
0001
0010
0100
1000
0000
,
0001
0100
1000
0100
0020
0000
0000
1030
0200
0000
0000
0310
0001
1000
0001
0100
,
0010
1000
0001
0010
0200
0000
0000
1300
0010
0001
0010
0100
0002
0000
0000
0000
,
1003
0010
0001
0010
0200
0000
0000
0301
0020
0000
0000
0130
1000
0001
1000
0010
,
0100
0001
1000
0100
0020
0000
0000
0031
0100
1000
0100
0010
2000
0000
0000
0000
,
3001
0000
0001
0000
1000
0000
1000
0000
0001
0100
0001
0100
0010
1000
0010
1000
,
0001
0000
0000
0010
0000
0000
0100
0000
0000
1000
0000
0000
0100
0000
0000
0010
0000
0000
0001
0000
0000
1000
0000
0000
0010
0000
0100
0000
0010
0000
0100
0000
0010
0000
0100
0000
0001
0000
0000
0010
0000
0000
0100
0000
0000
1000
0000
0000
,
0001
0000
1000
0010
0001
0010
1000
0100
0010
0001
0200
0000
0310
0000
2000
0000
,
3001
0000
0000
0000
0000
0000
1001
0000
0000
0000
0000
0000
1000
0000
0000
0000
0000
0000
1001
0000
0000
0000
0000
0000
0001
0000
0000
0010
0000
0000
0100
0000
0000
1000
0000
0000
0010
0000
0100
0000
0010
0000
0100
0000
0000
0002
0000
0000
,
2000
3003
0000
0000
;

//---------------dance-single - ----------------
#NOTES:
     dance-single:
     :
     Medium:
     8:
     0.384149,0.439507,0.152210,0.304420,0.182652,265.000000,250.000000,15.000000,30.000000,0.000000,0.000000,0.384149,0.439507,0.152210,0.304420,0.182652,265.000000,250.000000,15.000000,30.000000,0.000000,0.000000:
0000
0000
0000
0000
,
0000
0000
0000
0000
,
0000
0000
0000
0000
,
0000
0000
0000
0000
,
2000
0000
0000
3020
0000
0000
0230
0000
0000
0000
0000
0000
0000
0000
0000
0000
,
0300
0000
0000
0000
0000
0000
0000
0000
0002
0000
0000
0023
0000
0000
0230
0000
,
2300
0001
0000
3001
,
1000
0000
0000
0000
0010
0000
0000
0010
0000
0000
0000
0000
1001
0000
0000
0000
,
1000
0100
0010
0001
0010
0100
1000
0001
,
1000
0010
0100
0001
0100
0010
1000
0001
,
1000
1000
0100
0100
0010
0010
0001
0001
,
0010
0010
0100
0100
1000
1000
0001
0001
,
1000
0010
0001
0010
1000
0100
0001
0100
,
0020
1000
0100
0001
,
0230
0001
0010
1300
,
0001
0100
0001
0100
0010
0000
0000
0000
2010
0000
0000
0000
3002
0000
0000
0000
,
1003
0100
1000
0100
0010
0000
0000
0000
0001
0010
0001
0010
0100
0000
0000
0000
,
1000
0010
1000
0010
0100
0000
0000
0000
0102
0000
0000
0000
2003
0000
0000
0000
,
3100
0010
0100
0010
0100
0000
0000
0000
1000
0001
1000
0001
0100
0000
0000
0000
,
0001
0001
1000
1000
0001
0010
0100
1000
,
0100
0010
0001
1000
0010
0010
0100
0001
,
1001
0000
1000
0001
0100
0100
0001
0010
,
0100
1100
0000
0101
0000
0001
1000
0000
,
0001
0100
0001
0000
0000
0000
0000
0000
1000
0100
1000
0000
0000
0000
0000
0000
,
0001
1000
0001
0000
0000
0000
0000
0000
2000
0000
0000
0000
3020
0000
0000
0000
,
0130
0001
0100
0000
0000
0000
0000
0000
0001
0010
0001
0000
0000
0000
0000
0000
,
1000
0100
1000
0000
0000
0000
0000
0000
1002
0000
0000
0000
0023
0000
0000
0000
,
0130
0000
0100
0000
1000
0000
0010
0000
0100
0001
0100
0000
0010
0000
1000
0000
,
0001
0001
1000
1000
0100
0010
0001
0000
,
1000
0010
0001
0010
1000
0100
0001
0100
,
1000
0010
0100
0001
1000
0100
0010
0001
,
0200
0001
1000
0001
,
0320
1000
0001
1030
,
0001
0100
0001
0100
0010
0000
0000
0000
2020
0000
3030
3000
0022
0000
0033
0000
,
1003
0100
1000
0100
0010
0000
0000
0000
0001
0100
0001
0100
0010
0000
0000
0000
,
1000
0010
1000
0010
0100
0000
0000
0000
0202
0000
0303
0300
2200
0000
3300
0000
,
3310
0001
0010
0001
1000
0000
0000
0000
0001
0100
0001
0100
0020
0000
0000
0000
,
1030
1000
0001
0001
1000
0100
0010
0001
,
0010
0100
1000
0001
0100
0100
0010
1000
,
1001
0000
0001
1000
0010
0010
1000
0100
,
0010
0011
0000
1010
0001
0010
0100
1000
,
2002
3003
0000
0000
;

//---------------dance-single - ----------------
#NOTES:
     dance-single:
     :
     Easy:
     4:
     0.169606,0.209289,0.050737,0.182652,0.000000,117.000000,112.000000,5.000000,18.000000,0.000000,0.000000,0.169606,0.209289,0.050737,0.182652,0.000000,117.000000,112.000000,5.000000,18.000000,0.000000,0.000000:
0000
0000
0000
0000
,
0000
0000
0000
0000
,
0000
0000
0000
0000
,
0000
0000
0000
0000
,
0002
0000
0000
2003
0000
0000
0000
0000
,
3000
0000
2000
0000
,
3020
0000
0000
0030
,
0100
0010
1000
0001
,
1001
1000
0100
0010
,
0001
0100
0010
1000
,
0001
0001
1000
1000
,
0001
0010
0100
1000
,
0010
0010
0100
0100
,
2002
0000
0000
3003
,
0220
0000
0000
0330
,
1000
1000
0200
0300
,
0010
0010
0001
1000
,
0001
0001
0200
0300
,
0010
0010
1000
0001
,
2000
3000
0002
0003
,
0010
0010
0100
1000
,
0010
0000
0100
0100
,
0001
1000
0001
0000
,
1000
1000
0000
0000
0001
0001
0000
0000
,
0100
0100
0000
0000
0000
0000
0000
0000
,
0001
0001
0000
0000
1000
1000
0000
0000
,
0100
0100
0000
0000
0000
0000
0000
0000
,
1000
0000
1000
0000
,
0010
0000
0010
0000
,
0100
0100
0001
0001
,
1000
1000
0100
0010
,
0002
0000
0000
0003
,
2000
0000
0000
3000
,
0001
0001
0000
0000
1000
0000
0001
0000
,
0100
0100
0010
0010
,
1000
1000
0000
0000
0001
0000
1000
0000
,
0100
0100
0010
0010
,
0002
0003
2000
3000
,
0001
0100
0010
1000
,
1001
0000
1000
0001
,
0010
0010
0100
0010
,
2002
3003
0000
0000
;

//---------------dance-single - ----------------
#NOTES:
     dance-single:
     :
     Beginner:
     1:
     0.082628,0.104010,0.010147,0.000000,0.000000,57.000000,56.000000,1.000000,0.000000,0.000000,0.000000,0.082628,0.104010,0.010147,0.000000,0.000000,57.000000,56.000000,1.000000,0.000000,0.000000,0.000000:
0000
0000
0000
0000
,
0000
0000
0000
0000
,
0000
0000
0000
0000
,
0000
0000
0000
0000
,
0001
0000
0000
0000
,
1000
0000
0000
0000
,
0000
0010
0000
0010
,
0000
0010
0000
0000
,
1000
0000
1000
0000
,
0001
0000
0001
0000
,
0100
0000
0100
0000
,
0100
0000
0100
0000
,
0010
0000
0010
0000
,
0010
0000
0000
0000
,
1000
0000
0000
0000
,
0001
0001
0000
0000
,
0010
0000
0010
0000
,
0100
0100
0000
0000
,
1000
0000
1000
0000
,
1000
0000
0000
0000
,
0010
0000
0000
0000
,
0100
0000
0100
0000
,
0100
0000
0000
0000
,
0001
0000
0001
0000
,
0001
0000
0000
0000
,
1000
0000
1000
0000
,
1000
0000
0000
0000
,
0100
0000
0000
0000
,
0010
0000
0000
0000
,
0001
0000
0001
0000
,
0001
0000
0001
0000
,
0001
0000
0000
0000
,
1000
0000
0000
0000
,
0010
0000
0010
0000
,
0010
0000
0000
0000
,
0100
0000
0100
0000
,
0100
0000
0000
0000
,
0001
0000
0000
0000
,
1000
0000
0000
0000
,
0100
0000
0100
0000
,
0100
0000
0000
0000
,
1001
0000
0000
0000
;

//---------------dance-double - ----------------
#NOTES:
     dance-double:
     :
     Challenge:
     14:
     0.640732,0.711582,0.162357,0.426188,0.872671,442.000000,426.000000,16.000000,42.000000,0.000000,0.000000,0.640732,0.711582,0.162357,0.426188,0.872671,442.000000,426.000000,16.000000,42.000000,0.000000,0.000000:
00000000
00000000
00000000
00000000
,
00000000
00000000
00000000
00000000
,
00000000
00000000
00000000
00000000
,
00000000
00000000
00000000
00000000
,
00020000
00000000
00000000
00030010
00000000
00000000
00002020
00000000
00000000
00000000
00000000
00000000
00000000
00000000
00000000
00000000
,
00003030
00000000
00000000
00000000
00000000
00000000
00000000
00000000
00000002
00000000
00000000
00000023
00000000
00000000
00000230
00000000
,
00020300
00001000
00000010
00031000
,
00001000
00000000
00100000
00000000
00110000
00000000
00010000
01000000
00000000
00100000
10000000
00000000
10010000
00000000
00020000
00000000
,
10030000
01000000
10000000
01000000
00100000
01000000
00100000
01000000
00010000
01000000
00010000
01000000
00100000
00001000
00010000
00000010
,
00001000
00000100
00001000
00000100
00000010
00000100
00000010
00000100
00000001
00000100
00000001
00000100
00001000
00000010
00000100
00000001
,
00001000
00000100
00000010
00000001
00001000
00000100
00000010
00000001
00000100
00000010
00001000
00000100
00010000
00001000
01000000
00010000
,
10000000
01000000
00100000
00010000
10000000
01000000
00100000
00010000
01000000
00100000
10000000
01000000
00100000
00001000
00010000
00000100
,
00001000
00000010
00001000
00000010
00000100
00000001
00000100
00000001
00001000
00000100
00000001
00000100
00010000
00001000
00100000
00010000
,
02000000
00000000
00000000
00000000
03100000
00000000
10000000
01000000
00100000
00000000
00010000
00000000
00110000
00000000
00000000
00000000
,
20010000
00000000
00000000
00000000
30100000
00000000
00000000
10000000
01000000
00000000
01000000
00000000
00100000
00001000
00010000
00010000
,
00001000
00000100
00000010
00000100
00000002
00000000
00000000
00001003
00000200
00000000
00000000
00000310
00000001
00001000
00000001
00000100
,
00001000
00013000
00100000
00010000
00002000
00000000
00000000
01033000
00010000
00100000
01000000
00010000
00002000
00000000
00000000
00000000
,
00013000
01000000
00100000
01000000
20000000
00000000
00000000
30010000
02000000
00300000
00000000
03100000
10000000
00010000
10000000
01000000
,
00010000
00031000
00000010
00001000
00020000
00000000
00000000
00033100
00001000
00000010
00000100
00001000
00020000
00000000
00000000
00000000
,
00130000
00000000
00100000
00000000
10000000
00000000
00010000
00000000
10000000
01000000
00100000
00010000
00001000
00000100
00000010
00000001
,
00000100
00000000
00000000
00000010
00000000
00000000
00000100
00000000
00000000
00001000
00000000
00000000
00000100
00000000
00000000
00000010
00000000
00000000
00001000
00000000
00000000
00000100
00000000
00000000
00010000
00000000
00001000
00000000
00010000
00000000
00001000
00000000
00010000
00000000
00001000
00000000
00010000
00000000
00000000
00000100
00000000
00000000
00000010
00000000
00000000
00000001
00000000
00000000
,
00001000
00000000
00000001
00000100
00000010
00000100
00000001
00000010
00000100
00010000
00002000
00000000
00103000
00000000
00020000
00000000
,
01030000
00000000
10010000
00000000
00100000
00000000
10010000
00000000
00010000
00100000
01000000
10000000
01000000
00100000
00010000
00000000
,
10000000
00100000
00010000
00000000
00120000
00000000
00031000
00000000
00010000
00001000
00000010
00000000
00000012
00000000
00000103
00000000
,
00000001
00000100
00001000
00000000
00001200
00000000
00000310
00000000
00001000
00000100
00000020
00000000
00000031
00000010
00000200
00000000
,
00010300
00001000
00000100
00000000
00002100
00000000
00013000
00000000
00001000
00010000
01000000
00000000
01020000
00000000
00031000
00000000
,
00010000
00100000
10000000
00000000
20100000
00000000
30010000
00000000
10000000
01000000
00100000
00010000
00001000
00000100
00000010
00000001
,
00000100
00000000
00000100
00000000
00000010
00000000
00000010
00000000
00001000
00000001
00001000
00003000
00000100
00000000
00000010
00000000
,
00000001
00000100
00001000
00010000
00100000
10000000
01000000
00100000
,
00010000
00100000
01000000
10000000
00100000
01000000
00100000
01000000
00010000
00100000
00001000
00010000
00000010
00000100
00000010
00000100
,
00000001
00000001
00000010
00000010
00000100
00000100
00001000
00001000
00010000
00010000
00100000
00100000
01000000
01000000
10000000
10000000
,
00200000
00000000
00000000
00000000
01300000
00000000
00010000
00000000
00100000
00000000
00001000
00000000
00011000
00000000
00000000
00010000
,
00000020
00000000
00000000
00000000
00000130
00000000
00000001
00000000
00000010
00000100
00000000
00000100
00010000
00001000
00010000
00001000
,
00010000
00100000
01000000
00100000
20000000
00000000
00000000
30100000
02000000
00000000
00000000
03310000
10000000
01000000
00100000
00010000
,
01000000
00001000
00010000
00000100
00002000
00000000
00000000
00003010
00003100
00000001
00000010
00000100
00020000
00000000
00000000
00000000
,
00031000
00000100
00000010
00000100
00000002
00000000
00000000
00000103
00000020
00000000
00000000
00001330
00000001
00000010
00000100
00001000
,
00000010
00010000
00001000
00100000
00020000
00000000
00000000
01030000
00130000
10000000
01000000
00100000
00002000
00000000
00000000
00000000
,
00013000
00000000
00000010
00000000
00000100
00000000
00000100
00000000
00000001
00000010
00000100
00001000
00010000
00100000
01000000
10000000
,
00100000
00000000
00000000
01000000
00000000
00000000
00100000
00000000
00000000
00010000
00000000
00000000
00100000
00000000
00000000
01000000
00000000
00000000
00010000
00000000
00000000
00100000
00000000
00000000
00001000
00000000
00010000
00000000
00001000
00000000
00010000
00000000
00001000
00000000
00010000
00000000
00001000
00000000
00000000
01000000
00000000
00000000
00100000
00000000
00000000
10000000
00000000
00000000
,
00010000
00000000
10000000
01000000
00010000
01000000
10000000
00100000
01000000
00010000
00200000
00000000
00301000
00000000
00020000
00000000
,
00030100
00000000
00000000
00000000
00000000
00000000
00001001
00000000
00000000
00000000
00000000
00000000
00000010
00000000
00000000
00000000
00000000
00000000
00001001
00000000
00000000
00000000
00000000
00000000
00000001
00000000
00000000
00000010
00000000
00000000
00000100
00000000
00000000
00001000
00000000
00000000
00000010
00000000
00000100
00000000
00000010
00000000
00000100
00000000
00000000
00002000
00000000
00000000
,
00020000
00033000
00000000
00000000
;

//---------------dance-double - ----------------
#NOTES:
     dance-double:
     :
     Hard:
     12:
     0.523313,0.586009,0.172505,0.243536,0.471851,361.000000,344.000000,17.000000,24.000000,0.000000,0.000000,0.523313,0.586009,0.172505,0.243536,0.471851,361.000000,344.000000,17.000000,24.000000,0.000000,0.000000:
00000000
00000000
00000000
00000000
,
00000000
00000000
00000000
00000000
,
00000000
00000000
00000000
00000000
,
00000000
00000000
00000000
00000000
,
00002000
00000000
00000000
00103000
00000000
00000000
00202000
00000000
00000000
00000000
00000000
00000000
00000000
00000000
00000000
00000000
,
00303000
00000000
00000000
00000000
00000000
00000000
00000000
00000000
00002000
00000000
00000000
00023000
00000000
00000000
00030020
00000000
,
00000230
00000010
00000000
00000310
,
00000100
00000000
00000000
00000000
00001001
00000000
00000000
00001001
00000000
00000000
00000001
00000000
00000101
00000000
00000000
00000000
,
00001000
00000100
00001000
00000000
00000100
00000000
00000010
00000000
00000001
00000100
00000001
00000000
00000100
00000000
00000010
00000000
,
00010000
00001000
00010000
00000000
00001000
00000000
00100000
00000000
00010000
01000000
00010000
00000000
01000000
00000000
00100000
00000000
,
10000000
01000000
00100000
00000000
00010000
00100000
01000000
00000000
00100000
00000000
00001000
00000000
00010000
00000000
00000010
00000000
,
00001000
00000100
00000010
00000000
00000001
00000010
00000100
00000000
00001000
00000000
00000010
00000000
00000001
00000000
00000010
00000000
,
00001000
00000100
00001000
00000000
00000100
00010000
00000100
00000000
00010000
00001000
00010000
00000000
00001000
01000000
00001000
01000000
,
00020000
00000000
00130000
00100000
00010000
10000000
11000000
00000000
,
20000000
00000000
00000000
00000000
30010000
00000000
00010000
00000000
01000000
00000000
00100000
00000000
10000000
00010000
10000000
00000000
,
00010000
00100000
01000000
00100000
00002000
00000000
00000000
00000000
00013000
00000000
00000020
00000000
00000130
00000001
00001000
00000000
,
00000001
00000010
00000100
00001000
00000010
00000000
00000000
00000010
00001030
00000100
00000010
00000001
00000200
00000000
00003310
00000000
,
00001000
00000100
00000010
00000100
00020000
00000000
00000000
00000000
00031000
00000000
02000000
00000000
03100000
10000000
00010000
00000000
,
10000000
01000000
00100000
00010000
01000000
00000000
00000000
01000000
03010000
00100000
01000000
10000000
00200000
00000000
00000000
00000000
,
10333000
00000000
13000000
30000000
00010000
00000000
00010000
00000000
10000000
00100000
01000000
00010000
00100000
00001000
00100000
00001000
,
00010000
00000000
00000010
00000000
00000100
00000000
00000001
00000000
00001000
00000100
00000010
00000001
00000010
00000100
00001000
00000001
,
00000100
00000000
00000010
00001000
00000010
00000100
00000010
00001000
00000100
00010000
00000100
00000000
00010000
00000000
00001000
00000000
,
00100000
00000000
00110000
00000000
00001000
00000000
00011000
00000000
00010000
00100000
10000000
00000000
00010000
00000000
00000000
00000000
,
10000000
01000000
00100000
00000000
00110000
00000000
00000000
00000000
00010000
01000000
00001000
00000000
00011000
00000000
00000000
00000000
,
00010000
00000100
00001000
00000000
00001100
00000000
00000000
00000000
00000001
00000100
00000010
00000000
00001000
00000100
00000010
00000000
,
00000001
00001000
00000100
00000000
00010100
00000000
00000000
00000000
00010000
00001000
01000000
00000000
01010000
00000000
00000000
00000000
,
00010000
10000000
01000000
00000000
11000000
00000000
00100000
00000000
00002000
00000000
00000000
00000000
00023000
00000000
00000000
00000000
,
00030010
00000000
00000100
00000000
00001000
00000000
00000100
00000000
00000010
00001000
00000001
00000000
00000010
00000000
00000100
00000000
,
00000001
00000001
00000100
00000100
00010000
00001000
01000000
00100000
,
10000000
01000000
10000000
00000000
01000000
00000000
00100000
00000000
00010000
01000000
00010000
00000000
00100000
00000000
00001000
00000000
,
00010000
00001000
00010000
00000000
00000010
00001000
00000010
00000000
00001000
00000001
00001000
00000000
00000001
00000010
00000100
00001000
,
00000020
00000000
00003130
00000001
00001000
00000001
00000011
00000000
,
00000002
00000000
00000000
00000000
00001003
00000000
00001000
00000000
00000010
00000000
00000100
00000000
00000001
00001000
00000001
00000000
,
00001000
00000100
00000010
00000100
00010000
00000000
00000000
00010000
00031000
00000000
02000000
00000000
03100000
10000000
00010000
00000000
,
10000000
01000000
00100000
00010000
01000000
00000000
00000000
01000000
03010000
00100000
01000000
10000000
00200000
00000000
01330000
00000000
,
00010000
00100000
01000000
00100000
00001000
00000000
00000000
00001000
00013000
00000000
00000020
00000000
00000130
00000001
00001000
00000000
,
00000001
00000010
00000100
00001000
00000010
00000000
00000000
00000010
00001030
00000100
00000010
00000001
00000200
00000000
00000000
00000000
,
00033301
00000000
00000010
00000000
00001000
00000000
00010000
00000000
00001000
00100000
00001000
00100000
00010000
00100000
00010000
00000000
,
10000000
00100000
01000000
00000000
00010000
00000000
00100000
00000000
00001000
00010000
00001000
00010000
00000010
00000000
00000100
00000000
,
00000110
00000000
00000100
00000000
00000001
00000000
00001000
00000000
00000100
00000010
00000001
00000000
00001000
00000000
00000001
00000000
,
00000100
00000000
00000101
00000000
00001000
00000000
00001100
00000000
00000001
00000010
00000100
00001000
00010000
00100000
01000000
10000000
,
00200000
00300000
00000000
00000000
;

//---------------dance-double - ----------------
#NOTES:
     dance-double:
     :
     Medium:
     8:
     0.350808,0.397649,0.060884,0.253684,0.162357,242.000000,236.000000,6.000000,25.000000,0.000000,0.000000,0.350808,0.397649,0.060884,0.253684,0.162357,242.000000,236.000000,6.000000,25.000000,0.000000,0.000000:
// measure 0
00000000
00000000
00000000
00000000
,  // measure 1
00000000
00000000
00000000
00000000
,  // measure 2
00000000
00000000
00000000
00000000
,  // measure 3
00000000
00000000
00000000
00000000
,  // measure 4
00010000
00000000
00000000
00001000
00000000
00000000
00020000
00000000
00000000
00000000
00000000
00000000
00000000
00000000
00000000
00000000
,  // measure 5
00030000
00000000
00000000
00000000
00000000
00000000
00000000
00000000
00002000
00000000
00000000
00203000
00000000
00000000
01300000
00000000
,  // measure 6
20000000
00010000
00000000
30010000
,  // measure 7
01000000
00000000
00100000
00000000
10000000
00010000
10000000
00000000
,  // measure 8
00010000
00100000
00010000
00100000
00001000
00010000
00001000
00010000
,  // measure 9
00000010
00001000
00000010
00001000
00000100
00010000
00000100
00010000
,  // measure 10
00001000
01000000
00001000
01000000
00010000
00100000
00010000
00100000
,  // measure 11
00001000
00010000
00001000
00010000
00000010
00000100
00000010
00000100
,  // measure 12
00000001
00001000
00000001
00001000
00000100
00010000
00000100
00010000
,  // measure 13
00002000
00100000
00000000
00100000
,  // measure 14
00023000
00000010
00000000
00030010
,  // measure 15
00010000
00001000
00010000
00001000
00010000
00000000
00000000
00000000
00002000
00000000
00000000
00000000
00203000
00000000
00000000
00000000
,  // measure 16
00310000
01000000
00010000
01000000
00010000
00000000
00000000
00000000
10000000
00100000
10000000
00100000
10000000
00000000
00000000
00000000
,  // measure 17
00010000
00100000
00010000
00100000
00010000
00000000
00000000
00000000
00200000
00000000
00000000
00000000
00302000
00000000
00000000
00000000
,  // measure 18
00013000
00000100
00010000
00000100
00010000
00000000
00000000
00000000
00000100
00000010
00000100
00000010
00000100
00000000
00000000
00000000
,  // measure 19
00000010
00000010
00000001
00000001
00000100
00000010
00001000
00000100
,  // measure 20
00010000
00010000
00001000
00001000
00100000
00010000
01000000
00100000
,  // measure 21
10000000
00000000
00010000
00000000
10000000
01000000
00100000
00001000
,  // measure 22
00000000
00101000
00000000
00011000
00020000
00000000
00030010
00000000
,  // measure 23
00001000
00000010
00001000
00000000
00000000
00000000
00000000
00000000
00000001
00000100
00000001
00000000
00000000
00000000
00000000
00000000
,  // measure 24
00001000
00000001
00001000
00000000
00000000
00000000
00000000
00000000
00000100
00000000
00010000
00000000
00001000
00000000
00100000
00000000
,  // measure 25
00010000
01000000
00010000
00000000
00000000
00000000
00000000
00000000
10000000
00100000
10000000
00000000
00000000
00000000
00000000
00000000
,  // measure 26
00010000
10000000
00010000
00000000
00000000
00000000
00000000
00000000
20000000
00000000
00000000
00000000
32000000
00000000
00000000
00000000
,  // measure 27
03200000
00010000
00001000
00310000
,  // measure 28
00100000
00001000
00100000
00001000
00010000
00000100
00010000
00000000
,  // measure 29
00000100
00000100
00000010
00000010
00000001
00000001
00000100
00000100
,  // measure 30
00000010
00000010
00001000
00001000
00000100
00010000
00001000
00100000
,  // measure 31
00220000
00000000
00000000
00330000
,  // measure 32
00020000
10000000
01000000
10030000
,  // measure 33
00010000
00100000
00010000
00100000
00010000
00000000
00000000
00000000
00200000
00000000
00000000
00000000
00302000
00000000
00000000
00000000
,  // measure 34
00013000
00000100
00010000
00000100
00010000
00000000
00000000
00000000
00000100
00000010
00000100
00000010
00000100
00000000
00000000
00000000
,  // measure 35
00000010
00000001
00000010
00000001
00000010
00000000
00000000
00000000
00000002
00000000
00000000
00000000
00002003
00000000
00000000
00000000
,  // measure 36
00003010
00010000
00000010
00010000
00000010
00000000
00000000
00000000
00010000
00001000
00010000
00001000
00020000
00000000
00000000
00000000
,  // measure 37
00031000
00001000
00100000
00100000
00010000
00100000
01000000
00000000
,  // measure 38
10000000
00000000
00010000
00000000
10000000
00100000
01000000
00010000
,  // measure 39
00200000
00000000
00301000
00000000
00100000
00001000
00010000
00000100
,  // measure 40
00000000
00001100
00000000
00011000
00001000
00100000
00010000
01000000
,  // measure 41
20020000
30030000
00000000
00000000
;

//---------------dance-double - ----------------
#NOTES:
     dance-double:
     :
     Easy:
     4:
     0.188451,0.230218,0.060884,0.142063,0.000000,130.000000,124.000000,6.000000,14.000000,0.000000,0.000000,0.188451,0.230218,0.060884,0.142063,0.000000,130.000000,124.000000,6.000000,14.000000,0.000000,0.000000:
// measure 0
00000000
00000000
00000000
00000000
,  // measure 1
00000000
00000000
00000000
00000000
,  // measure 2
00000000
00000000
00000000
00000000
,  // measure 3
00000000
00000000
00000000
00000000
,  // measure 4
00010000
00000000
00000000
00002000
00000000
00000000
00000000
00000000
,  // measure 5
00003000
00000000
00020000
00000000
,  // measure 6
00030100
00000010
00000000
00000010
,  // measure 7
00000000
00000100
00000100
00000000
,  // measure 8
00001001
00000001
00000100
00000010
,  // measure 9
00001000
00000100
00010000
00010000
,  // measure 10
00001000
00001000
00100000
00010000
,  // measure 11
01000000
01000000
00100000
10000000
,  // measure 12
00010000
00010000
00100000
00100000
,  // measure 13
00002000
00000000
00003000
00001000
,  // measure 14
00020000
00000000
00030000
00010000
,  // measure 15
00000100
00000100
00000010
00000001
,  // measure 16
00001000
00001000
00000001
00000000
,  // measure 17
00000001
00000100
00000010
00000010
,  // measure 18
00001000
00001000
00000100
00000000
,  // measure 19
00020000
00030000
00001000
00100000
,  // measure 20
00010000
01000000
00100000
00100000
,  // measure 21
10010000
00000000
10000000
00100000
,  // measure 22
01000000
01000000
00002000
00003000
,  // measure 23
00010000
00010000
00000000
00000000
00001000
00001000
00000000
00000000
,  // measure 24
00010000
00010000
00000000
00000000
00000100
00000000
00000100
00000000
,  // measure 25
00010000
00010000
00000000
00000000
00001000
00001000
00000000
00000000
,  // measure 26
00010000
00010000
00000000
00000000
00001000
00000000
00100000
00000000
,  // measure 27
20020000
00000000
00000000
30030000
,  // measure 28
10000000
00010000
01000000
01000000
,  // measure 29
00001000
00010000
00000100
00000010
,  // measure 30
00000001
00000100
00000010
00001000
,  // measure 31
00002002
00000000
00000000
00003003
,  // measure 32
00000002
00000003
00000010
00000100
,  // measure 33
00001000
00001000
00000000
00000000
00000100
00000000
00000100
00000000
,  // measure 34
00010000
00010000
00001000
00001000
,  // measure 35
00100000
00100000
00000000
00000000
00010000
00000000
00010000
00000000
,  // measure 36
01000000
01000000
00001000
00001000
,  // measure 37
00020000
00030000
00010000
00000100
,  // measure 38
00000010
00000001
00000100
00000100
,  // measure 39
00001001
00000000
00000001
00001000
,  // measure 40
00000100
00000100
00000000
00000100
00000100
00000000
00010000
00000000
,  // measure 41
00022000
00033000
00000000
00000000
;
