#TITLE:take a walk;
#SUBTITLE:;
#ARTIST:PASSION PIT;
#TITLETRANSLIT:;
#SUBTITLETRANSLIT:;
#ARTISTTRANSLIT:;
#CREDIT:;
#BANNER:Take A Walk-bn.png;
#BACKGROUND:Take A Walk-bg.png;
#LYRICSPATH:;
#CDTITLE:;
#MUSIC:Take A Walk.mp3;
#OFFSET:-0.060;
#SAMPLESTART:66.588;
#SAMPLELENGTH:16.160;
#SELECTABLE:YES;
#BPMS:0.000=101.000;
#STOPS:;
#BGCHANGES:0.000=Take A Walk.avi=1.000=1=1=0,
99999=-nosongbg-=1.000=0=0=0 // don't automatically add -songbackground-
;

//---------------dance-single - ----------------
#NOTES:
     dance-single:
     :
     Beginner:
     1:
     0.089,0.129,0.017,0.000,0.000: // measure 1
0000
0000
0000
0000
,  // measure 2
0000
0000
0000
0000
,  // measure 3
0000
0000
0000
0000
,  // measure 4
0000
0000
0000
0000
,  // measure 5
0100
0000
0000
0000
,  // measure 6
0010
0000
0010
0000
,  // measure 7
1000
0000
0000
0000
,  // measure 8
0001
0000
0001
0000
,  // measure 9
0100
0000
0000
0000
,  // measure 10
0001
0000
0000
0000
,  // measure 11
1000
0000
0000
0000
,  // measure 12
0010
0000
0000
0000
,  // measure 13
1000
0000
0000
0000
,  // measure 14
0100
0000
0000
0000
,  // measure 15
0010
0000
0000
0000
,  // measure 16
0001
0000
0000
0000
,  // measure 17
0100
0000
0100
0000
,  // measure 18
0001
0000
0001
0000
,  // measure 19
1000
0000
1000
0000
,  // measure 20
0010
0000
0010
0000
,  // measure 21
1000
0000
1000
0000
,  // measure 22
0001
0000
0001
0000
,  // measure 23
0100
0000
0100
0000
,  // measure 24
0001
0000
0001
0000
,  // measure 25
1000
0000
0000
0100
,  // measure 26
0100
0000
0000
1000
,  // measure 27
1000
0000
0000
0010
,  // measure 28
0010
0000
0000
0110
,  // measure 29
0110
0000
0100
0000
,  // measure 30
0100
0000
0100
0000
,  // measure 31
0001
0000
0001
0000
,  // measure 32
0001
0000
0001
0000
,  // measure 33
1000
0000
1000
0000
,  // measure 34
1000
0000
1000
0000
,  // measure 35
0010
0000
0010
0000
,  // measure 36
0010
0000
0010
0000
,  // measure 37
0100
0000
0001
0000
,  // measure 38
1000
0000
0100
0000
,  // measure 39
1000
0000
0001
0000
,  // measure 40
1000
0000
0010
0000
,  // measure 41
0100
0000
0010
0000
,  // measure 42
1000
0000
0100
0000
,  // measure 43
0010
0000
0001
0000
,  // measure 44
0100
0100
0100
0100
;

//---------------dance-single - ----------------
#NOTES:
     dance-single:
     :
     Medium:
     6:
     0.313,0.338,0.430,0.219,0.000: // measure 1
0000
0000
0000
0000
,  // measure 2
0000
0000
0000
0000
,  // measure 3
0000
0000
0000
0000
,  // measure 4
0000
0000
0000
0000
,  // measure 5
1010
1001
0100
0101
,  // measure 6
0011
1001
0100
1100
,  // measure 7
1001
0110
1000
1010
,  // measure 8
1001
0101
0010
0110
,  // measure 9
2001
3100
0002
0103
,  // measure 10
2000
3010
0200
0310
,  // measure 11
0002
0013
2000
3100
,  // measure 12
2000
3001
0020
0031
,  // measure 13
2010
3100
1002
1003
,  // measure 14
0012
1003
2100
3010
,  // measure 15
0210
0301
0120
0031
,  // measure 16
2100
0000
0000
0000
3010
0000
0000
0000
1002
0000
0000
0003
0100
0000
0000
0000
,  // measure 17
0010
1000
0010
0000
1000
0100
1100
0000
,  // measure 18
0010
0100
0010
0000
0100
0001
0101
0000
,  // measure 19
0010
0001
0010
0000
0001
1000
1001
0000
,  // measure 20
0100
1000
0100
0000
1000
0010
1010
0000
,  // measure 21
0100
0001
1000
0000
0010
0100
0110
0000
,  // measure 22
0001
0010
0100
0000
1000
0100
1100
0000
,  // measure 23
0010
1000
0001
0000
0100
0001
0101
0000
,  // measure 24
0010
0100
0001
0000
1000
0001
1001
0000
,  // measure 25
0200
0000
1000
0010
,  // measure 26
0302
0000
1000
1000
,  // measure 27
0203
0000
0010
0001
,  // measure 28
2300
0000
3010
1001
,  // measure 29
0101
0000
0000
1000
1100
0000
0000
0010
,  // measure 30
0110
0000
0000
0001
0101
0000
1001
0000
,  // measure 31
1100
0000
0000
0010
0110
0000
0001
1000
,  // measure 32
0200
0000
0310
0101
,  // measure 33
1001
0000
0000
0010
1010
0000
0000
1000
,  // measure 34
1100
0000
0000
0001
0101
0000
1010
0000
,  // measure 35
1001
0000
0000
1000
1100
0000
0010
0001
,  // measure 36
0200
0320
2030
3001
,  // measure 37
1001
0000
0100
0010
1000
0000
0100
0010
,  // measure 38
1000
0000
0100
0010
1000
0000
0000
0000
,  // measure 39
1001
0000
0100
0001
0010
0000
0100
0001
,  // measure 40
0010
0000
0100
0001
0010
0000
0000
0000
,  // measure 41
0011
0000
0100
1000
0001
0000
0100
1000
,  // measure 42
0001
0000
0100
1000
0001
0000
0000
0000
,  // measure 43
0110
0000
0001
0010
1000
0000
0001
0010
,  // measure 44
1000
0000
0001
0010
1000
0000
0110
0000
,  // measure 45
2002
0000
3003
0000
;

//---------------dance-single - ----------------
#NOTES:
     dance-single:
     :
     Hard:
     10:
     0.370,0.375,0.084,0.160,0.232: // measure 1
0000
0000
0000
0000
,  // measure 2
0000
0000
0000
0000
,  // measure 3
0000
0000
0000
0000
,  // measure 4
0000
0000
0000
0000
,  // measure 5
0100
0000
0001
0000
0100
0000
0010
0000
1000
0000
0100
1000
0000
0000
0000
0000
,  // measure 6
0010
0000
1000
0000
0100
0000
1000
0000
0001
0000
0100
0001
0000
0000
0000
0000
,  // measure 7
0010
0000
0001
0000
0010
0000
0100
0000
1000
0000
0010
1000
0000
0000
0000
0000
,  // measure 8
0100
0000
1000
0000
0010
0000
0100
0000
0001
0000
1000
0100
0000
0000
0000
0000
,  // measure 9
2000
0000
0100
0000
0100
0100
3100
0000
,  // measure 10
0002
0000
1000
0000
1000
1000
1003
0000
,  // measure 11
0020
0000
0001
0000
0001
0001
0031
0000
,  // measure 12
0200
0000
0010
0000
0010
0010
0310
0000
,  // measure 13
0001
0100
1000
0000
1000
0010
0100
0000
,  // measure 14
0010
1000
0100
0000
1000
0100
0001
0000
,  // measure 15
0010
0100
0010
0000
0001
1000
0001
0000
,  // measure 16
2001
0000
0000
0000
0100
0100
3100
0000
,  // measure 17
1000
0010
0000
0100
0000
0010
0000
1000
0000
0001
0000
0000
1000
0001
0000
0000
,  // measure 18
0100
0010
0000
1000
0000
0100
0000
1000
0000
0001
0000
0100
0000
0001
0000
0000
,  // measure 19
1000
0100
1000
0000
0010
0100
0000
0100
0000
0000
0001
0100
0000
0010
0000
1000
,  // measure 20
0100
0000
0100
0000
1000
0100
0001
0000
,  // measure 21
0010
0001
0000
1000
0000
0100
0000
1000
0000
0010
0000
0000
0100
0001
0000
0000
,  // measure 22
1000
0100
0000
1000
0000
0010
0000
0100
0000
0001
0000
0000
0100
0010
0000
1000
,  // measure 23
0000
0100
0000
1000
0000
0010
0000
1000
0000
0001
0000
0010
0000
0000
0101
0000
,  // measure 24
0000
1010
0000
0000
0000
0000
0000
0000
0100
0000
0100
0000
0100
0000
0000
0000
,  // measure 25
0011
0001
0100
0010
1000
0100
1000
0001
,  // measure 26
0010
1000
0010
0100
1000
0100
0010
0001
,  // measure 27
1001
0100
0010
1000
0100
1000
0010
0100
,  // measure 28
0001
0010
1000
0010
0100
2000
0100
3100
,  // measure 29
1001
0000
0100
1000
0020
0000
0130
0001
,  // measure 30
0020
0000
0130
1000
0020
0000
1030
0001
,  // measure 31
1001
0000
0010
0001
0200
0000
0310
1000
,  // measure 32
0200
0000
1300
0001
0200
0000
0301
1000
,  // measure 33
1100
0000
0010
1000
0002
0000
0013
0100
,  // measure 34
0002
0000
1003
0010
0002
0000
0013
0001
,  // measure 35
0101
0000
0010
0100
2000
0000
3010
0100
,  // measure 36
2000
0000
3100
0001
2000
0000
3100
0010
,  // measure 37
0110
0000
0001
0000
1000
0000
0100
0000
1000
0000
0010
0100
0000
0000
0001
0000
,  // measure 38
0100
0000
0010
0000
0100
0000
0001
0000
1000
0000
0100
1000
0000
0000
0010
0000
,  // measure 39
1000
0000
0001
0000
0010
0000
1000
0000
0010
0000
0100
1000
0000
0000
0010
0000
,  // measure 40
1000
0000
0001
0000
1000
0000
0010
0000
0100
0000
0001
0100
0000
0000
0010
0000
,  // measure 41
1000
0100
1000
0000
0010
0000
0100
0000
0001
0000
0010
0100
0000
0000
0010
0000
,  // measure 42
0001
0100
0001
0000
0010
0000
0100
0000
1000
0000
0001
0100
0000
0000
1000
0000
,  // measure 43
0100
0001
0100
0000
0010
0000
1000
0000
0100
0000
0010
0100
0000
0000
1000
0000
,  // measure 44
0001
0100
0001
0000
0010
0000
0100
0000
1000
0000
0001
0100
0000
0000
0010
0000
,  // measure 45
2000
0000
3000
0000
;

//---------------dance-single - ----------------
#NOTES:
     dance-single:
     :
     Easy:
     3:
     0.195,0.203,0.101,0.160,0.000: // measure 1
0000
0000
0000
0000
,  // measure 2
0000
0000
0000
0000
,  // measure 3
0000
0000
0000
0000
,  // measure 4
0000
0000
0000
0000
,  // measure 5
1000
0100
0010
0100
,  // measure 6
1000
0001
0010
0001
,  // measure 7
0100
0010
0100
0001
,  // measure 8
0010
0100
1000
0001
,  // measure 9
0200
0000
0310
1000
,  // measure 10
0002
0000
0013
0001
,  // measure 11
2000
0000
3100
1000
,  // measure 12
0020
0000
0030
0000
,  // measure 13
0200
0000
0301
0010
,  // measure 14
0200
0000
0310
0001
,  // measure 15
2000
0000
3100
1000
,  // measure 16
0020
0000
0030
0000
,  // measure 17
1000
1000
0100
1100
,  // measure 18
0010
0010
0100
0110
,  // measure 19
0001
0001
1000
1001
,  // measure 20
0010
0010
0001
0011
,  // measure 21
0100
0100
1000
1100
,  // measure 22
0010
0010
0100
0110
,  // measure 23
0001
0001
0100
0101
,  // measure 24
1000
1000
0010
1010
,  // measure 25
0200
0000
2300
0000
,  // measure 26
3020
0000
2030
0000
,  // measure 27
3200
0000
0320
0000
,  // measure 28
0032
0000
0100
0103
,  // measure 29
1001
0000
0100
0100
,  // measure 30
1000
1000
0010
0000
,  // measure 31
1000
0000
0001
1000
,  // measure 32
0200
0000
0300
0000
,  // measure 33
1001
0000
0010
0010
,  // measure 34
0001
0001
0100
0000
,  // measure 35
0001
0000
1000
0001
,  // measure 36
0020
0032
0203
0300
,  // measure 37
1001
0001
1000
0001
,  // measure 38
1000
0001
1000
1000
,  // measure 39
0001
1000
0001
1000
,  // measure 40
0001
1000
0001
0001
,  // measure 41
0110
0100
0010
0100
,  // measure 42
0010
0100
0010
0010
,  // measure 43
0100
0010
0100
0010
,  // measure 44
0100
0010
0100
0100
;
