#TITLE:kyoto EVOLVED;
#SUBTITLE:;
#ARTIST:xRGTMx underground;
#TITLETRANSLIT:;
#SUBTITLETRANSLIT:;
#ARTISTTRANSLIT:;
#CREDIT:;
#BANNER:kyoto EVOLVED (ver.C)-bn.png;
#BACKGROUND:kyoto EVOLVED (ver.C)-bg.png;
#LYRICSPATH:;
#CDTITLE:;
#MUSIC:kyoto EVOLVED (ver.C).mp3;
#OFFSET:-0.030;
#SAMPLESTART:1.980;
#SAMPLELENGTH:16.860;
#SELECTABLE:YES;
#DISPLAYBPM:61.000:488.000;
#BPMS:0.000=122.000,146.000=61.000,150.000=976.000,214.000=244.000,342.000=61.000,345.000=488.000,353.000=122.000;
#STOPS:18.000=0.200
,18.333=0.200
,18.667=0.080
,33.000=0.500
;
#BGCHANGES:;

//---------------dance-single - ----------------
#NOTES:
     dance-single:
     :
     Beginner:
     6:
     0.243,0.332,0.017,0.058,0.000: // measure 1
0000
0000
0000
0000
,  // measure 2
0100
0001
1000
0010
,  // measure 3
0100
0000
0000
0000
,  // measure 4
0010
1000
0001
1000
,  // measure 5
0100
0000
0020
0130
,  // measure 6
0010
0001
1000
0010
,  // measure 7
0000
0000
0000
1000
,  // measure 8
0100
0010
0001
0100
,  // measure 9
0000
0010
1000
0100
,  // measure 10
1000
0010
0100
0000
,  // measure 11
0010
0000
1000
0100
,  // measure 12
1000
0001
0010
0000
,  // measure 13
0001
0000
0100
0010
,  // measure 14
1000
0001
1000
0000
,  // measure 15
0100
0000
1000
0001
,  // measure 16
0010
0001
0100
0010
,  // measure 17
0010
0010
1000
0000
,  // measure 18
0010
0000
1000
0000
,  // measure 19
0100
0000
0010
0000
,  // measure 20
0001
0000
1000
0000
,  // measure 21
0001
0000
0100
0100
,  // measure 22
0000
0010
1000
1000
,  // measure 23
0000
0100
0010
0010
,  // measure 24
0000
0010
0001
0001
,  // measure 25
0000
1000
0010
0010
,  // measure 26
0000
0100
0010
0010
,  // measure 27
0000
1000
0100
0100
,  // measure 28
0000
0001
1000
1000
,  // measure 29
0000
0010
0001
0001
,  // measure 30
0000
0100
0010
0010
,  // measure 31
0000
1000
0010
0010
,  // measure 32
0000
1000
0001
0001
,  // measure 33
0000
0010
0100
0100
,  // measure 34
0010
0001
1000
1000
,  // measure 35
0100
0000
1000
1000
,  // measure 36
0010
0100
0010
0010
,  // measure 37
1000
0100
2000
0100
,  // measure 38
0010
3001
2002
0000
,  // measure 39
0000
0000
0000
0000
,  // measure 40
0000
0000
0000
0000
,  // measure 41
0000
0000
0000
0000
,  // measure 42
0000
0000
0000
0000
,  // measure 43
0000
0000
0000
0000
,  // measure 44
0000
0000
0000
0000
,  // measure 45
0000
0000
0000
0000
,  // measure 46
0000
0000
0000
0000
,  // measure 47
0000
0000
0000
0000
,  // measure 48
0000
0000
0000
0000
,  // measure 49
0000
0000
0000
0000
,  // measure 50
0000
0000
0000
0000
,  // measure 51
0000
0000
0000
0000
,  // measure 52
0000
0000
0000
0000
,  // measure 53
0000
0000
0000
3003
,  // measure 54
0000
0000
0010
0000
,  // measure 55
0010
0000
1000
0000
,  // measure 56
1000
0000
0100
0000
,  // measure 57
0100
0000
1000
0000
,  // measure 58
1000
0000
0001
0000
,  // measure 59
0001
0000
0010
0000
,  // measure 60
0010
0000
0001
0000
,  // measure 61
0001
0000
0100
0000
,  // measure 62
0100
0000
0010
0000
,  // measure 63
1000
0000
0100
0000
,  // measure 64
1000
0000
0001
0000
,  // measure 65
0010
0000
0001
0000
,  // measure 66
0100
0000
0010
0000
,  // measure 67
0100
0000
0001
0000
,  // measure 68
0010
0000
0100
0000
,  // measure 69
1000
0000
0010
0010
,  // measure 70
1000
1000
0100
0000
,  // measure 71
1000
0000
0010
0000
,  // measure 72
1000
0000
0001
0000
,  // measure 73
0010
0000
0001
0001
,  // measure 74
0100
0100
0010
0000
,  // measure 75
0100
0000
0001
0000
,  // measure 76
0010
0000
0100
0000
,  // measure 77
0010
0000
0001
0001
,  // measure 78
1000
1000
0100
0000
,  // measure 79
1000
1000
0100
0000
,  // measure 80
0010
0010
0001
0000
,  // measure 81
0100
0100
0010
0000
,  // measure 82
1000
1000
0001
0000
,  // measure 83
0010
0010
0100
0000
,  // measure 84
0010
0010
0001
0000
,  // measure 85
1000
1000
0100
1000
,  // measure 86
0010
0100
0002
0000
,  // measure 87
0000
1003
0000
0000
,  // measure 88
0000
0100
0000
0000
,  // measure 89
0000
2002
3003
0000
;

//---------------dance-single - ----------------
#NOTES:
     dance-single:
     :
     Medium:
     12:
     0.533,0.700,0.466,0.050,0.375: // measure 1
0000
0000
0000
0000
,  // measure 2
0100
0000
0001
0000
1000
0000
0000
1100
0000
0000
0010
0000
1000
0000
0000
0000
,  // measure 3
0100
0000
0000
0010
0000
0000
0001
0000
0000
1000
0000
0000
1001
0000
0000
0000
,  // measure 4
0100
0000
1000
0000
0010
0000
0000
0101
0000
0000
0010
0000
0100
0000
0000
0000
,  // measure 5
0001
0000
0000
0000
0000
0000
0000
0000
0000
0000
0000
0000
0000
0000
0000
0000
0000
0000
0000
0000
0000
0000
0000
0000
0010
0000
0000
0000
0000
0000
0000
0000
0000
0000
0000
0000
0000
0000
0000
0000
0000
0000
0000
0000
0000
0000
0000
0000
0100
0000
0000
0000
0000
0000
0000
0000
0000
0000
0000
0000
0000
0000
0000
0000
0000
0000
0000
0000
0000
0000
0000
0000
1000
0000
0000
0000
0000
0000
0000
0000
0000
0000
0000
0000
0000
0000
0000
0000
0000
0000
0000
0000
0000
0000
0000
0000
0001
0000
0000
0000
0000
0000
0000
0000
0000
0000
0000
0000
0000
0000
0000
1000
0000
0000
0000
0000
0000
0000
0000
0000
0000
0000
0000
0000
0000
0000
0000
0000
1001
0000
0000
0000
0000
0000
0000
0000
0000
0000
0000
0000
0000
0000
0000
0000
0100
0000
0000
0000
0000
0000
0000
0000
0000
0000
0000
0000
0000
0000
0000
0000
0000
0000
0000
0000
0000
0000
0000
0000
1000
0000
0000
0000
0000
0000
0000
0000
0000
0000
0000
0000
0000
0000
0000
0000
0000
0000
0000
0000
0000
0000
0000
0000
,  // measure 6
0010
0000
0000
0101
0000
0000
0010
0000
1000
0000
0000
0000
0101
0000
0000
0000
,  // measure 7
1010
0000
0000
0000
0100
0000
0010
0000
1000
0001
1000
0000
0010
0000
0000
1000
,  // measure 8
0000
0000
1000
0000
0000
0001
0000
0000
0001
0000
0000
0000
0100
0010
0100
0010
,  // measure 9
0100
0010
0100
0010
0100
0000
0000
0000
0001
0000
1000
0000
0100
0000
1000
0010
,  // measure 10
0000
0010
1000
0000
0100
0000
0000
0000
1000
0000
0100
0000
0010
0000
0001
0000
,  // measure 11
1000
0000
0001
0000
0100
0000
0000
0000
0010
0000
1000
0000
0100
0000
0010
0001
,  // measure 12
0000
0001
0010
0000
0100
0000
0000
0000
0010
0000
0001
0000
1000
0000
0100
0000
,  // measure 13
0010
0000
0001
0000
1000
0000
0000
0000
0010
0000
1000
0000
0001
0000
0100
0010
,  // measure 14
0000
1000
0100
0000
0010
0000
0000
0000
0001
0000
0010
0000
0100
0000
1000
0000
,  // measure 15
0010
1000
0010
0000
0100
0000
0000
0000
1001
0000
0000
0100
0000
0000
1100
0000
,  // measure 16
0000
0010
0000
0000
0101
0000
0000
0000
0010
0000
0001
0000
1000
0000
0100
0000
,  // measure 17
0010
0001
1000
0001
2000
0000
0000
0000
3010
0000
0000
0000
0010
0000
0000
0000
,  // measure 18
0100
1001
0010
0010
,  // measure 19
0100
1001
0010
0010
,  // measure 20
0100
1001
0010
0010
,  // measure 21
0100
0000
0000
1001
0000
0000
0100
0000
1100
0000
0000
0000
,  // measure 22
0010
0000
0010
1000
0000
0000
0001
0000
0101
0000
0000
0000
,  // measure 23
0010
0000
0010
0001
0000
0000
1000
0000
1001
0000
0000
0000
,  // measure 24
0100
0000
0100
1000
0000
0000
0010
0000
0110
0000
0000
0000
,  // measure 25
1000
0000
1000
0010
0000
0000
0100
0000
1001
0000
0000
0000
,  // measure 26
0100
0000
1000
0010
0000
0000
1000
0000
1001
0000
0000
0000
,  // measure 27
0010
0000
0001
1000
0000
0000
0010
0000
0110
0000
0000
0000
,  // measure 28
1000
0000
0100
0010
0000
0000
0001
0000
0101
0000
0000
0000
,  // measure 29
0010
0000
0001
1000
0000
0000
0010
0000
0101
0000
0000
0000
,  // measure 30
0010
0000
0100
1000
0000
1000
0010
0000
1010
0000
0000
0000
,  // measure 31
0100
0000
0100
0001
0000
0001
1000
0000
1001
0000
0000
0000
,  // measure 32
0100
0000
0100
0001
0000
0001
1000
0000
1100
0000
0000
0000
,  // measure 33
0010
0000
1000
0100
0000
0100
0010
0000
0110
0000
0000
0000
,  // measure 34
0001
0000
0001
1000
0000
1000
0100
0000
1100
0000
0000
0000
,  // measure 35
0100
0000
0001
1000
0000
0100
0010
0000
0110
0000
0000
0000
,  // measure 36
0001
0000
0001
1000
0000
1000
0100
0000
1100
0000
0000
0000
,  // measure 37
0010
0000
0000
0000
0010
0000
1000
0000
0000
0000
1000
0000
0001
0000
0000
0001
0000
0000
1000
0000
0000
1000
0000
0000
,  // measure 38
0001
0001
1000
1000
0220
0000
0000
0000
,  // measure 39
0000
0000
0000
0000
,  // measure 40
0000
0000
0000
0000
,  // measure 41
0000
0000
0000
0000
,  // measure 42
0000
0000
0000
0000
,  // measure 43
0000
0000
0000
0000
,  // measure 44
0000
0000
0000
0000
,  // measure 45
0000
0000
0000
0000
,  // measure 46
0000
0000
0000
0000
,  // measure 47
0000
0000
0000
0000
,  // measure 48
0000
0000
0000
0000
,  // measure 49
0000
0000
0000
0000
,  // measure 50
0000
0000
0000
0000
,  // measure 51
0000
0000
0000
0000
,  // measure 52
0000
0000
0000
0000
,  // measure 53
0000
0000
0000
0330
,  // measure 54
0000
0000
1000
0100
,  // measure 55
0010
0001
1000
0100
,  // measure 56
1000
0000
0010
1000
0000
0001
0100
0000
0000
0010
0000
0000
,  // measure 57
1000
0100
1000
0001
,  // measure 58
0010
0000
0001
0010
0000
0100
1000
0000
0000
0010
0000
0000
,  // measure 59
1000
0001
0010
0100
,  // measure 60
1000
0000
0010
1000
0000
0001
0100
0000
0000
0010
0000
0000
,  // measure 61
1000
0001
0010
0100
,  // measure 62
0010
0000
0001
0010
0000
0100
1000
0000
0000
0010
0000
0000
,  // measure 63
1000
0001
0010
0100
,  // measure 64
1000
0000
0010
1000
0000
0001
0100
0000
0000
0010
0000
0000
,  // measure 65
1000
0001
0010
0100
,  // measure 66
0010
0000
0001
0010
0000
0100
1000
0000
0000
0010
0000
0000
,  // measure 67
1000
0001
0100
1000
,  // measure 68
0100
0000
0010
1000
0000
0100
0010
0000
0000
0001
0000
0000
,  // measure 69
1000
0100
0010
0001
,  // measure 70
0010
0000
0100
0010
0000
0001
1000
0000
0000
1100
0000
0000
,  // measure 71
0010
0101
0010
1100
,  // measure 72
0010
0000
0010
0100
0000
0000
0001
0000
0000
0101
0000
0000
,  // measure 73
0010
1100
0010
0101
,  // measure 74
0010
0000
0010
0100
0000
0000
1000
0000
0000
0101
0000
0000
,  // measure 75
0010
1010
0100
0110
,  // measure 76
1000
0000
1000
0100
0000
0000
0010
0000
0000
0011
0000
0000
,  // measure 77
1000
1100
0010
0110
,  // measure 78
1000
0000
1000
0001
0000
0000
0010
0000
0000
0011
0000
0000
,  // measure 79
1000
1100
0001
0101
,  // measure 80
1000
0000
0001
0100
0000
0000
0010
0000
0000
1010
0000
0000
,  // measure 81
0100
0101
0010
0110
,  // measure 82
0001
0000
0010
0100
0000
0000
1000
0000
0000
1100
0000
0000
,  // measure 83
0010
0110
1000
1001
,  // measure 84
0010
0000
0001
0100
0000
0000
0010
0000
0000
0101
0000
0000
,  // measure 85
0010
0110
1000
1001
,  // measure 86
0100
0000
1000
0010
0000
0100
0002
0000
0000
0000
0000
0000
,  // measure 87
0000
0003
0100
0000
0010
0000
1000
0000
,  // measure 88
0001
0100
0001
0010
,  // measure 89
0000
2002
3003
0000
;

//---------------dance-single - ----------------
#NOTES:
     dance-single:
     :
     Challenge:
     18:
     1.000,1.000,0.716,0.083,1.000:
0000
0000
0000
0000
,
1000
0000
0100
0000
1100
0000
0000
0001
0000
0100
0010
1000
0001
0100
0000
1000
,
0001
0000
0001
0100
0000
0100
1000
0000
1000
0001
0000
0001
0010
1000
0010
1000
,
0001
0000
0100
0000
0101
0000
0000
0010
0000
1000
0100
1000
0001
0010
0000
0001
,
1000
0000
0000
0000
0000
0000
0010
0000
0000
0000
0000
0000
1000
0000
0000
0000
0000
0000
0010
0000
0000
0000
0000
0000
1000
0000
0000
0000
0000
0000
0000
0000
0000
0000
0000
0000
0001
0000
0000
0000
0000
0000
0000
0000
0000
0000
0000
0000
0100
0000
0000
0000
0000
0000
0000
0000
0000
0000
0000
0000
0001
0000
0000
0000
0000
0000
0000
0000
0000
0000
0000
0000
1000
0000
0000
0000
0000
0000
0000
0000
0000
0000
0000
0000
0100
0000
0000
0000
0000
0000
0000
0000
0000
0000
0000
0000
1100
0000
0000
0000
0000
0000
0000
0000
0000
0000
0000
0000
0000
0000
0000
0110
0000
0000
0000
0000
0000
0000
0000
0000
0000
0000
0000
0000
0000
0000
0000
0000
0011
0000
0000
0000
0000
0000
0000
0000
0000
0000
0000
0000
0000
0000
0000
0000
0001
0000
0000
0000
0000
0000
0000
0000
0000
0000
0000
0000
0000
0000
0000
0000
0000
0000
0000
0000
0000
0000
0000
0000
1000
0000
0000
0000
0000
0000
0000
0000
0000
0000
0000
0000
0000
0000
0000
0000
0000
0000
0000
0000
0000
0000
0000
0000
,
1001
0000
0100
1000
0000
1000
0010
0100
0001
1000
0000
0010
0100
0010
0000
0000
,
1000
0000
0100
0000
0000
0000
0000
0000
0001
0000
1000
0000
0000
0000
0000
0000
0010
0100
0010
0100
0010
0000
0000
0000
1000
0000
0000
0000
1001
0000
0100
0000
,
0000
0000
0011
0000
0100
0000
0000
0000
1001
0000
0010
0000
0000
0000
1100
0000
0001
0000
0000
0000
0100
0000
0000
0000
0010
1000
0010
1000
0010
1000
0010
1000
,
0001
0010
0001
0010
0001
0010
0001
0010
0100
0000
0000
0000
0000
0000
0000
0000
1001
0000
0000
0000
1000
0000
0000
0000
1100
0000
0100
0000
0010
0000
0001
0000
,
1000
0010
0100
0010
1000
0001
2000
0000
3100
0010
0001
0000
0100
0010
0100
0001
,
1000
0100
1000
0010
0100
0001
1000
0010
1010
0000
0101
0000
0010
0001
1000
0100
,
1000
0010
1010
0000
0100
0110
0000
0001
0101
0010
1000
0000
0100
0010
0100
1000
,
0001
0010
1000
0010
0001
0100
0010
0000
1001
0000
1100
0000
0010
0010
0001
0100
,
1000
0001
1000
0100
0010
1000
0001
0010
0001
0100
1000
0000
0100
0001
1000
0000
,
0010
1000
0100
1000
0010
0100
0001
0000
1100
0000
0100
0110
0000
0001
0011
0000
,
1000
1010
0000
0100
0101
0000
0010
0000
0110
0000
1010
0000
0001
1000
0001
1000
,
0100
0010
0100
0010
0100
0010
0100
0010
0100
0020
0000
0000
0031
0000
0000
0000
1001
0000
0000
0000
0000
0000
0010
0000
,
0100
0001
1000
0100
0000
0001
0100
0000
1001
0000
0000
0100
,
1000
0010
0100
0010
1000
0001
0100
0000
0110
0000
0000
1000
,
0001
1000
0100
0010
0000
0001
0010
0000
1010
0000
0000
0010
,
0001
0100
0010
1000
0100
0010
0011
0000
0100
0110
0000
1001
,
0100
1000
0010
1000
0001
0010
0011
0000
1000
1100
0000
1001
,
1000
0010
0100
0001
0010
0100
0110
0000
0010
0011
0000
1100
,
1000
0010
1000
0001
0100
0010
1010
0000
1100
1000
0000
0110
,
0100
0010
1000
0100
0010
0001
0101
0000
1000
1100
0010
0100
,
0010
0001
0100
1000
0100
0010
1010
0000
1100
1000
0001
0010
,
0001
0100
0010
0100
0001
1000
1001
0000
1100
1000
0010
0100
,
0001
0010
1000
0010
0001
1000
1100
0000
0110
0100
0001
1000
,
0110
0011
0101
1100
1010
0101
1010
0000
1100
1000
0010
0100
,
0002
0000
0103
0010
1000
0001
1001
0000
0110
1000
0100
1000
,
0020
0000
1030
0100
1000
0010
0110
0000
0101
0100
0010
1000
,
0002
0000
0103
0001
1000
0100
0001
1000
0001
0100
0010
0001
,
0011
0101
1100
1001
1010
1001
0110
0001
0101
0100
0010
1000
,
1100
0010
1010
0001
0001
0010
0110
0001
0011
0100
1000
0010
,
1001
1000
0110
0001
0100
0010
1100
0100
0011
0010
0100
1000
,
1010
1000
1001
0010
0100
0001
0011
0010
0110
1000
0001
1000
,
0010
0000
0010
0000
0010
0000
0100
0000
0100
0000
0100
0000
0001
0000
0001
0100
0010
1000
0100
0000
0100
1000
0010
1000
,
0001
0000
0001
0010
1000
0010
0100
0000
0100
1000
0010
0100
1002
0000
0000
0000
0000
0000
0000
0000
0000
0000
0000
0000
,
0000
0000
1000
0000
,
0000
0000
1000
0000
,
0000
0000
1000
0000
,
0000
0000
1000
0000
,
0000
0000
1000
0000
,
0000
0000
1000
0000
,
0000
0000
1000
0000
,
0000
0000
1000
0000
,
0000
0000
1000
0000
,
0000
0000
1000
0000
,
0000
0000
1000
0000
,
0000
0000
1000
0000
,
0000
0000
1000
0000
,
0000
0000
1000
0000
,
0000
0000
1003
0000
,
0000
0000
0000
0000
0000
0000
1001
0000
0100
0001
0000
0001
,
1000
0000
0100
1000
0000
1000
0001
0000
0010
0100
0000
0100
,
0010
0000
0001
0100
0000
0100
0010
0000
1000
0100
0000
0010
,
0001
0000
0100
0001
0000
0001
0100
0010
1000
0100
1000
0100
,
1000
0001
0100
0001
0100
0001
0010
0100
0010
0100
1000
0001
,
0100
0000
0100
0010
0000
0010
1000
0000
0100
0010
0000
0001
,
1000
0100
0010
0001
0010
0100
1000
0000
1000
0010
0000
0100
,
0001
0000
0010
1000
0000
0010
0001
0100
0010
1000
0100
0001
,
0100
1000
0010
0100
0001
1000
0001
0000
0001
1000
0000
1000
,
0001
0000
0010
0001
0000
0001
1000
0000
0100
0010
0000
0010
,
0100
0000
1000
0010
0000
0010
0100
0000
0001
0010
0000
0100
,
1000
0000
0010
1000
0000
1000
0010
0100
0001
0010
0001
0010
,
0001
1000
0010
1000
0010
1000
0100
0010
0100
0010
0001
1000
,
0010
0000
0010
0100
0000
0100
0001
0000
0010
0100
0000
1000
,
0001
0010
0100
1000
0100
0010
0001
0000
0001
0100
0000
0010
,
1000
0000
0100
0001
0000
0100
1000
0010
0100
0001
0010
1000
,
0010
0001
0100
0010
1000
0100
1000
0000
0010
0100
0000
0001
,
1000
0000
0001
0010
0000
1000
0010
0000
0001
0100
0000
1000
,
0100
0000
0001
1000
0000
0100
0010
0000
0001
1000
0000
0100
,
1000
0000
0010
0001
0000
0010
0100
0001
0100
0010
1000
0010
,
0100
0001
1000
0100
0010
0001
1000
0000
0010
0100
0000
0001
,
0010
0000
1000
0010
0000
0100
1000
0000
0010
0001
0000
0100
,
0001
0000
0001
1000
0000
1000
0010
0000
0100
0001
0000
1000
,
0100
0000
1000
0010
0000
0100
0010
1000
0010
0100
0001
0010
,
1000
0010
0001
0100
0010
1000
0001
0000
0100
0010
0000
1000
,
0001
0000
1000
0100
0000
0001
0100
0000
1000
0010
0000
0001
,
0010
0000
1000
0001
0000
0010
0100
0000
1000
0001
0000
0010
,
0001
0000
0100
1000
0000
0100
0010
1000
0010
0100
0001
0100
,
0010
1000
0001
0010
0100
1000
0001
0000
0100
0010
0000
1000
,
0100
0000
0001
0100
0000
0010
0001
0000
0100
1000
0000
0010
,
1000
0000
1000
0001
0000
0001
0100
0000
0010
1000
0000
0001
,
0010
0000
0001
0100
0000
0010
0100
0001
0100
0010
1000
0100
,
0001
0100
1000
0010
0100
0001
2002
0000
0000
0000
0000
0000
,
0000
3003
0100
0001
0100
0000
0010
1000
,
0010
0100
0001
1000
,
0100
2002
3003
0000
;

//---------------dance-single - ----------------
#NOTES:
     dance-single:
     :
     Easy:
     9:
     0.438,0.553,0.125,0.475,0.083: // measure 1
0000
0000
0000
0000
,  // measure 2
0100
0010
1000
0000
0200
0000
0310
0000
,  // measure 3
0001
1000
0001
1001
,  // measure 4
0100
1000
0010
0000
2000
0000
3100
0000
,  // measure 5
0010
0001
1000
0000
0020
0000
0130
0001
,  // measure 6
1000
0200
1300
0011
,  // measure 7
1100
1001
0110
0002
,  // measure 8
0100
0100
0103
2000
,  // measure 9
0010
0000
3010
0000
0001
1000
0100
0000
,  // measure 10
1000
0100
0010
0000
0001
1000
0100
0000
,  // measure 11
0010
0100
0001
0000
2000
0000
3100
0000
,  // measure 12
0010
1000
0001
0000
0200
0000
0301
0000
,  // measure 13
0010
0100
1000
0000
0001
1000
0010
0000
,  // measure 14
0100
0001
0010
0000
0100
1000
0010
0000
,  // measure 15
1000
0001
0100
0000
1020
0000
0100
0000
,  // measure 16
0100
0130
0012
1000
,  // measure 17
1000
1000
1003
0000
0020
0000
0000
0000
,  // measure 18
2030
3002
0203
0000
,  // measure 19
0302
0023
0230
0000
,  // measure 20
2300
3020
2030
0000
,  // measure 21
3200
0000
0000
0320
0000
0000
0031
0000
0001
0000
0000
0000
,  // measure 22
0100
0000
0000
0110
0000
0000
1000
0000
1000
0000
0000
0000
,  // measure 23
0010
0000
0000
0101
0000
0000
1000
0000
1000
0000
0000
0000
,  // measure 24
0100
0000
0000
0011
0000
0000
1000
0000
1000
0000
0000
0000
,  // measure 25
0010
0000
0000
1010
0000
0000
0100
0000
0001
0000
0000
0000
,  // measure 26
0010
0000
0000
0001
0000
0000
1000
0000
0100
0000
0000
0000
,  // measure 27
1000
0000
0000
0001
0000
0000
0100
0000
0010
0000
0000
0000
,  // measure 28
0100
0000
0000
0001
0000
0000
1000
0000
0100
0000
0000
0000
,  // measure 29
1000
0000
0000
0001
0000
0000
0010
0000
0010
0000
0000
0000
,  // measure 30
0001
0000
0000
1000
0000
0000
0100
0000
0100
0000
0000
0000
,  // measure 31
0010
0000
0000
0001
0000
0000
0100
0000
0100
0000
0000
0000
,  // measure 32
0010
0000
0000
1000
0000
0000
0100
0000
0100
0000
0000
0000
,  // measure 33
1000
0000
0000
0001
0000
0000
0100
0000
0010
0000
0000
0000
,  // measure 34
1000
0000
1000
0100
0000
0000
0010
0000
0010
0000
0000
0000
,  // measure 35
0001
0000
0001
0100
0000
0000
0010
0000
0010
0000
0000
0000
,  // measure 36
1000
0000
1000
0001
0000
0000
0100
0000
0100
0000
0000
0000
,  // measure 37
0001
0000
0001
1000
0000
0000
0200
0000
0000
0320
0000
0000
,  // measure 38
0032
1003
2002
0000
,  // measure 39
0000
0000
0000
0000
,  // measure 40
0000
0000
0000
0000
,  // measure 41
0000
0000
0000
0000
,  // measure 42
0000
0000
0000
0000
,  // measure 43
0000
0000
0000
0000
,  // measure 44
0000
0000
0000
0000
,  // measure 45
0000
0000
0000
0000
,  // measure 46
0000
0000
0000
0000
,  // measure 47
0000
0000
0000
0000
,  // measure 48
0000
0000
0000
0000
,  // measure 49
0000
0000
0000
0000
,  // measure 50
0000
0000
0000
0000
,  // measure 51
0000
0000
0000
0000
,  // measure 52
0000
0000
0000
0000
,  // measure 53
0000
0000
0000
3003
,  // measure 54
0000
0000
1000
0100
,  // measure 55
0010
0001
0010
0100
,  // measure 56
1000
0010
0100
0010
,  // measure 57
1000
0100
1000
0001
,  // measure 58
0010
0001
0100
0010
,  // measure 59
1000
0100
1000
0010
,  // measure 60
0100
0001
0010
1000
,  // measure 61
0010
0100
1000
0010
,  // measure 62
0100
0001
1001
0100
,  // measure 63
0010
1000
0100
1000
,  // measure 64
0001
0100
1000
0100
,  // measure 65
0010
1000
0100
1000
,  // measure 66
0001
0010
0100
0010
,  // measure 67
0001
1000
0100
1000
,  // measure 68
0010
0100
0001
0010
,  // measure 69
0100
0010
0001
1000
,  // measure 70
0010
0100
2010
3100
,  // measure 71
0002
0103
2000
3100
,  // measure 72
0002
0103
2000
3100
,  // measure 73
0002
0103
2000
3100
,  // measure 74
0002
0103
2000
3010
,  // measure 75
0002
0013
2000
3010
,  // measure 76
0002
0013
2000
3010
,  // measure 77
0002
0013
2000
3010
,  // measure 78
0002
0013
0200
1300
,  // measure 79
0010
1000
0002
0103
,  // measure 80
0010
0100
0002
0013
,  // measure 81
0100
1000
0020
1030
,  // measure 82
0001
0010
2000
3010
,  // measure 83
0001
0100
0020
0130
,  // measure 84
0001
0010
0200
1300
,  // measure 85
0010
1000
0002
0203
,  // measure 86
0320
2030
3200
0000
,  // measure 87
0000
0300
0010
0000
0000
0000
0001
0000
,  // measure 88
0000
0100
0000
0010
,  // measure 89
0000
2002
3003
0000
;

//---------------dance-single - ----------------
#NOTES:
     dance-single:
     :
     Hard:
     16:
     0.783,1.000,0.450,0.067,1.000:
0000
0000
0000
0000
,
0001
0000
0010
0000
0011
0000
0000
1000
0000
0010
0100
0001
1000
0010
0000
0001
,
1000
0000
1000
0010
0000
0010
0001
0000
0001
1000
0000
1000
0100
0001
0100
0001
,
1000
0000
0010
0000
1010
0000
0000
0100
0000
0001
0010
0001
1000
0100
0000
1000
,
0001
0000
0000
0000
0100
0000
0000
0000
0010
0000
0000
0000
1000
0000
0000
0000
0010
0000
0000
0000
0100
0000
0000
0000
0001
0000
0000
0000
0000
0000
0000
0000
0011
0000
0000
0000
0000
0110
0000
0000
0000
0000
1100
0000
0000
0000
0000
0000
1000
0000
0000
0000
0000
0000
0000
0000
0001
0000
0000
0000
0000
0000
0000
0000
,
1001
0000
0010
0001
0000
0001
0100
0010
1000
0001
0000
0100
0010
0100
0000
0000
,
0001
0010
0000
0000
1000
0001
0000
0000
0100
0010
1000
0000
0101
0000
0000
1100
,
0000
0000
1010
0000
0000
1001
0000
0000
0011
0000
0100
0000
1000
0100
0010
0001
,
1000
0010
1000
0001
0100
0000
0000
0000
1001
0000
0001
0000
0011
0000
0100
1000
,
0001
0100
0010
0100
0001
1000
0002
0000
0013
0100
1000
0000
0010
0100
0010
1000
,
0001
0010
0001
0100
0010
1000
0001
0000
0101
0000
1010
0000
0100
1000
0001
0010
,
0001
0000
0101
0000
0000
0110
0000
0000
1010
0000
0001
0000
0010
0100
0010
0001
,
1000
0100
0001
0100
1000
0010
0100
0000
1001
0000
0011
0000
0100
0000
1000
0100
,
0010
0001
1000
0010
0100
0001
1000
0100
1000
0010
0100
0000
0010
1000
0001
0000
,
0100
0001
0010
0001
0100
0010
1000
0000
0011
0000
0000
0110
0000
0000
1100
0000
,
0000
0101
0000
0000
1010
0000
0100
0000
0110
0000
0101
0000
1000
0001
1000
0001
,
0100
0000
0000
0010
0000
0000
0100
0000
0000
0010
0000
0000
0100
0000
0000
0010
0000
0000
2000
0000
0000
0000
0000
0000
3001
0000
0000
0000
0000
0000
0000
0000
0101
0000
0000
0000
0000
0000
0000
0000
0000
0000
0000
0000
0000
0000
0000
0000
,
0010
0000
0000
1000
0000
0000
0100
0000
1100
0000
0000
0000
,
0100
0000
0000
1000
0000
0000
0010
0000
0110
0000
0000
0000
,
0001
0000
0000
1000
0000
0000
0100
0000
0110
0000
0000
0000
,
1000
0000
0000
0001
0000
0000
0100
0000
0100
0000
0000
0010
,
1000
0100
1000
0001
0000
0010
0100
0000
0100
0000
0000
0010
,
0001
1000
0100
0010
0000
0001
1000
0000
1000
0000
0000
0100
,
1000
0010
0100
0001
0000
0010
0001
0000
0001
0000
0000
0100
,
0010
0100
0001
1000
0100
0010
0100
0000
0100
0000
0000
1000
,
0010
1000
0001
0100
0010
1000
0010
0000
0010
0000
0000
1000
,
0100
1000
0010
0100
0001
0010
0100
0000
0100
0000
0000
0010
,
0001
1000
0100
1000
0010
0100
0001
0000
0001
0000
0000
0100
,
0001
0100
1000
0100
0010
1000
0100
0000
0100
0000
0000
1000
,
0100
0010
0001
1000
0010
0100
0010
0000
0010
0000
0000
0100
,
0001
0100
0010
1000
0001
0010
0001
0000
0001
0000
0000
0010
,
0001
1000
0100
1000
0010
0100
0010
0000
0010
0000
0000
0100
,
0001
0100
0010
1000
0100
0010
0001
0000
0001
1000
0000
1000
,
0100
1000
0010
0100
0001
0010
0100
0000
0100
0010
0000
0010
,
0001
0100
1000
0100
0010
1000
0100
0000
0100
0010
0000
0010
,
0001
1000
0010
0001
0010
0100
0001
0000
0001
0010
0000
0010
,
0100
0000
1000
0000
0010
0000
0100
0000
0001
0000
0010
0000
0100
0000
0000
0100
0000
0000
0010
0000
0000
0010
0000
0000
,
0001
0001
1000
1000
2002
0000
0000
0000
,
0000
0000
0000
0000
,
0000
0000
0000
0000
,
0000
0000
0000
0000
,
0000
0000
0000
0000
,
0000
0000
0000
0000
,
0000
0000
0000
0000
,
0000
0000
0000
0000
,
0000
0000
0000
0000
,
0000
0000
0000
0000
,
0000
0000
0000
0000
,
0000
0000
0000
0000
,
0000
0000
0000
0000
,
0000
0000
0000
0000
,
0000
0000
0000
0000
,
0000
0000
0000
0000
,
3003
0000
0000
0000
0000
0000
0010
0000
0010
0100
0000
0100
,
0001
0000
0001
1000
0000
1000
0100
0000
0100
1000
0000
1000
,
0001
0000
0001
0100
0010
0100
0001
0000
0001
1000
0000
1000
,
0100
0000
0100
1000
0000
1000
0010
0100
0010
1000
0000
1000
,
0100
0001
0100
1000
0000
1000
0100
0000
0100
0010
0000
0010
,
1000
0000
1000
0001
0000
0001
0100
0000
0100
0010
0000
0010
,
0001
0100
0001
0010
0000
0010
0001
0000
0001
1000
0000
1000
,
0100
0000
0100
0010
0000
0010
0001
1000
0001
0100
0000
0100
,
0010
1000
0010
0100
0000
0100
0001
0000
0100
0010
0000
0010
,
1000
0000
1000
0001
0000
0001
0010
0000
0010
0001
0000
0001
,
1000
0000
1000
0010
0100
0010
1000
0000
1000
0001
0000
0001
,
0010
0000
0010
0001
0000
0001
0100
0010
0100
0001
0000
0001
,
0010
1000
0010
0001
0000
0001
0010
0000
0010
0100
0000
0100
,
0001
0000
0001
1000
0000
1000
0010
0000
0010
0100
0000
0100
,
1000
0010
1000
0100
0000
0100
1000
0000
1000
0001
0000
0001
,
0010
0000
0010
0100
0000
0100
1000
0001
1000
0010
0000
0010
,
0100
0001
0100
0010
0000
0010
1000
0000
0100
1000
0000
0010
,
0100
0000
0000
1001
0000
0000
1001
0000
0100
0001
0000
1000
,
0100
0000
0000
1100
0000
0000
0101
0000
0100
0010
0000
0100
,
0001
0000
0000
1100
0000
0000
0010
0001
0010
0001
0000
0000
,
1000
0100
1000
0100
0000
0000
1000
0000
0010
0100
0000
0001
,
1000
0000
0000
1100
0000
0000
0110
0000
1000
0100
0000
0010
,
0001
0000
0000
0101
0000
0000
1001
0000
0010
0100
0000
0100
,
0001
0000
0000
1010
0000
0000
0100
0010
0100
0010
0000
0000
,
1000
0100
1000
0100
0000
0000
0001
0000
0010
0001
0000
0100
,
0010
0000
0000
0101
0000
0000
1010
0000
0010
1000
0000
0001
,
0010
0000
0000
0011
0000
0000
1010
0000
0010
0100
0000
0010
,
1000
0000
0000
0011
0000
0000
0100
1000
0100
1000
0000
0000
,
0001
0010
0001
0010
0000
0000
0001
0000
0100
0010
0000
1000
,
0001
0000
0000
1001
0000
0000
0110
0000
0001
0010
0000
0100
,
1000
0000
0000
1010
0000
0000
1001
0000
0100
0010
0000
0010
,
1000
0000
0000
0101
0000
0000
0010
0100
0010
0100
0000
0000
,
0001
0010
0001
0010
0000
0000
2002
0000
0000
0000
0000
0000
,
0000
3003
0100
0010
0100
0000
1000
0100
,
1000
0010
0100
0001
,
0010
2002
3003
0000
;
