#TITLE:kyoto EVOLVED;
#SUBTITLE:;
#ARTIST:xRGTMx underground;
#TITLETRANSLIT:;
#SUBTITLETRANSLIT:;
#ARTISTTRANSLIT:;
#CREDIT:;
#BANNER:kyoto EVOLVED (ver.B)-bn.png;
#BACKGROUND:kyoto EVOLVED (ver.B)-bg.png;
#LYRICSPATH:;
#CDTITLE:;
#MUSIC:kyoto EVOLVED (ver.B).mp3;
#OFFSET:-0.030;
#SAMPLESTART:1.980;
#SAMPLELENGTH:16.880;
#SELECTABLE:YES;
#BPMS:0.000=122.000,66.000=61.000,82.000=122.000,114.000=61.000,122.000=122.000,138.000=244.000,234.000=488.000,298.000=61.000,301.000=122.000;
#STOPS:18.000=0.200
,18.333=0.200
,18.667=0.080
,33.000=0.500
;
#BGCHANGES:;

//---------------dance-single - ----------------
#NOTES:
     dance-single:
     :
     Beginner:
     6:
     0.247,0.380,0.042,0.142,0.000:
0000
0000
0000
0000
,
0100
0001
1000
0010
,
0100
0000
0000
0000
,
0010
1000
0001
1000
,
0100
0000
0020
0130
,
0010
0001
1000
0010
,
0000
0000
0000
1000
,
0100
0010
0001
0100
,
0000
0010
1000
0100
,
1000
0010
0100
0000
,
0010
0000
1000
0100
,
1000
0001
0010
0000
,
0001
0000
0100
0010
,
1000
0001
1000
0000
,
0100
0000
1000
0001
,
0010
0001
0100
0010
,
0010
0010
2000
0000
,
3020
0000
0230
0000
,
0302
0000
2003
3100
,
2000
3010
0200
0301
,
0200
0310
1000
0100
,
0000
1000
0010
0100
,
0000
0001
0010
0100
,
0000
0010
0001
1000
,
0000
0100
1000
0010
,
0000
1000
0001
0100
,
0000
0001
0010
0001
,
0000
1000
0100
0010
,
0100
0100
2000
3000
,
0020
0030
2000
3000
,
0002
0003
0100
0010
,
0100
0100
0001
1000
,
0001
0001
1000
1000
,
0100
1100
0010
0010
,
0110
1001
0010
0000
,
1000
0000
0100
0000
,
1000
0000
0001
0000
,
0010
0000
0001
0001
,
0001
0000
0100
0000
,
0001
0000
1000
0000
,
0100
0000
1000
1000
,
1000
0000
0001
0001
,
0001
0000
0100
0000
,
0010
0000
1000
0000
,
0001
0000
1000
0000
,
0100
0000
0010
0010
,
0010
0010
0010
0000
,
0100
0000
1000
0000
,
0001
0000
1000
1000
,
1000
0000
0100
0100
,
0100
0000
1000
0000
,
0001
0000
0100
0000
,
0001
0000
0010
0010
,
0010
0000
0001
0001
,
0001
0000
1000
0000
,
0100
0000
1000
0000
,
0010
0000
1000
1000
,
1000
1000
0100
0100
,
0100
0100
1000
0000
,
0000
0000
1000
0000
,
0000
0000
0100
0000
,
0000
0000
0100
0000
,
0000
0000
0010
0000
,
0000
0000
0010
0000
,
0000
0000
0001
0000
,
0000
0000
0001
0000
,
0000
0000
1000
0000
,
0000
0000
0001
0000
,
0000
0000
0100
0000
,
0000
0000
0010
0000
,
0000
0000
1000
0000
,
0000
0000
0100
0000
,
0000
0000
0010
0000
,
0000
0000
0001
0000
,
0000
0000
0220
0000
,
0000
0330
1000
0000
0001
0000
2002
0000
,
3003
0000
0000
0000
;

//---------------dance-single - ----------------
#NOTES:
     dance-single:
     :
     Medium:
     12:
     0.539,0.791,0.250,0.267,0.150:
0000
0000
0000
0000
,
0100
0000
0001
0000
1000
0000
0000
1100
0000
0000
0010
0000
1000
0000
0000
0000
,
0100
0000
0000
0010
0000
0000
0001
0000
0000
1000
0000
0000
1001
0000
0000
0000
,
0100
0000
1000
0000
0010
0000
0000
0101
0000
0000
0010
0000
0100
0000
0000
0000
,
0001
0000
0000
0000
0000
0000
0000
0000
0000
0000
0000
0000
0000
0000
0000
0000
0000
0000
0000
0000
0000
0000
0000
0000
0010
0000
0000
0000
0000
0000
0000
0000
0000
0000
0000
0000
0000
0000
0000
0000
0000
0000
0000
0000
0000
0000
0000
0000
0100
0000
0000
0000
0000
0000
0000
0000
0000
0000
0000
0000
0000
0000
0000
0000
0000
0000
0000
0000
0000
0000
0000
0000
1000
0000
0000
0000
0000
0000
0000
0000
0000
0000
0000
0000
0000
0000
0000
0000
0000
0000
0000
0000
0000
0000
0000
0000
0001
0000
0000
0000
0000
0000
0000
0000
0000
0000
0000
0000
0000
0000
0000
1000
0000
0000
0000
0000
0000
0000
0000
0000
0000
0000
0000
0000
0000
0000
0000
0000
1001
0000
0000
0000
0000
0000
0000
0000
0000
0000
0000
0000
0000
0000
0000
0000
0100
0000
0000
0000
0000
0000
0000
0000
0000
0000
0000
0000
0000
0000
0000
0000
0000
0000
0000
0000
0000
0000
0000
0000
1000
0000
0000
0000
0000
0000
0000
0000
0000
0000
0000
0000
0000
0000
0000
0000
0000
0000
0000
0000
0000
0000
0000
0000
,
0010
0000
0000
0101
0000
0000
0010
0000
1000
0000
0000
0000
0101
0000
0000
0000
,
1010
0000
0000
0000
0100
0000
0010
0000
1000
0001
1000
0000
0010
0000
0000
1000
,
0000
0000
1000
0000
0000
0001
0000
0000
0001
0000
0000
0000
0100
0010
0100
0010
,
0100
0010
0100
0010
0100
0000
0000
0000
0001
0000
1000
0000
0100
0000
1000
0010
,
0000
0010
1000
0000
0100
0000
0000
0000
1000
0000
0100
0000
0010
0000
0001
0000
,
1000
0000
0001
0000
0100
0000
0000
0000
0010
0000
1000
0000
0100
0000
0010
0001
,
0000
0001
0010
0000
0100
0000
0000
0000
0010
0000
0001
0000
1000
0000
0100
0000
,
0010
0000
0001
0000
1000
0000
0000
0000
0010
0000
1000
0000
0001
0000
0100
0010
,
0000
1000
0100
0000
0010
0000
0000
0000
0001
0000
0010
0000
0100
0000
1000
0000
,
0010
1000
0010
0000
0100
0000
0000
0000
1001
0000
0000
0100
0000
0000
1100
0000
,
0000
0010
0000
0000
0101
0000
0000
0000
0010
0000
0001
0000
1000
0000
0100
0000
,
0010
0001
1000
0001
2000
0000
0000
0000
3020
0000
2030
0000
3200
0000
0000
0000
,
0320
0032
2003
0000
3020
2030
3002
0000
,
0203
0320
2030
0000
3200
0010
2300
0100
,
3002
0100
0023
1000
0032
1000
0203
0010
,
0302
1000
2003
0100
3010
0100
0110
0000
,
0001
0100
0010
1000
0100
0010
0110
0000
,
0001
0010
0100
1000
0010
1000
1100
0000
,
0010
0001
1000
0010
0100
0001
0011
0000
,
0100
0010
0100
0000
0001
1000
0001
0000
1000
0000
0100
0000
1010
0000
0000
0000
,
0001
1000
0100
0010
0001
1000
0101
0000
,
0010
0001
1000
0100
1000
0001
0110
0000
,
0100
0001
1000
0100
0010
0001
1100
0000
,
0010
1000
0010
0000
0100
0010
0100
0000
2002
0000
0000
0000
3003
0000
0000
0000
,
2200
3300
0220
0330
,
2002
0000
0000
0000
3003
0000
0000
0000
0010
0000
0000
0010
0100
0000
0000
0000
,
0001
0000
1000
0000
0100
0000
0000
0000
1000
0000
0000
1000
0100
0000
0000
0000
,
0010
0000
0001
0000
1000
0000
0000
0000
0001
0000
0000
0100
0000
0000
1000
0000
,
0000
0100
0000
0000
0001
0000
0000
0000
0010
0000
0001
0000
1000
0100
1000
0100
,
1000
0010
0010
0000
0100
0000
0110
0000
,
0001
0100
0000
0100
0010
0000
1000
0000
,
0100
0010
0001
1000
,
0010
1000
0100
1000
0010
0000
0100
0000
,
0001
1000
0100
1100
,
0010
0001
0000
0001
1000
0000
0010
0000
,
0100
0001
0010
0110
,
0000
0011
0000
1001
0000
0000
1100
0000
,
0000
0010
1000
0100
,
1000
0010
0100
0000
0001
0000
1000
0000
,
0100
1000
0010
0100
,
0010
0100
0010
0000
1000
0100
1000
0000
,
0001
0100
0001
0000
0010
0000
0001
0000
,
1000
0100
0010
0000
0001
0000
1000
0000
,
0010
0000
0100
0000
0001
0100
0001
0100
,
0010
1000
0010
1000
0100
0000
0010
0000
,
0110
0000
0100
1000
,
0010
1000
0010
0000
1000
0000
0100
0000
,
0010
0001
1000
0010
,
0100
0000
0001
0000
0010
0100
0010
0000
,
0001
0010
0001
0000
1000
0000
0001
0000
,
0100
0010
0100
0000
0001
0000
0010
0000
,
0100
0000
1000
0000
0001
1000
0100
0000
,
1000
0001
0100
0000
0010
0000
1000
0000
,
0001
0010
0100
0000
,
0100
0000
1000
0100
,
0010
0001
1000
0000
,
1000
0000
0010
0000
,
0100
0000
0001
0000
,
0001
0000
0010
0001
,
1000
0000
0100
1000
,
0010
0000
0100
0001
,
1000
0000
0010
0000
,
0010
0000
0100
0001
,
0100
0010
1000
0000
,
1000
0000
0100
0000
,
0100
0000
0010
0000
,
0001
0000
1000
0000
,
0100
0000
0010
0001
,
0010
0001
1000
0100
,
1000
0100
0020
0000
,
0000
0000
0030
0000
0001
0000
0100
0000
1000
0100
0010
0000
2002
0000
0000
0000
,
3003
0000
0000
0000
;

//---------------dance-single - ----------------
#NOTES:
     dance-single:
     :
     Challenge:
     18:
     0.990,1.000,0.883,0.125,1.000:
0000
0000
0000
0000
,
1000
0000
0100
0000
1100
0000
0000
0001
0000
0100
0010
1000
0001
0100
0000
1000
,
0001
0000
0001
0100
0000
0100
1000
0000
1000
0001
0000
0001
0010
1000
0010
1000
,
0001
0000
0100
0000
0101
0000
0000
0010
0000
1000
0100
1000
0001
0010
0000
0001
,
1000
0000
0000
0000
0000
0000
0010
0000
0000
0000
0000
0000
1000
0000
0000
0000
0000
0000
0010
0000
0000
0000
0000
0000
1000
0000
0000
0000
0000
0000
0000
0000
0000
0000
0000
0000
0001
0000
0000
0000
0000
0000
0000
0000
0000
0000
0000
0000
0100
0000
0000
0000
0000
0000
0000
0000
0000
0000
0000
0000
0001
0000
0000
0000
0000
0000
0000
0000
0000
0000
0000
0000
1000
0000
0000
0000
0000
0000
0000
0000
0000
0000
0000
0000
0100
0000
0000
0000
0000
0000
0000
0000
0000
0000
0000
0000
1100
0000
0000
0000
0000
0000
0000
0000
0000
0000
0000
0000
0000
0000
0000
0110
0000
0000
0000
0000
0000
0000
0000
0000
0000
0000
0000
0000
0000
0000
0000
0000
0011
0000
0000
0000
0000
0000
0000
0000
0000
0000
0000
0000
0000
0000
0000
0000
0001
0000
0000
0000
0000
0000
0000
0000
0000
0000
0000
0000
0000
0000
0000
0000
0000
0000
0000
0000
0000
0000
0000
0000
1000
0000
0000
0000
0000
0000
0000
0000
0000
0000
0000
0000
0000
0000
0000
0000
0000
0000
0000
0000
0000
0000
0000
0000
,
1001
0000
0100
1000
0000
1000
0010
0100
0001
1000
0000
0010
0100
0010
0000
0000
,
1000
0000
0100
0000
0000
0000
0000
0000
0001
0000
1000
0000
0000
0000
0000
0000
0010
0100
0010
0100
0010
0000
0000
0000
1000
0000
0000
0000
1001
0000
0100
0000
,
0000
0000
0011
0000
0100
0000
0000
0000
1001
0000
0010
0000
0000
0000
1100
0000
0001
0000
0000
0000
0100
0000
0000
0000
0010
1000
0010
1000
0010
1000
0010
1000
,
0001
0010
0001
0010
0001
0010
0001
0010
0100
0000
0000
0000
0000
0000
0000
0000
1001
0000
0000
0000
1000
0000
0000
0000
1100
0000
0100
0000
0010
0000
0001
0000
,
1000
0010
0100
0010
1000
0001
2000
0000
3100
0010
0001
0000
0100
0010
0100
0001
,
1000
0100
1000
0010
0100
0001
1000
0010
1010
0000
0101
0000
0010
0001
1000
0100
,
1000
0010
1010
0000
0100
0110
0000
0001
0101
0010
1000
0000
0100
0010
0100
1000
,
0001
0010
1000
0010
0001
0100
0010
0000
1001
0000
1100
0000
0010
0010
0001
0100
,
1000
0001
1000
0100
0010
1000
0001
0010
0001
0100
1000
0000
0100
0001
1000
0000
,
0010
1000
0100
1000
0010
0100
0001
0000
1100
0000
0100
0110
0000
0001
0011
0000
,
1000
1010
0000
0100
0101
0000
0010
0000
0110
0000
1010
0000
0001
1000
0001
1000
,
0100
0000
0010
0000
0100
0000
0010
0000
0100
0000
0010
0000
0100
0000
0010
0000
0100
0000
0020
0000
0000
0000
0000
0000
0032
0000
0000
0100
0000
0000
0010
0000
0000
1003
0000
0000
1100
0000
0000
0000
0000
0000
0000
0000
0000
0001
0000
0000
,
0020
1000
0100
0031
1010
0000
0000
0001
2000
0100
0010
3100
0101
0000
0000
0010
,
0200
0000
0001
0000
1000
0000
0310
0000
1001
0000
0000
0000
0000
0000
0000
0000
1010
0000
0100
0001
1000
0000
0010
0000
1100
0000
0010
0000
0001
0000
1000
0000
,
0101
0000
0010
0100
0010
0000
1000
0000
0101
0000
0010
0000
0100
0000
1000
0000
1100
0000
0010
1000
0001
0000
0010
0000
0110
0000
0010
0000
0001
0000
1000
0000
,
1100
0100
0110
0010
0011
1001
1100
1001
0110
0100
0001
1000
0100
1000
0010
0100
,
0001
1000
0010
0100
0001
0010
0001
0001
0100
0010
1000
0001
1000
0010
0001
0010
,
1000
0100
1000
0010
0100
0010
1000
1000
0001
0100
1000
0001
0010
0100
0001
1000
,
0100
1000
0010
0100
0001
1000
0010
0010
0100
0001
1000
0100
0010
0001
0100
0010
,
1000
0100
1000
0100
0010
0001
0010
0001
1001
0010
1000
0001
0010
0001
0100
0010
,
1000
0001
0100
0010
1000
0100
1000
1000
0010
0100
0001
1000
0001
0100
1000
0100
,
0001
0010
0001
0100
0010
0100
0001
0001
1000
0010
0001
1000
0100
0010
1000
0001
,
0010
0001
0100
0010
1000
0001
0100
0100
0010
1000
0001
0010
0100
1000
0010
0100
,
0001
0000
0010
0000
0001
0000
0010
0000
0100
0000
1000
0000
0100
0000
1000
0000
1001
0000
0000
0100
0000
1000
0000
0000
0000
0000
0000
0000
0000
0000
0000
0000
,
0010
1000
0000
0001
0000
0100
0000
0000
0000
0000
0000
0000
0000
0000
0000
0000
0001
0000
0000
0010
0000
0100
0000
0000
0000
0000
0000
0000
0000
0000
0000
0000
,
0010
0001
0000
1000
0000
0100
0000
0000
0000
0000
0000
0000
0000
0000
0000
0000
0101
0000
0000
0000
0010
0000
1000
0000
1010
0000
0000
0000
0001
0000
1000
0000
,
1001
0000
1100
0000
0011
0000
0000
0000
1100
0000
0010
0100
0110
0000
0001
0100
,
0101
0000
1100
0000
1001
0000
0000
0000
1010
0010
0000
1100
1000
0000
0101
0001
,
0000
0110
0010
0000
1000
0100
1000
0100
1100
0000
0101
0000
1000
0100
0010
0001
,
0100
0010
0100
0010
0100
0010
0200
0000
0000
0302
0000
0000
1003
0000
0000
0100
0000
0000
1100
0000
0000
0000
0000
0000
,
0001
0101
0000
0001
1001
0000
0100
0010
,
0100
0001
0010
0100
1001
0000
1001
0000
,
0110
1000
0001
0101
0000
0000
1100
1000
,
0001
0000
0110
0000
0001
0100
0010
1000
0001
0000
0010
0000
0011
0000
0000
0000
,
1000
1010
0000
1000
1001
0000
0010
0100
,
0010
1000
0100
0010
1001
0000
0110
0000
,
0001
0000
1100
0000
0000
0000
0110
0000
0001
1000
0100
0010
0001
0000
0100
0000
,
0010
1000
0001
0100
0002
0000
0000
0000
0103
0000
0010
0000
1010
0000
0000
0000
,
0001
0101
0000
1000
1001
0000
0100
0010
,
1000
0000
0000
0001
0000
0000
0100
0000
0000
0010
0000
0000
1000
0000
0100
0000
0010
0000
0001
0000
0000
0000
0000
0000
,
1000
0100
0010
0001
0000
0000
0010
0001
0100
0010
1000
0010
,
0100
0000
0001
0000
1000
0000
0001
0000
0100
0000
0010
0000
1000
0000
0000
0001
0000
0000
0110
0000
0000
0000
0000
0000
,
1000
0110
0000
0001
0110
0000
1000
0100
,
0001
0100
1000
0010
0110
0101
1001
1010
,
0100
0000
0100
0000
0100
0000
0100
0000
0001
1000
0001
1000
0001
1000
0001
0000
,
0100
0010
0100
0010
0100
0010
0100
0000
0001
0000
0010
0000
1001
0000
0000
0000
,
0100
1001
0000
0010
1001
0000
1000
0100
,
0001
0100
1000
0010
0110
0000
0101
0000
,
0011
0010
0100
1100
0000
0000
1010
1000
,
0001
0000
0101
0000
1000
0001
0100
0010
1000
0000
0100
0000
0001
0000
1000
0000
,
0010
0001
1000
0100
0001
1000
0010
0001
,
1000
0100
0010
0001
0001
0100
1000
0001
,
0010
0000
1000
0000
0001
0000
0100
0000
0010
0100
0001
1000
0100
0000
0010
0000
,
0001
0100
0010
0100
0002
0000
0000
0000
1003
0000
0000
0000
0100
0000
0000
0000
,
1100
0001
0100
0101
,
0010
0100
0110
0000
,
0001
1000
0100
1000
,
0010
0000
0000
0100
0000
0000
0001
0000
1000
0000
0001
0000
,
1001
0000
0000
0000
0000
0000
0100
0000
0010
0000
0100
0000
,
0110
0000
0000
0000
0000
0000
0001
0000
0010
0000
0100
0000
,
1000
0000
0010
0000
0100
0000
0010
0000
1000
0000
0100
0000
,
0020
0000
0031
0100
,
0101
1000
0001
1001
,
1000
0100
1100
0000
,
0100
0010
1000
0100
,
1000
0001
0100
0100
,
0100
0100
0010
0010
,
0010
0000
0010
0000
1000
0100
1000
0010
,
0100
0000
0001
0000
0010
0001
0100
0010
,
1000
0001
2002
0000
,
0000
0000
0000
0000
3003
0000
0000
0000
0100
0001
0100
0000
0010
0100
0010
0000
1000
0000
1000
0000
0001
0000
0001
0000
0220
0000
0000
0000
0000
0000
0000
0000
,
0330
0000
0000
0000
;

//---------------dance-single - ----------------
#NOTES:
     dance-single:
     :
     Easy:
     9:
     0.377,0.475,0.142,0.250,0.000:
0000
0000
0000
0000
,
0100
0010
1000
0000
0200
0000
0310
0000
,
0001
1000
0001
1001
,
0100
1000
0010
0000
2000
0000
3100
0000
,
0010
0001
1000
0000
0020
0000
0130
0001
,
1000
0200
1300
0011
,
1100
1001
0110
0002
,
0100
0100
0103
2000
,
0010
0000
3010
0000
0001
1000
0100
0000
,
1000
0100
0010
0000
0001
1000
0100
0000
,
0010
0100
0001
0000
2000
0000
3100
0000
,
0010
1000
0001
0000
0200
0000
0301
0000
,
0010
0100
1000
0000
0001
1000
0010
0000
,
0100
0001
0010
0000
0100
1000
0010
0000
,
1000
0001
0100
0000
1020
0000
0100
0000
,
0100
0130
0012
1000
,
1000
1000
1003
0000
0200
0000
0000
0000
,
0302
2003
3200
0000
,
2300
0000
3020
0000
0130
0001
1000
0000
,
0100
1000
0001
0000
0010
0010
0100
0000
,
0100
0100
1000
0000
0101
0000
1000
0000
,
0100
1000
0100
0000
0010
0000
0101
0000
,
0010
0001
1000
0000
0100
0000
0110
0000
,
1000
0100
0010
0000
0001
0000
1001
0000
,
0010
0100
0001
0000
2000
0000
3100
0000
,
1000
1000
0100
0000
0020
0000
0031
0000
,
0010
0010
0001
0000
0200
0000
0310
0000
,
0100
0100
0010
0000
0002
0000
0103
0000
,
0001
0001
0100
0000
2000
0000
3000
0000
,
0220
0330
0002
0003
,
0022
0033
0100
1000
,
0000
0010
0100
0000
0001
0000
0010
0000
,
0000
0001
1000
0000
0100
0000
0100
0000
,
0110
1001
0010
0010
,
1000
0100
1000
0000
0010
0000
0000
0000
,
0100
0000
0001
0100
,
0010
0000
1000
0000
,
0001
0000
1000
0100
,
0010
0000
0001
0000
,
1000
0000
0010
1000
,
0100
0000
1000
0100
,
1000
0100
0010
0001
,
0010
0001
0100
0000
,
0010
1000
0001
0000
,
0010
0000
0100
0000
,
1000
0000
0100
0010
,
0001
1000
0001
0000
,
0100
0010
1000
0000
,
0001
0000
0010
0001
,
1000
0100
1000
0010
,
0100
0001
0010
0000
,
0100
0010
0001
0000
,
1000
0000
0010
1000
,
0100
1000
0010
0100
,
0001
0000
0010
0000
,
0001
0010
0100
0000
,
0010
0000
0001
0001
,
1000
1000
0100
1000
,
0010
0000
0100
0000
,
0001
0000
1000
0000
,
0100
0000
1000
0000
,
0010
0000
0100
0000
,
0001
0000
1000
0000
,
0100
0000
0010
0000
,
0001
0000
1000
0000
,
0100
0000
1000
0000
,
0010
0000
0100
0000
,
0001
0000
1000
0100
,
1000
0000
0010
0000
,
1000
0000
0001
0000
,
0010
0000
0100
0010
,
0100
0000
0010
0001
,
0010
0000
0100
1000
,
0100
0000
1000
0001
,
1000
0000
0220
0000
,
0000
0330
1000
0100
0001
0010
2002
0000
,
3003
0000
0000
0000
;

//---------------dance-single - ----------------
#NOTES:
     dance-single:
     :
     Hard:
     16:
     0.822,1.000,0.658,0.217,0.646: // measure 1
0000
0000
0000
0000
,  // measure 2
0001
0000
0010
0000
0011
0000
0000
1000
0000
0010
0100
0001
1000
0010
0000
0001
,  // measure 3
1000
0000
1000
0010
0000
0010
0001
0000
0001
1000
0000
1000
0100
0001
0100
0001
,  // measure 4
1000
0000
0010
0000
1010
0000
0000
0100
0000
0001
0010
0001
1000
0100
0000
1000
,  // measure 5
0001
0000
0000
0000
0100
0000
0000
0000
0010
0000
0000
0000
1000
0000
0000
0000
0010
0000
0000
0000
0100
0000
0000
0000
0001
0000
0000
0000
0000
0000
0000
0000
0011
0000
0000
0000
0000
0110
0000
0000
0000
0000
1100
0000
0000
0000
0000
0000
1000
0000
0000
0000
0000
0000
0000
0000
0001
0000
0000
0000
0000
0000
0000
0000
,  // measure 6
1001
0000
0010
0001
0000
0001
0100
0010
1000
0001
0000
0100
0010
0100
0000
0000
,  // measure 7
0001
0010
0000
0000
1000
0001
0000
0000
0100
0010
1000
0000
0101
0000
0000
1100
,  // measure 8
0000
0000
1010
0000
0000
1001
0000
0000
0011
0000
0100
0000
1000
0100
0010
0001
,  // measure 9
1000
0010
1000
0001
0100
0000
0000
0000
1001
0000
0001
0000
0011
0000
0100
1000
,  // measure 10
0001
0100
0010
0100
0001
1000
0002
0000
0013
0100
1000
0000
0010
0100
0010
1000
,  // measure 11
0001
0010
0001
0100
0010
1000
0001
0000
0101
0000
1010
0000
0100
1000
0001
0010
,  // measure 12
0001
0000
0101
0000
0000
0110
0000
0000
1010
0000
0001
0000
0010
0100
0010
0001
,  // measure 13
1000
0100
0001
0100
1000
0010
0100
0000
1001
0000
0011
0000
0100
0000
1000
0100
,  // measure 14
0010
0001
1000
0010
0100
0001
1000
0100
1000
0010
0100
0000
0010
1000
0001
0000
,  // measure 15
0100
0001
0010
0001
0100
0010
1000
0000
0011
0000
0000
0110
0000
0000
1100
0000
,  // measure 16
0000
0101
0000
0000
1010
0000
0100
0000
0110
0000
0101
0000
1000
0001
1000
0001
,  // measure 17
0100
0010
0100
0010
0100
0010
2000
0000
3002
0000
0103
0010
0120
0000
0000
0000
,  // measure 18
2030
0000
3100
1000
0210
0000
0000
0300
0020
0000
0031
1000
2001
0000
0000
0000
,  // measure 19
3020
0000
0130
0001
0102
0000
0000
0000
0023
0001
0001
0130
0110
0010
0001
1000
,  // measure 20
0200
1000
1000
0310
0110
1000
0010
1000
0002
0100
0100
1003
1100
1000
0010
0100
,  // measure 21
0020
0100
0100
0031
1100
1001
0101
0011
1000
0010
0100
0010
1000
0000
0001
1000
,  // measure 22
0001
0000
0100
0000
2001
0000
0010
0000
3100
0001
1000
0010
1000
0000
0001
0100
,  // measure 23
0001
0000
0010
0000
0012
0000
1000
0000
0103
0001
1000
0010
1000
0000
0100
0010
,  // measure 24
0100
0000
1000
0000
0201
0000
0010
0000
0301
0010
0100
1000
0100
0000
0010
0001
,  // measure 25
1000
0100
1000
0100
0010
0001
0010
0001
0100
0000
0010
1000
1010
0000
0000
0000
,  // measure 26
1100
0000
0110
0000
0011
0000
0000
0000
1000
0000
0001
0100
0101
0000
0000
0000
,  // measure 27
1010
0000
1001
0000
0110
0000
0000
0000
1100
0000
0100
1000
1100
0000
0000
0000
,  // measure 28
1010
0000
1001
0000
0101
0000
0000
0000
0110
0000
0001
0100
0101
0000
0000
0000
,  // measure 29
1000
0100
0010
0001
1000
0010
0100
0001
2000
0000
0100
0000
3100
0000
0000
0000
,  // measure 30
0020
0100
0130
0000
0002
1000
1003
0000
,  // measure 31
0200
0000
0010
0000
0310
0000
0000
0000
1100
0000
0010
1000
0001
0000
0000
0000
,  // measure 32
1010
0000
0100
0000
1001
0000
0000
0000
0011
0000
0010
0100
1000
0000
0000
0000
,  // measure 33
1100
0000
0010
0000
0101
0000
0000
0000
1000
0100
0000
0100
0010
0000
0010
0001
,  // measure 34
0000
0001
1000
0000
0010
0000
0100
0000
0001
1000
0001
1000
0100
0010
0100
0010
,  // measure 35
0001
0010
0100
1000
0002
0000
2003
0000
3010
0000
0100
0000
0001
0000
0000
0000
,  // measure 36
0010
0100
0000
0100
1000
0000
0010
1000
,  // measure 37
0100
1000
0001
0010
0100
0000
0100
0000
,  // measure 38
0010
0001
1000
0100
1000
0010
0100
0001
,  // measure 39
1000
0100
1000
0000
0010
0100
0001
0000
,  // measure 40
0010
1000
0000
1000
0010
0000
0100
0010
,  // measure 41
0001
0010
0100
1000
0010
0000
1001
0000
,  // measure 42
0000
1100
0000
1001
0000
0000
0010
0001
,  // measure 43
0010
0100
1000
0010
0100
0001
0100
0000
,  // measure 44
0010
1000
0000
1000
0100
0000
1000
0100
,  // measure 45
0010
0000
0000
0001
0000
0000
0100
0000
0000
0010
0000
0000
1000
0000
0010
0000
1000
0000
0010
0000
0000
0000
0000
0000
,  // measure 46
0100
0001
0100
0001
0000
0000
0010
0001
0010
0001
1000
0001
,  // measure 47
0100
0000
0010
0000
0100
0000
0010
0000
1000
0000
0001
0000
0100
0000
0000
0001
0000
0000
1000
0000
0000
0000
0000
0000
,  // measure 48
0100
0010
0000
0010
0001
0000
1000
0100
,  // measure 49
1000
0010
0100
0001
0010
0100
0010
0001
,  // measure 50
0010
0100
1000
0100
1000
0001
0010
0100
,  // measure 51
1000
0010
0100
0001
1001
0000
1100
0000
,  // measure 52
1000
1010
0000
0100
0110
0000
0001
0010
,  // measure 53
1000
0010
0001
1000
0100
1000
0010
0100
,  // measure 54
0001
0100
1000
0100
0010
1000
0100
1000
,  // measure 55
0001
0010
0100
0000
0010
0000
0011
0000
,  // measure 56
1000
1100
0000
0010
1010
0000
1000
0100
,  // measure 57
1000
0010
0100
0001
1000
0000
1001
0000
,  // measure 58
0000
0101
0000
1001
0000
0000
1100
0000
,  // measure 59
0110
0011
1000
0100
,  // measure 60
0010
0001
0100
0001
,  // measure 61
0010
1000
0010
0001
,  // measure 62
1000
0010
0100
0010
,  // measure 63
1000
0000
0000
0001
0000
0000
0100
0000
0010
0000
0100
0000
,  // measure 64
0010
0000
0000
0000
0000
0000
1000
0000
0100
0000
1000
0000
,  // measure 65
0100
0000
0000
0000
0000
0000
0010
0000
0001
0000
0100
0000
,  // measure 66
0010
0000
1000
0000
0100
0000
1000
0000
0010
0000
0100
0000
,  // measure 67
0001
0000
0010
0000
0001
0000
1000
0000
0000
0100
0000
0000
,  // measure 68
0010
0001
0100
0010
,  // measure 69
1000
0100
1000
0010
,  // measure 70
0001
0010
1000
0100
,  // measure 71
0010
0001
0100
1000
,  // measure 72
0001
0010
1000
0100
,  // measure 73
0010
0000
0001
0000
0100
0010
0100
0000
,  // measure 74
0001
0000
1000
0000
0100
1000
0100
0000
,  // measure 75
0010
0001
0200
0000
,  // measure 76
0000
0000
0300
0000
0010
1000
0100
0001
1000
0010
0001
0100
0220
0000
0000
0000
,  // measure 77
0330
0000
0000
0000
;
