#TITLE:kyoto EVOLVED;
#SUBTITLE:;
#ARTIST:xRGTMx underground;
#TITLETRANSLIT:;
#SUBTITLETRANSLIT:;
#ARTISTTRANSLIT:;
#CREDIT:;
#BANNER:kyoto EVOLVED (ver.A)-bn.png;
#BACKGROUND:kyoto EVOLVED (ver.A)-bg.png;
#LYRICSPATH:;
#CDTITLE:;
#MUSIC:kyoto EVOLVED (ver.A).mp3;
#OFFSET:-0.030;
#SAMPLESTART:1.980;
#SAMPLELENGTH:16.920;
#SELECTABLE:YES;
#BPMS:0.000=122.000,66.000=244.000,162.000=488.000,226.000=61.000,234.000=122.000,250.000=244.000,378.000=122.000,384.000=488.000,392.000=122.000;
#STOPS:18.000=0.200
,18.333=0.200
,18.667=0.080
,33.000=0.500
;
#BGCHANGES:;

//---------------dance-single - ----------------
#NOTES:
     dance-single:
     :
     Beginner:
     6:
     0.268,0.327,0.067,0.067,0.000: // measure 1
0000
0000
0000
0000
,  // measure 2
0100
0001
1000
0010
,  // measure 3
0100
0000
0000
0000
,  // measure 4
0010
1000
0001
1000
,  // measure 5
0100
0000
0020
0130
,  // measure 6
0010
0001
1000
0010
,  // measure 7
0000
0000
0000
1000
,  // measure 8
0100
0010
0001
0100
,  // measure 9
0000
0010
1000
0100
,  // measure 10
1000
0010
0100
0000
,  // measure 11
0010
0000
1000
0100
,  // measure 12
1000
0001
0010
0000
,  // measure 13
0001
0000
0100
0010
,  // measure 14
1000
0001
1000
0000
,  // measure 15
0100
0000
1000
0001
,  // measure 16
0010
0001
0100
0010
,  // measure 17
0010
0010
1000
0000
,  // measure 18
0100
0000
1000
0000
,  // measure 19
0001
0000
0010
0000
,  // measure 20
0001
0000
1000
0000
,  // measure 21
0100
0000
1000
0000
,  // measure 22
0010
0000
0100
0000
,  // measure 23
0001
0000
0010
0000
,  // measure 24
0100
0000
1000
0000
,  // measure 25
0001
0000
1001
0000
,  // measure 26
0010
0000
1000
0000
,  // measure 27
0001
0000
0100
0000
,  // measure 28
0010
0000
0100
0000
,  // measure 29
0001
0000
0010
0000
,  // measure 30
0100
0000
0010
0000
,  // measure 31
0001
0000
1000
0000
,  // measure 32
0100
0000
1000
0000
,  // measure 33
0010
0000
1010
0000
,  // measure 34
0100
0000
0001
0000
,  // measure 35
1000
0000
0100
0000
,  // measure 36
1000
0000
0100
0000
,  // measure 37
0010
0000
0001
0000
,  // measure 38
1000
0000
0001
0000
,  // measure 39
0100
0000
0010
0000
,  // measure 40
1000
0000
0100
0100
,  // measure 41
0100
0000
1000
0000
,  // measure 42
0000
0000
0100
0000
,  // measure 43
0000
0000
0010
0000
,  // measure 44
0000
0000
0001
0000
,  // measure 45
0000
0000
1000
0000
,  // measure 46
0000
0000
0001
0000
,  // measure 47
0000
0000
0100
0000
,  // measure 48
0000
0000
0001
0000
,  // measure 49
0000
0000
1000
0000
,  // measure 50
0000
0000
0001
0000
,  // measure 51
0000
0000
0010
0000
,  // measure 52
0000
0000
0100
0000
,  // measure 53
0000
0000
1000
0000
,  // measure 54
0000
0000
1000
0000
,  // measure 55
0000
0000
0100
0000
,  // measure 56
0100
0000
0100
0000
,  // measure 57
0100
0000
0200
0000
,  // measure 58
0000
0000
0000
0000
,  // measure 59
0000
0300
1001
0100
,  // measure 60
1000
0000
1010
0100
,  // measure 61
0001
0000
0020
0000
,  // measure 62
0000
0130
2000
0000
,  // measure 63
0001
0001
3001
0000
,  // measure 64
1000
0000
0100
0100
,  // measure 65
0100
0000
1000
0000
,  // measure 66
0001
0000
0010
0010
,  // measure 67
0010
0000
0001
0000
,  // measure 68
1000
0000
0001
0001
,  // measure 69
0001
0000
0010
0000
,  // measure 70
0001
0000
1000
1000
,  // measure 71
1000
0000
0100
0000
,  // measure 72
1000
0000
0010
0010
,  // measure 73
0010
0000
1000
0000
,  // measure 74
0100
0000
0010
0010
,  // measure 75
0010
0000
0001
0000
,  // measure 76
1000
0000
0100
0100
,  // measure 77
0100
0000
1000
0000
,  // measure 78
0010
0000
0100
0100
,  // measure 79
0100
0000
1001
0000
,  // measure 80
0010
0000
1000
1000
,  // measure 81
1000
0000
0100
0000
,  // measure 82
1000
0000
0001
0001
,  // measure 83
0001
0000
0010
0000
,  // measure 84
0001
0000
0100
0100
,  // measure 85
0100
0000
0001
0000
,  // measure 86
1000
0000
0010
0010
,  // measure 87
0010
0000
0110
0000
,  // measure 88
1000
0000
0100
0100
,  // measure 89
0100
0000
1000
0000
,  // measure 90
0001
0000
0100
0100
,  // measure 91
0100
0000
0001
0000
,  // measure 92
1000
0000
0100
0100
,  // measure 93
0100
0000
0010
0000
,  // measure 94
0001
0000
1000
1000
,  // measure 95
1000
0000
2002
0000
,  // measure 96
0000
0000
0000
3003
,  // measure 97
0000
0000
0000
0000
,  // measure 98
0000
0000
0000
0000
,  // measure 99
0220
0330
0000
0000
;

//---------------dance-single - ----------------
#NOTES:
     dance-single:
     :
     Medium:
     12:
     0.582,0.777,0.225,0.100,0.121:
0000
0000
0000
0000
,
0100
0000
0001
0000
1000
0000
0000
1100
0000
0000
0010
0000
1000
0000
0000
0000
,
0100
0000
0000
0010
0000
0000
0001
0000
0000
1000
0000
0000
1001
0000
0000
0000
,
0100
0000
1000
0000
0010
0000
0000
0101
0000
0000
0010
0000
0100
0000
0000
0000
,
0001
0000
0000
0000
0000
0000
0000
0000
0000
0000
0000
0000
0000
0000
0000
0000
0000
0000
0000
0000
0000
0000
0000
0000
0010
0000
0000
0000
0000
0000
0000
0000
0000
0000
0000
0000
0000
0000
0000
0000
0000
0000
0000
0000
0000
0000
0000
0000
0100
0000
0000
0000
0000
0000
0000
0000
0000
0000
0000
0000
0000
0000
0000
0000
0000
0000
0000
0000
0000
0000
0000
0000
1000
0000
0000
0000
0000
0000
0000
0000
0000
0000
0000
0000
0000
0000
0000
0000
0000
0000
0000
0000
0000
0000
0000
0000
0001
0000
0000
0000
0000
0000
0000
0000
0000
0000
0000
0000
0000
0000
0000
1000
0000
0000
0000
0000
0000
0000
0000
0000
0000
0000
0000
0000
0000
0000
0000
0000
1001
0000
0000
0000
0000
0000
0000
0000
0000
0000
0000
0000
0000
0000
0000
0000
0100
0000
0000
0000
0000
0000
0000
0000
0000
0000
0000
0000
0000
0000
0000
0000
0000
0000
0000
0000
0000
0000
0000
0000
1000
0000
0000
0000
0000
0000
0000
0000
0000
0000
0000
0000
0000
0000
0000
0000
0000
0000
0000
0000
0000
0000
0000
0000
,
0010
0000
0000
0101
0000
0000
0010
0000
1000
0000
0000
0000
0101
0000
0000
0000
,
1010
0000
0000
0000
0100
0000
0010
0000
1000
0001
1000
0000
0010
0000
0000
1000
,
0000
0000
1000
0000
0000
0001
0000
0000
0001
0000
0000
0000
0100
0010
0100
0010
,
0100
0010
0100
0010
0100
0000
0000
0000
0001
0000
1000
0000
0100
0000
1000
0010
,
0000
0010
1000
0000
0100
0000
0000
0000
1000
0000
0100
0000
0010
0000
0001
0000
,
1000
0000
0001
0000
0100
0000
0000
0000
0010
0000
1000
0000
0100
0000
0010
0001
,
0000
0001
0010
0000
0100
0000
0000
0000
0010
0000
0001
0000
1000
0000
0100
0000
,
0010
0000
0001
0000
1000
0000
0000
0000
0010
0000
1000
0000
0001
0000
0100
0010
,
0000
1000
0100
0000
0010
0000
0000
0000
0001
0000
0010
0000
0100
0000
1000
0000
,
0010
1000
0010
0000
0100
0000
0000
0000
1001
0000
0000
0100
0000
0000
1100
0000
,
0000
0010
0000
0000
0101
0000
0000
0000
0010
0000
0001
0000
1000
0000
0100
0000
,
0010
0001
1000
0001
2000
0000
0000
0000
3010
0000
0000
0000
1000
0000
0000
0000
,
0001
0100
0010
1000
,
0001
1001
0100
0010
,
1000
0100
0010
0001
,
1000
1010
0100
0001
,
1000
0100
0010
0001
,
0100
0101
0010
1000
,
0100
0010
0001
1000
,
0001
0011
1000
0100
,
1000
0010
0100
0001
,
1000
0100
1000
0000
0010
0000
1000
0000
,
0001
0010
0100
1000
,
0001
0100
0001
0000
0010
0000
0001
0000
,
1000
0001
0100
0010
,
1000
0100
1000
0000
0010
0000
1000
0000
,
0001
0010
0100
1000
,
0010
0100
0010
0000
1000
0000
1001
0000
,
0010
0001
1000
0010
,
0100
0001
1000
0000
0100
0000
1010
0000
,
0010
0100
0001
0010
,
0100
0010
0001
0000
0100
0000
1010
0000
,
0100
0001
0010
0100
,
1000
0100
0010
0000
0001
0000
1001
0000
,
0010
0100
0001
0010
,
0100
1000
0010
0000
1000
0000
0000
0000
,
1000
0000
0001
0000
,
0001
0000
0010
0000
,
0010
0000
0001
0010
,
0100
1000
0001
0000
,
0001
0000
1000
0000
,
1000
0000
0010
0000
,
0010
0000
0100
0001
,
0100
0010
1000
0000
,
1000
0000
0001
0000
,
0001
0000
0010
0000
,
0010
0000
0100
0010
,
0100
0010
0001
0000
,
0001
0000
1000
0000
,
1000
0000
0001
0000
,
0001
0000
0100
0010
,
1000
0001
0200
0300
,
2020
3030
0202
0303
,
2002
3003
0110
0101
,
0010
0100
0010
0000
0011
0000
1001
0000
,
0100
0000
1000
0000
0100
0000
0000
0000
1000
0000
0000
0100
0000
0000
0001
0000
,
0000
0100
0000
0000
1000
0000
0000
0000
0010
0000
1000
0000
0001
0000
0010
0000
,
0100
0010
0100
0010
0100
0000
0000
0000
0001
0000
0000
0000
1000
0000
0000
0000
,
0100
1000
0000
1000
0010
0000
0010
0100
,
0000
0100
0001
0000
0010
0000
0001
0000
,
1000
0010
0000
0010
1000
0000
1000
0001
,
0000
0001
0010
0000
0100
0000
0010
0000
,
0001
1000
0000
1000
0100
0000
0100
0001
,
0000
0001
0100
0000
1000
0000
0010
0000
,
0100
0010
0000
0010
1000
0000
1000
0001
,
0000
0001
0010
0000
0001
0000
1000
0000
,
0010
1000
0000
0001
0100
0000
0010
0100
,
0000
0001
0010
0000
0100
0000
1000
0000
,
0001
0010
0000
0100
1000
0000
0010
1000
,
0000
0001
0100
0000
0010
0000
1000
0000
,
0100
0010
0000
0001
0010
0000
1000
0010
,
0000
0100
1000
0000
0010
0000
0100
0000
,
0001
0100
0000
0010
1000
0000
0100
1000
,
0000
0001
0100
0000
0010
0000
1000
0000
,
0100
1000
0100
0000
1000
0000
0010
0000
,
1000
0001
1000
0000
0010
0000
0100
0000
,
0001
1000
0001
0000
0010
0000
0100
0000
,
1000
0100
1000
0000
0010
0000
1000
0000
,
0001
0010
0001
0000
0100
0000
0010
0000
,
1000
0001
1000
0000
0100
0000
1000
0000
,
0010
1000
0010
0000
0100
0000
0001
0000
,
0010
0100
0010
0000
0001
0000
0010
0000
,
0100
1000
0001
0000
0100
0000
0010
0000
,
1000
0100
0010
0000
0001
0000
1000
0000
,
0010
0100
0001
0000
0010
0000
0001
0000
,
1000
0010
0100
0000
0001
0000
1000
0000
,
0100
0010
0001
0000
1000
0000
0010
0000
,
1000
0100
1000
0000
0010
0000
1000
0000
,
0001
0010
0100
0000
1000
0000
0010
0000
,
1000
0001
0100
0000
2002
0000
0000
0000
,
0000
0000
0000
3003
,
1000
0000
0001
0000
,
0100
0010
0100
0000
,
2002
3003
0000
0000
;

//---------------dance-single - ----------------
#NOTES:
     dance-single:
     :
     Challenge:
     18:
     0.996,1.000,0.583,0.233,0.558:
0000
0000
0000
0000
,
1000
0000
0100
0000
1100
0000
0000
0001
0000
0100
0010
1000
0001
0100
0000
1000
,
0001
0000
0001
0100
0000
0100
1000
0000
1000
0001
0000
0001
0010
1000
0010
1000
,
0001
0000
0100
0000
0101
0000
0000
0010
0000
1000
0100
1000
0001
0010
0000
0001
,
1000
0000
0010
0000
1000
0000
0010
0000
1000
0000
0000
0000
0001
0000
0000
0000
0100
0000
0000
0000
0001
0000
0000
0000
1000
0000
0000
0000
0100
0000
0000
0000
1100
0000
0000
0000
0000
0110
0000
0000
0000
0000
0011
0000
0000
0000
0000
0000
0001
0000
0000
0000
0000
0000
0000
0000
1000
0000
0000
0000
0000
0000
0000
0000
,
1001
0000
0100
1000
0000
1000
0010
0100
0001
1000
0000
0010
0100
0010
0000
0000
,
1000
0000
0100
0000
0000
0000
0000
0000
0001
0000
1000
0000
0000
0000
0000
0000
0010
0100
0010
0100
0010
0000
0000
0000
1000
0000
0000
0000
1001
0000
0100
0000
,
0000
0000
0011
0000
0100
0000
0000
0000
1001
0000
0010
0000
0000
0000
1100
0000
0001
0000
0000
0000
0100
0000
0000
0000
0010
1000
0010
1000
0010
1000
0010
1000
,
0001
0010
0001
0010
0001
0010
0001
0010
0100
0000
0000
0000
0000
0000
0000
0000
1001
0000
0000
0000
1000
0000
0000
0000
1100
0000
0100
0000
0010
0000
0001
0000
,
1000
0010
0100
0010
1000
0001
2000
0000
3100
0010
0001
0000
0100
0010
0100
0001
,
1000
0100
1000
0010
0100
0001
1000
0010
1010
0000
0101
0000
0010
0001
1000
0100
,
1000
0010
1010
0000
0100
0110
0000
0001
0101
0010
1000
0000
0100
0010
0100
1000
,
0001
0010
1000
0010
0001
0100
0010
0000
1001
0000
1100
0000
0010
0010
0001
0100
,
1000
0001
1000
0100
0010
1000
0001
0010
0001
0100
1000
0000
0100
0001
1000
0000
,
0010
1000
0100
1000
0010
0100
0001
0000
1100
0000
0100
0110
0000
0001
0011
0000
,
1000
1010
0000
0100
0101
0000
0010
0000
0110
0000
1010
0000
0001
1000
0001
1000
,
0100
0010
0100
0010
0100
0010
0100
0010
0100
0020
0000
0000
0031
0000
0000
0100
0000
0000
2000
0000
0000
0000
0000
0000
,
3100
0010
0200
0000
0301
0010
2000
0000
,
3001
0100
1000
0010
0100
0001
2000
0000
,
3100
0010
0002
0000
0013
0001
2000
0000
,
3010
0100
0001
0010
1000
0010
0002
0000
,
1003
0100
0020
0000
1030
0010
0002
0000
,
0103
0001
0100
0010
1000
0100
2000
0000
,
3100
0001
0200
0000
0310
0001
2000
0000
,
3010
0100
0010
0100
0010
0000
0000
0000
1000
0000
0000
0000
1200
0000
0000
0000
,
0310
0001
1001
0000
0010
0000
0201
0000
,
0310
1000
1010
0000
0100
0000
2001
0000
,
3010
0100
0110
0000
0001
0000
1020
0000
,
0130
0001
0101
0000
0010
0000
1002
0000
,
0103
0010
0110
0000
1000
0000
1020
0000
,
0130
0001
1001
0000
0100
0010
0100
0010
,
1000
0100
1000
0100
0010
0001
0010
0001
,
0100
0010
0100
0010
0100
0000
0000
0000
1000
0000
0100
0000
0001
0000
0100
0000
,
0010
0001
0100
0010
1000
0001
0010
0100
,
1000
0001
0100
1000
0100
0001
0010
0001
,
1000
0010
0001
1000
0100
0010
1000
0001
,
0100
0001
1000
0000
0001
0010
1000
0010
,
0100
1000
0010
0100
0001
1000
0100
0010
,
0001
1000
0010
0001
0010
1000
0100
1000
,
0001
0100
1000
0001
0010
0100
0001
1000
,
0010
0100
0010
0100
0010
0000
0000
0000
1000
0000
0000
0000
0100
0000
0000
0000
,
1000
0010
0100
0001
,
0010
0100
1000
0010
,
0100
0000
0001
0000
1000
0100
1000
0100
,
0010
0001
0010
0001
0100
0000
0010
0000
,
1000
0100
1000
0010
,
0100
0001
0010
0100
,
1000
0000
0001
0000
0100
0010
0100
0010
,
1000
0010
1000
0010
0100
0000
0001
0000
,
1000
0100
1000
0010
,
0100
0001
0010
1000
,
0010
0000
0100
0000
1000
0100
1000
0100
,
0010
0100
0010
0100
1000
0000
0001
0000
,
1000
0100
0010
0001
,
0100
1000
0100
0001
,
1000
0000
0010
0000
1000
0001
1000
0000
,
1001
0000
0000
0000
0000
0000
0000
0000
0101
0000
0000
0000
0000
0000
0000
0000
1000
0100
0000
1000
0000
0010
0000
0100
0001
0000
0000
0000
0000
0000
0000
0000
,
0010
0001
0000
1000
0000
0100
0000
0000
0000
0000
0000
0000
0000
0000
0000
0000
0001
0000
0000
0010
0000
0001
0000
0000
0000
0000
0000
0000
0000
0000
0000
0000
,
0100
0001
0000
1000
0000
0100
0000
0000
0000
0000
0000
0000
0000
0000
0000
0000
1000
0000
0000
0000
0000
0000
0000
0000
1100
0000
0000
0000
0000
0000
0100
0000
,
0010
0000
0001
0000
0201
0000
1000
0000
0310
0000
0000
0000
1001
0000
0000
1000
,
0100
0000
0010
0000
1020
0000
0001
0000
0130
1000
0000
1000
0001
0000
0001
0100
,
0000
0100
0010
0000
0010
1000
0100
0000
1001
0000
1001
0000
0100
0010
0100
0010
,
1000
0100
1000
0100
1000
0100
2000
0000
0000
3002
0000
0000
0013
0000
0000
0000
0000
0000
0011
0000
0000
0000
0000
0000
,
1000
0100
0001
1000
0010
0001
1000
0100
,
0001
1000
0010
0001
0100
0000
0110
0000
,
1000
0010
0001
1000
0100
0001
1000
0010
,
0001
1000
0100
0001
0010
0000
1001
0000
,
0100
1000
0100
0001
1000
0001
0100
1000
,
0100
0001
1000
0001
0100
0000
1100
0000
,
1000
0001
1000
0100
0001
0100
1000
0001
,
1000
0100
0001
0100
0010
0000
0011
0000
,
0100
0010
0100
0001
0010
1000
0010
0100
,
1000
0010
0100
0001
1000
0000
1100
0000
,
0010
1000
0100
1000
0001
0010
1000
0010
,
0100
1000
0010
0100
0001
0000
0101
0000
,
1000
0010
0001
0010
0100
0001
0010
1000
,
0010
0100
1000
0010
0100
0000
1001
0000
,
0100
1000
0010
1000
0001
0010
0100
1000
,
0010
0100
0001
1000
0010
0000
0000
0000
1001
0000
0000
0000
0101
0000
0000
0000
,
0010
0100
0010
1000
0100
0001
0100
0010
,
0001
0100
0010
1000
1001
0000
0011
0000
,
0100
0001
0010
0001
1000
0100
0001
0100
,
0010
0001
0100
0010
1010
0000
1100
0000
,
0001
0100
1000
0100
0010
1000
0100
0001
,
0100
0010
0001
0100
0110
0000
1001
0000
,
0010
0001
0100
0001
1000
0100
0010
0001
,
0100
0010
1000
0001
0100
0000
0000
0000
1001
0000
0000
0000
1010
0000
0000
0000
,
0100
0010
0100
0001
0010
1000
0010
0100
,
1000
0010
0100
0001
1001
0000
1100
0000
,
0010
1000
0100
1000
0001
0010
1000
0010
,
0100
1000
0010
0100
0101
0000
0011
0000
,
1000
0100
1000
0010
0100
0001
0010
0100
,
1000
0001
0100
0010
1000
0100
0001
0100
,
1000
0010
0100
0001
0100
1000
0001
0010
,
1000
0001
1000
0001
1000
0000
0000
0000
0220
0000
0000
0000
0000
0000
0000
0000
,
0000
0000
0000
0330
,
0001
0100
0001
0000
1000
0001
1000
0000
,
0100
0010
0001
0100
,
2002
3003
0000
0000
;

//---------------dance-single - ----------------
#NOTES:
     dance-single:
     :
     Easy:
     9:
     0.352,0.614,0.117,0.150,0.000:
0000
0000
0000
0000
,
0100
0010
1000
0000
0200
0000
0310
0000
,
0001
1000
0001
1001
,
0100
1000
0010
0000
2000
0000
3100
0000
,
0010
0001
1000
0000
0020
0000
0130
0001
,
1000
0200
1300
0011
,
1100
1001
0110
0002
,
0100
0100
0103
2000
,
0010
0000
3010
0000
0001
1000
0100
0000
,
1000
0100
0010
0000
0001
1000
0100
0000
,
0010
0100
0001
0000
2000
0000
3100
0000
,
0010
1000
0001
0000
0200
0000
0301
0000
,
0010
0100
1000
0000
0001
1000
0010
0000
,
0100
0001
0010
0000
0100
1000
0010
0000
,
1000
0001
0100
0000
1020
0000
0100
0000
,
0100
0130
0012
1000
,
1000
1000
1003
0000
0010
0000
0000
0000
,
1000
0000
0100
1000
,
0010
0000
1000
0000
,
0001
0000
0010
0001
,
0100
0000
0001
0000
,
0010
0000
0100
1000
,
0001
0000
1000
0000
,
0010
0000
1000
0100
,
0010
0000
0001
0000
,
1000
0000
0010
1000
,
0100
0000
1000
0000
,
0001
0000
0010
0001
,
0100
0000
0010
0000
,
0100
0000
0001
1000
,
0100
0000
1000
0000
,
0001
0000
0010
0100
,
1000
0000
0010
1000
,
0010
0000
1000
0000
,
0001
0000
0100
0001
,
0100
0000
0001
0000
,
1000
0000
0010
0100
,
0010
0000
1000
0000
,
0001
0000
1000
0100
,
1000
0000
0010
0000
,
1000
0000
0100
0000
,
0000
0000
0100
0000
,
0000
0000
1000
0000
,
0000
0000
0001
0000
,
0000
0000
0010
0000
,
0000
0000
0010
0000
,
0000
0000
0001
0000
,
0000
0000
1000
0000
,
0000
0000
0010
0000
,
0000
0000
0010
0000
,
0000
0000
1000
0000
,
0000
0000
0100
0000
,
0000
0000
1000
0000
,
0000
0000
1000
0000
,
0000
0000
0100
0000
,
0000
0000
0010
0000
,
0000
0000
2002
0000
,
0000
0000
0000
0000
,
0000
3003
0100
0001
,
0000
1000
0100
0000
1000
0000
0001
0000
,
0000
0010
0100
0000
2000
0000
0100
0000
,
3100
1100
0002
0100
,
0103
0000
0001
1000
0010
0000
0000
0000
,
1000
0000
0000
0100
0000
0000
0001
0000
,
0000
0100
0000
0000
1000
0000
0000
0000
,
0001
0000
0000
0010
0000
0000
1000
0000
,
0000
0010
0000
0000
0001
0000
0000
0000
,
1000
0000
0000
0100
0000
0000
0010
0000
,
0000
0001
0000
0000
1000
0000
0000
0000
,
0010
0000
0000
1000
0000
0000
0001
0000
,
0000
0100
0000
0000
0110
0000
0000
0000
,
0001
0000
0000
1000
0000
0000
0100
0000
,
0000
1000
0000
0000
0010
0000
0000
0000
,
1000
0000
0000
0100
0000
0000
0010
0000
,
0000
0001
0000
0000
1000
0000
0000
0000
,
0001
0000
0000
0010
0000
0000
1000
0000
,
0000
0010
0000
0000
0001
0000
0000
0000
,
0100
0000
0000
0010
0000
0000
1000
0000
,
0000
0001
0000
0000
1100
0000
0000
0000
,
0010
1000
0100
1000
,
0001
0000
0100
0000
,
0001
0010
0100
0010
,
0001
0000
1000
0000
,
0010
1000
0100
1000
,
0001
0000
0100
0000
,
0010
1000
0010
0100
,
0001
0000
1100
0000
,
0010
1000
0100
1000
,
0001
0000
0010
0000
,
0001
1000
0100
1000
,
0010
0000
0100
0000
,
0010
1000
0100
1000
,
0001
0000
0010
0001
,
1000
0100
1000
0010
,
0100
0000
2002
0000
,
0000
0000
0000
3003
,
0100
0000
0000
0000
,
0010
0000
0000
0000
,
2002
3003
0000
0000
;

//---------------dance-single - ----------------
#NOTES:
     dance-single:
     :
     Hard:
     16:
     0.865,1.000,0.500,0.100,0.333:
0000
0000
0000
0000
,
0001
0000
0010
0000
0011
0000
0000
1000
0000
0010
0100
0001
1000
0010
0000
0001
,
1000
0000
1000
0010
0000
0010
0001
0000
0001
1000
0000
1000
0100
0001
0100
0001
,
1000
0000
0010
0000
1010
0000
0000
0100
0000
0001
0010
0001
1000
0100
0000
1000
,
0001
0000
0000
0000
0100
0000
0000
0000
0010
0000
0000
0000
1000
0000
0000
0000
0010
0000
0000
0000
0100
0000
0000
0000
0001
0000
0000
0000
0000
0000
0000
0000
0011
0000
0000
0000
0000
0110
0000
0000
0000
0000
1100
0000
0000
0000
0000
0000
1000
0000
0000
0000
0000
0000
0000
0000
0001
0000
0000
0000
0000
0000
0000
0000
,
1001
0000
0010
0001
0000
0001
0100
0010
1000
0001
0000
0100
0010
0100
0000
0000
,
0001
0010
0000
0000
1000
0001
0000
0000
0100
0010
1000
0000
0101
0000
0000
1100
,
0000
0000
1010
0000
0000
1001
0000
0000
0011
0000
0100
0000
1000
0100
0010
0001
,
1000
0010
1000
0001
0100
0000
0000
0000
1001
0000
0001
0000
0011
0000
0100
1000
,
0001
0100
0010
0100
0001
1000
0002
0000
0013
0100
1000
0000
0010
0100
0010
1000
,
0001
0010
0001
0100
0010
1000
0001
0000
0101
0000
1010
0000
0100
1000
0001
0010
,
0001
0000
0101
0000
0000
0110
0000
0000
1010
0000
0001
0000
0010
0100
0010
0001
,
1000
0100
0001
0100
1000
0010
0100
0000
1001
0000
0011
0000
0100
0000
1000
0100
,
0010
0001
1000
0010
0100
0001
1000
0100
1000
0010
0100
0000
0010
1000
0001
0000
,
0100
0001
0010
0001
0100
0010
1000
0000
0011
0000
0000
0110
0000
0000
1100
0000
,
0000
0101
0000
0000
1010
0000
0100
0000
0110
0000
0101
0000
1000
0001
1000
0001
,
0100
0010
0100
0010
0100
0010
2000
0000
3001
0000
0000
0000
1000
0000
0000
0000
,
0100
1000
0010
0000
0100
0000
0110
0000
,
0100
0001
0010
0100
1000
0000
0001
0000
,
1000
0100
0010
0000
0001
0000
0101
0000
,
0010
0001
0100
0010
1000
0000
0001
0000
,
1000
0100
0010
0000
0100
0000
0011
0000
,
1000
0100
1000
0010
0100
0000
0001
0000
,
1000
0100
0010
0000
0001
0000
1100
0000
,
1000
0010
0100
0001
1000
0010
1000
0000
,
0001
0100
0001
0000
0010
0100
0010
0000
,
0001
1000
0001
1000
0100
0010
0100
0000
,
1000
0100
1000
0000
0001
0100
0001
0000
,
1000
0010
1000
0010
0100
0001
0100
0000
,
0001
1000
0001
0000
1000
0100
1000
0000
,
0001
0010
0001
0010
0100
1000
0100
0000
,
1000
0001
1000
0000
0010
0100
0010
0000
,
1000
0001
1000
0001
1000
0010
0100
0000
,
0001
0010
0100
0000
1000
0001
0100
0000
,
0010
1000
0100
0000
1000
0001
0100
0000
,
0010
0100
0001
0000
0010
0100
1000
0000
,
0001
1000
0100
0000
0010
0001
0010
0000
,
0100
1000
0001
0000
1000
0010
0100
0000
,
0001
1000
0100
0000
0010
0001
1000
0000
,
0100
1000
0010
0000
0100
0001
0010
0000
,
0100
1000
0010
0100
0001
0000
1000
0000
,
0100
1000
0010
0100
,
0001
0010
1000
0010
,
0100
1000
0010
0100
,
0001
1000
0100
0010
,
0001
0100
0010
1000
,
0001
0100
0001
0100
,
0010
1000
0010
1000
,
0100
0010
0001
0100
,
0010
1000
0100
0001
,
0100
1000
0010
0100
,
0001
0010
0100
0010
,
0100
0010
0001
1000
,
0100
1000
0001
0100
,
0010
1000
0001
1000
,
0010
0100
0001
0010
,
0100
0000
1000
0000
0002
0100
0103
0000
,
2000
0100
3100
0000
0020
0100
0130
0000
,
0002
0000
1000
0000
1003
0000
0000
0000
1010
0000
0010
1000
0100
0000
0000
0000
,
0100
0000
1000
0000
1001
0000
0000
0000
0101
0000
0001
0100
0010
0000
0000
0000
,
0010
0000
1000
0000
1001
0000
0000
0000
0110
0000
0000
0011
0000
0000
1100
0000
,
0000
1001
0000
0000
1010
0000
0000
0000
1001
0000
1100
0000
0001
1000
0001
1000
,
0100
1000
0100
1000
0020
0000
0230
0000
0301
0000
0000
0000
1100
0000
0000
0000
,
0001
1000
0100
1000
0001
1000
0100
1000
,
0001
1000
0100
1000
0010
0000
0101
0000
,
0010
0100
0001
0100
0010
0100
0001
0100
,
0010
0100
0001
0100
0010
0000
1001
0000
,
0010
0001
1000
0001
0010
0001
1000
0001
,
0010
0001
1000
0001
0010
0000
1100
0000
,
0001
0100
1000
0100
0001
0100
1000
0100
,
0001
0100
1000
0100
0001
0000
1100
0000
,
0001
0010
0100
1000
0001
0010
0100
1000
,
0001
0010
0100
1000
0001
0000
1010
0000
,
1000
0100
0010
0001
1000
0100
0010
0001
,
1000
0100
0010
0001
1000
0000
0110
0000
,
0001
0100
0010
1000
0001
0100
0010
1000
,
0001
0100
0010
1000
0001
0000
0110
0000
,
1000
0010
0100
0001
1000
0010
0100
0001
,
1000
0010
0100
0001
1000
0000
1001
0000
,
0010
1000
0100
0001
0100
0010
1000
0010
,
0001
0100
0010
1000
0001
0000
1001
0000
,
0001
0100
1000
0100
0010
1000
0010
0100
,
0001
0010
1000
0010
0100
0000
0011
0000
,
0100
1000
0010
0001
0010
0100
0001
0010
,
1000
0010
0100
1000
0001
0000
1100
0000
,
0010
0100
0001
0010
1000
0010
0100
1000
,
0010
0100
0001
0010
0100
0000
0110
0000
,
0001
0010
1000
0010
0001
0100
1000
0100
,
0001
0010
1000
0010
0001
0000
1001
0000
,
1000
0100
0001
0100
1000
0010
0001
0010
,
1000
0100
0001
0100
1000
0000
0101
0000
,
0010
1000
0010
0100
0001
0010
0001
1000
,
0100
0001
0100
1000
0010
0000
0110
0000
,
1000
0100
0001
1000
0010
0001
0100
1000
,
0100
0001
1000
0000
2002
0000
0000
0000
,
0000
0000
0000
3003
,
0010
1000
0100
0010
,
0001
1000
0010
1000
,
0000
2002
0000
0000
0000
0000
0000
0000
0000
0000
0000
0000
0000
0000
0000
0000
0000
0000
0000
0000
0000
0000
0000
0000
0000
0000
0000
0000
0000
0000
0000
0000
0000
0000
0000
0000
0000
0000
0000
0000
0000
0000
0000
0000
0000
0000
0000
0000
3003
0000
0000
0000
0000
0000
0000
0000
0000
0000
0000
0000
0000
0000
0000
0000
0000
0000
0000
0000
0000
0000
0000
0000
0000
0000
0000
0000
0000
0000
0000
0000
0000
0000
0000
0000
0000
0000
0000
0000
0000
0000
0000
0000
0000
0000
0000
0000
0000
0000
0000
0000
0000
0000
0000
0000
0000
0000
0000
0000
0000
0000
0000
0000
0000
0000
0000
0000
0000
0000
0000
0000
0000
0000
0000
0000
0000
0000
0000
0000
0000
0000
0000
0000
0000
0000
0000
0000
0000
0000
0000
0000
0000
0000
0000
0000
0000
0000
0000
0000
0000
0000
0000
0000
0000
0000
0000
0000
0000
0000
0000
0000
0000
0000
0000
0000
0000
0000
0000
0000
0000
0000
0000
0000
0000
0000
0000
0000
0000
0000
0000
0000
0000
0000
0000
0000
0000
0000
0000
0000
0000
0000
0000
0000
;
