#TITLE:Whistle;
#SUBTITLE:;
#ARTIST:Flo Rida;
#TITLETRANSLIT:;
#SUBTITLETRANSLIT:;
#ARTISTTRANSLIT:;
#CREDIT:;
#BANNER:Whistle-bn.png;
#BACKGROUND:Whistle-bg.png;
#LYRICSPATH:;
#CDTITLE:;
#MUSIC:Whistle.mp3;
#OFFSET:-1.200;
#SAMPLESTART:56.628;
#SAMPLELENGTH:12.360;
#SELECTABLE:YES;
#BPMS:0.000=104.000;
#STOPS:94.000=0.620
;
#BGCHANGES:-2.000=Whistle.avi=1.000=1=0=0,
99999=-nosongbg-=1.000=0=0=0 // don't automatically add -songbackground-
;

//---------------dance-single - ----------------
#NOTES:
     dance-single:
     :
     Beginner:
     1:
     0.099,0.121,0.016,0.000,0.000:
0000
0000
0000
0000
,
0000
0000
0000
0000
,
0100
0000
0001
0001
,
0000
0000
1000
1000
,
0000
0000
0100
0000
,
0100
0000
1000
0000
,
0010
0000
0000
0000
,
1000
0000
0000
0000
,
0001
0000
0001
0000
,
0010
0000
0100
0100
,
0100
0000
0000
0000
,
1000
0000
0010
0000
,
1000
0000
0000
0000
,
0001
0001
0000
0000
,
0010
0000
0000
0000
,
0100
0100
0000
0000
,
1000
0000
0000
0000
,
0010
0000
0000
0000
,
1000
0000
0000
0000
,
0001
0000
0000
0000
,
0010
0000
0010
0000
,
0100
0000
0000
0000
,
1000
0000
1000
0000
,
0100
0000
0100
0000
,
0000
1000
1000
0000
,
0000
0001
0001
0000
,
0000
0100
0100
0000
,
0000
0010
0010
0000
,
0000
1000
1000
0000
,
0000
0001
0001
0000
,
0000
0010
0010
0000
,
0000
0100
0100
0000
,
0000
0000
0000
1000
,
1000
0000
0000
0010
,
0010
0000
0000
0100
,
0100
0100
0100
0000
,
0000
0000
0000
0001
,
0001
0001
0001
0000
,
0000
0000
0000
1000
,
0000
1001
0000
0110
,
0000
0000
0000
0100
,
0100
0100
0000
1000
,
0000
0000
0000
0001
,
0001
0001
0000
0010
,
0000
0000
0000
0100
,
0100
0100
0000
0010
,
0000
0000
0000
1000
,
0000
0001
0000
0100
,
0000
0000
0010
0000
,
0000
0000
0010
0000
;

//---------------dance-single - ----------------
#NOTES:
     dance-single:
     :
     Medium:
     6:
     0.274,0.304,0.033,0.155,0.000:
0000
0000
0000
0000
,
0000
0000
0000
0000
,
0100
0000
1010
0000
0100
0001
1000
0000
,
0001
0000
0110
0000
0001
0010
0100
0000
,
2000
0000
3100
0000
0010
0001
0100
0000
,
0020
0000
0130
0000
0001
0100
0010
0000
,
2000
0000
3001
0000
0010
0100
1000
0000
,
0020
0000
1030
0000
0100
1000
0001
0000
,
0200
0000
0300
0000
0001
1000
0001
0000
,
2000
0000
3000
0000
0100
1000
0100
0000
,
0020
0000
0030
0000
0100
1000
0100
0000
,
1000
0001
0100
0100
,
0002
0013
0001
1000
,
0200
0000
1300
0000
0010
1000
0100
1000
,
0020
0130
0001
0010
,
0002
0000
1003
0000
0100
1000
0010
0100
,
0002
0000
0203
0000
,
0010
0010
0310
0000
,
2000
0000
3002
0000
,
0010
0010
0013
0000
,
0200
0000
2300
0000
,
0010
0010
3010
0000
,
0002
0000
2003
0000
,
0100
0100
3100
1001
,
0000
0000
1000
0100
0010
0001
1000
0000
,
0000
0000
0001
0010
0100
1000
0001
0000
,
0000
0000
1000
0100
0010
0001
1000
0000
,
0000
0000
0001
0010
0100
1000
0001
0000
,
0000
0000
0100
0010
1000
0001
0100
0000
,
0000
0000
0010
0100
0001
1000
0010
0000
,
0000
0000
0100
0010
1000
0001
0100
0000
,
0000
0000
0010
0100
0001
1000
0010
0000
,
0000
1000
0000
0100
,
0000
0010
0000
0001
,
0000
0000
1000
0000
0000
0000
0010
0010
,
0100
0100
0010
0010
0100
0100
0010
0000
,
0000
0000
1000
0100
0010
0000
0001
0000
,
0000
0000
0010
0001
0100
0000
0010
0000
,
0000
0000
0100
0001
1000
0000
0100
0010
,
0100
0010
0100
0000
0000
0000
0001
0001
,
0100
0100
0001
0001
0100
0100
0000
0000
,
0000
0000
0000
0000
0000
0000
0010
0010
,
1000
1000
0010
0010
1000
1000
0000
0000
,
0000
0000
0000
0000
0000
0000
0100
0100
,
0010
0010
0100
0100
0010
0000
0001
0001
,
1000
1000
0001
0001
1000
0000
0010
0010
,
1000
1000
0010
0010
1000
0000
0001
0001
,
0100
0100
0001
0001
0100
0000
1001
0000
,
0000
0000
0100
1000
0100
1000
0010
0000
,
0000
0000
0100
0001
0100
0001
0010
0000
;

//---------------dance-single - ----------------
#NOTES:
     dance-single:
     :
     Hard:
     9:
     0.382,0.385,0.090,0.187,0.102: // measure 1
0000
0000
0000
0000
,  // measure 2
0000
0000
0000
0000
,  // measure 3
0200
0000
0000
0000
0310
0100
0001
1000
,  // measure 4
0002
0000
0000
0000
0013
0001
1000
0100
,  // measure 5
1100
0000
0000
0010
0100
0010
1000
1000
,  // measure 6
0100
0000
1000
0100
1000
0001
0010
0000
,  // measure 7
0001
0000
0100
0000
0010
0100
0001
0000
,  // measure 8
0010
0001
1000
0000
0100
1000
0010
1000
,  // measure 9
0000
0000
0000
0000
0100
0000
1000
0000
0100
0000
1000
0000
0002
0000
0000
0013
,  // measure 10
0000
0000
0000
0000
0010
0000
0100
0000
0010
0000
0100
0000
2000
0000
0000
3010
,  // measure 11
0000
0000
0000
0000
0001
0000
0100
0000
0001
0000
0100
0000
0020
0000
0000
0130
,  // measure 12
0000
0000
0001
0000
1000
0100
1000
0000
0010
0000
1000
0000
0002
0000
0000
0103
,  // measure 13
0000
0001
1000
0100
1000
0001
0100
0100
,  // measure 14
0001
0010
0100
0010
0001
1000
0001
0001
,  // measure 15
0010
1000
0010
0100
1000
0010
0100
0100
,  // measure 16
0010
1000
0001
0010
0100
0010
0001
0001
,  // measure 17
0200
0310
2000
3010
,  // measure 18
0002
0000
0000
0100
0003
0000
2000
0000
0000
0000
0010
0000
3010
0000
0000
0000
,  // measure 19
0200
0310
2000
3100
,  // measure 20
0002
0000
0000
1000
0003
0000
0020
0000
0000
0000
0100
0000
0130
0000
0000
0000
,  // measure 21
2000
0100
0010
0010
,  // measure 22
0100
0000
0000
0100
0000
0000
0100
0000
0000
0000
0001
0000
0001
0000
0000
0000
,  // measure 23
3020
0001
0100
0001
,  // measure 24
2030
3002
0003
0110
,  // measure 25
0001
0100
1000
0100
0010
0000
1000
0000
,  // measure 26
0100
1000
0010
1000
0001
0000
0010
0000
,  // measure 27
0001
0010
1000
0010
0001
0000
1000
0000
,  // measure 28
0100
1000
0010
0100
0001
0000
0200
0000
,  // measure 29
0000
0000
0000
0000
0301
0000
0010
0000
0100
0000
1000
0001
2000
0000
0000
0000
,  // measure 30
0000
0000
0000
0000
3010
0000
1000
0000
0100
0000
0010
0100
0020
0000
0000
0000
,  // measure 31
0000
0000
0000
0000
0031
0000
0100
0000
0001
0000
1000
0100
2000
0000
0000
0000
,  // measure 32
0000
0000
3010
0100
0110
0000
0001
0100
,  // measure 33
0010
0100
0000
0000
0001
0010
0001
1000
,  // measure 34
0100
1000
0000
0000
0010
1000
0100
1000
,  // measure 35
0001
0010
0000
0000
0001
0100
0010
0010
,  // measure 36
0100
0100
0001
0001
1000
1000
0010
0000
,  // measure 37
1000
0000
0100
0000
1000
0000
0001
0000
0100
0000
0000
0000
0010
0000
1000
0100
,  // measure 38
1000
0000
0001
1000
0001
0000
0100
0001
0100
0000
0010
0100
0000
0000
1001
0000
,  // measure 39
0000
0000
0100
0000
1000
0000
0100
0000
0010
0000
0001
0000
0100
0010
0100
0010
,  // measure 40
0100
0010
0100
0010
0100
0000
0000
0000
0000
0000
0000
0000
1000
0000
1000
0000
,  // measure 41
0100
0000
0001
0000
1000
0000
1000
0000
0010
0000
0001
0000
1000
0000
0000
0110
,  // measure 42
0000
1001
0000
0100
0100
0000
0001
0001
,  // measure 43
0010
0000
1000
0000
0001
0000
0001
0000
0100
0000
1000
0000
0001
0000
0000
0101
,  // measure 44
0000
1010
0000
0000
0100
0010
1000
0100
,  // measure 45
0010
0000
0001
0000
0100
0000
0010
0000
1000
0000
0100
0000
1000
0000
0000
0001
,  // measure 46
0000
0101
0000
0000
0010
0001
1000
1000
,  // measure 47
0010
0001
1000
1000
0100
0001
1000
0100
,  // measure 48
0010
0000
0001
0000
1000
0000
0000
0001
0000
0000
1001
0000
0102
0000
0000
0000
,  // measure 49
0000
0000
0000
0000
0013
0000
0001
0000
1000
0000
0100
1000
0000
0000
0000
0000
,  // measure 50
0000
0000
0000
0000
0010
0000
0100
0000
0001
0000
0010
0100
0000
0000
0000
0000
;

//---------------dance-single - ----------------
#NOTES:
     dance-single:
     :
     Easy:
     3:
     0.192,0.182,0.098,0.122,0.000:
0000
0000
0000
0000
,
0000
0000
0000
0000
,
0100
0001
1000
1000
,
0010
1000
0001
0001
,
0010
0000
0100
0100
,
1000
0000
0010
0010
,
1000
0000
0001
0001
,
0100
0000
0001
0010
,
0100
0000
1000
0001
,
1000
0000
0010
1000
,
0100
0000
1000
0100
,
0010
0000
0001
1000
,
0100
0100
1000
0010
,
1000
1000
0001
0010
,
0001
0000
0100
0001
,
0010
0000
0100
1000
,
0020
0030
0200
0300
,
0020
0030
2000
3000
,
0200
0300
0020
0030
,
0002
0003
2000
3000
,
0002
0003
2000
3000
,
0200
0300
0020
0030
,
0200
0300
2000
3000
,
0002
0000
1003
0110
,
0000
1000
0100
1100
,
0000
0001
0100
0101
,
0000
0010
0100
0110
,
0000
0001
0010
0011
,
0000
0100
1000
1100
,
0000
0010
0100
0110
,
0000
0001
1000
1001
,
0000
0001
0010
0011
,
0000
0100
0000
0100
,
0000
1000
0100
0100
,
0000
0010
0000
0001
,
1000
0001
1000
0001
,
0000
0100
0000
0001
,
1000
0100
1000
0100
,
0000
1000
0000
0010
,
0100
0001
0000
1001
,
0000
0110
0000
0001
,
0001
0001
0000
1000
,
0100
0010
0000
0001
,
0001
0001
0000
0100
,
0010
0100
0010
1000
,
0100
1000
0000
0001
,
0000
1000
0000
0010
,
0000
0100
0010
0110
,
0000
0001
0100
0100
,
0000
1000
0100
0100
;
