#TITLE:When Love Takes Over;
#SUBTITLE:;
#ARTIST:DAVID GUETTA feat. KELLY ROWLAND;
#TITLETRANSLIT:;
#SUBTITLETRANSLIT:;
#ARTISTTRANSLIT:;
#CREDIT:;
#BANNER:When Love Takes Over-bn.png;
#BACKGROUND:When Love Takes Over-bg.png;
#LYRICSPATH:;
#CDTITLE:;
#MUSIC:When Love Takes Over.mp3;
#OFFSET:-0.040;
#SAMPLESTART:72.700;
#SAMPLELENGTH:12.360;
#SELECTABLE:YES;
#BPMS:0.000=130.040;
#STOPS:;
#BGCHANGES:0.000=When Love Takes Over.avi=1.000=1=1=0,
99999=-nosongbg-=1.000=0=0=0 // don't automatically add -songbackground-
;

//---------------dance-single - ----------------
#NOTES:
     dance-single:
     :
     Beginner:
     1:
     0.099,0.130,0.000,0.000,0.000:
0000
0000
0000
0000
,
0000
0000
0000
0000
,
0000
0000
0000
0000
,
0000
0000
0000
0000
,
1000
0000
0000
0000
,
0010
0000
0000
0000
,
1000
0000
0000
0000
,
0001
0000
0000
0000
,
0010
0000
0000
0000
,
0100
0000
0000
0000
,
1000
0000
0000
0000
,
0001
0000
0000
0000
,
1000
0000
0000
0000
,
0010
0000
0000
0000
,
1000
0000
0000
0000
,
0100
0000
0000
0000
,
1000
1000
0000
0000
,
0010
0010
0000
0000
,
1000
0000
0001
0000
,
0100
0000
0000
0000
,
0001
0001
0000
0000
,
1000
1000
0000
0000
,
0010
0000
1000
0000
,
0100
0000
0000
0000
,
1000
0000
0000
0000
,
0010
0000
0000
0000
,
0100
0000
0100
0000
,
0100
0000
0000
0000
,
0010
0000
0000
0000
,
1000
0000
0000
0000
,
0001
0000
0001
0000
,
0001
0000
0000
0000
,
0000
0100
0000
0100
,
0000
0100
0000
0000
,
0000
0001
0000
0001
,
0000
0001
0000
0000
,
0000
1000
0000
1000
,
0000
1000
0000
0000
,
0000
0010
0000
0010
,
0000
0010
0000
0000
,
1000
1000
0000
0000
,
0100
0100
0000
0000
,
0010
0000
0100
0000
,
1000
0000
0000
0000
,
0001
0001
0000
0000
,
1000
1000
0000
0000
,
0010
0000
1000
0000
,
0100
0000
0010
0000
;

//---------------dance-single - ----------------
#NOTES:
     dance-single:
     :
     Medium:
     4:
     0.232,0.288,0.099,0.099,0.000:
0000
0000
0000
0000
,
0000
0000
0000
0000
,
0000
0000
0000
0000
,
0000
0000
0000
0000
,
0100
0000
0001
0000
,
1000
0000
0010
0000
,
1000
0100
0010
0001
,
1000
0000
0001
0000
,
0100
0000
0010
0000
,
1000
0010
0100
0000
,
0001
0000
1000
0000
,
0100
0100
1000
0010
,
0100
0000
0001
0000
,
0010
0000
0100
0000
,
0010
0001
1000
0100
,
1000
0000
0010
0100
,
0110
2002
0000
3003
,
0100
0010
0100
0000
0000
0000
1000
0000
,
0010
1000
0001
0010
,
0001
0000
0100
0000
,
1001
0220
0000
0330
,
1000
0100
1000
0000
0000
0000
0001
0000
,
1000
0010
0100
0010
,
1000
0000
0000
0000
,
1001
0000
0100
0100
,
1000
0010
0100
0000
,
0001
0010
0100
0000
,
1000
1000
0100
0000
,
1000
0001
0100
0000
,
0010
0000
1000
0100
,
1000
0010
0100
0000
,
0010
1000
0001
0000
,
0010
0001
1000
0100
,
1000
1000
1000
0000
,
0010
1000
0010
0100
,
0001
0000
1000
0000
,
0001
0010
0100
0010
,
0100
1000
0001
0000
,
1000
0001
0100
0000
,
0010
0000
1000
0000
,
1001
0220
0000
0330
,
0001
0100
0001
0000
0000
0000
1000
0000
,
0100
0010
0001
1000
,
0010
0000
0100
0000
,
0110
2002
0000
3003
,
0100
0010
0100
0000
0000
0000
1000
0000
,
0001
0010
0100
1000
,
0020
0100
0100
0130
;

//---------------dance-single - ----------------
#NOTES:
     dance-single:
     :
     Hard:
     8:
     0.423,0.419,0.132,0.230,0.000: // measure 1
0000
0000
0000
0000
,  // measure 2
0000
0000
0000
0000
,  // measure 3
0000
0000
0000
0000
,  // measure 4
0000
0000
0000
0000
,  // measure 5
1000
0000
0100
0000
1000
0100
0010
0000
,  // measure 6
0001
0000
1000
0000
0001
1000
0010
0000
,  // measure 7
0100
0100
0010
1000
,  // measure 8
0100
0010
0001
0000
1000
0001
0100
0000
,  // measure 9
0010
0000
1000
0000
0100
1000
0001
0000
,  // measure 10
0010
0001
1000
0000
,  // measure 11
0100
1000
0010
0000
1000
0001
0100
0000
,  // measure 12
0010
0000
0000
0000
0100
0001
1000
0000
,  // measure 13
0010
1000
0010
0100
0010
0000
1000
0100
,  // measure 14
0010
0001
0010
0100
1000
0000
0010
0000
,  // measure 15
1000
0001
0100
0010
1000
0000
0100
0000
,  // measure 16
1000
0000
0100
0010
0001
0010
0100
0000
,  // measure 17
2001
0000
3010
0000
0100
0000
1000
0010
,  // measure 18
0001
0010
1000
0000
0001
0000
0101
0000
,  // measure 19
0012
1003
2100
3010
,  // measure 20
0100
0010
1000
0000
0100
1000
0001
0000
,  // measure 21
0102
0000
1003
0000
0010
0000
1000
0100
,  // measure 22
0001
0100
1000
0000
0010
0000
1000
0001
,  // measure 23
0100
0001
0010
1000
0010
0100
1000
0000
,  // measure 24
0020
0000
0100
0130
,  // measure 25
1001
0000
1000
0100
0010
0000
0002
0000
,  // measure 26
0103
0000
1000
0001
0100
0000
2000
0000
,  // measure 27
3100
0000
2000
0000
3001
0010
0001
0100
,  // measure 28
0010
1000
0100
0000
1000
0100
0010
0000
,  // measure 29
0002
0000
0103
0000
1000
0010
0100
0000
,  // measure 30
2000
0000
3010
0000
0200
0000
0310
1000
,  // measure 31
0200
0000
0310
0001
0010
0100
1000
0000
,  // measure 32
0010
0000
0101
0000
0010
0010
0001
1000
,  // measure 33
0100
1000
0010
0000
0100
0000
1000
0100
,  // measure 34
0001
2000
3100
0002
,  // measure 35
1003
0000
0020
0000
0130
0001
0010
1000
,  // measure 36
0010
0000
0200
0000
2300
0000
3001
0100
,  // measure 37
0010
0101
1000
1100
,  // measure 38
0010
1000
0010
0000
0100
0001
0100
0000
,  // measure 39
0020
0000
1030
0000
0100
0010
0001
0000
,  // measure 40
1000
0100
0010
0001
0100
1000
0100
0000
,  // measure 41
1020
0000
0031
0000
0100
0000
0010
1000
,  // measure 42
0100
0001
0100
0000
1000
0000
0100
0000
,  // measure 43
0010
0001
1000
0100
0010
0001
1000
0000
,  // measure 44
0010
1000
0100
1000
0001
0100
0010
0000
,  // measure 45
0120
0000
0031
0000
1000
0000
0010
1000
,  // measure 46
0100
0001
1000
0000
0010
0000
0001
0100
,  // measure 47
1000
0100
0010
1000
0100
0010
0002
0000
,  // measure 48
1000
0100
0013
1100
;

//---------------dance-single - ----------------
#NOTES:
     dance-single:
     :
     Easy:
     2:
     0.180,0.209,0.055,0.241,0.000:
0000
0000
0000
0000
,
0000
0000
0000
0000
,
0000
0000
0000
0000
,
0000
0000
0000
0000
,
0100
0000
0000
0000
,
1000
0000
0000
0000
,
0001
0000
0000
0000
,
1000
0000
0000
0000
,
0200
0000
0000
0300
,
0020
0000
0000
0030
,
0002
0000
0000
0003
,
2000
0000
0000
3000
,
0020
0000
0000
0030
,
2000
0000
0000
3000
,
0200
0000
0000
0300
,
0020
0000
0100
0100
,
0130
0000
1000
0000
,
0010
1000
0100
0000
,
1000
0000
0001
0000
,
0200
0000
0010
0010
,
0310
0000
0100
0000
,
0001
1000
0100
0000
,
1000
0000
0010
0000
,
2002
0000
0000
3003
,
0010
0000
1000
0000
,
0100
0100
0010
0000
,
0001
0000
1000
0000
,
0001
0001
0100
0000
,
1000
0000
1100
0000
,
0010
0010
0100
0000
,
0010
0000
0101
0000
,
0010
0010
1000
0000
,
0200
0000
1300
0000
,
0010
0010
0010
0000
,
2000
0000
3100
0000
,
0001
0001
0001
0000
,
0200
0000
0301
0000
,
0010
0010
0010
0000
,
0200
0000
1300
0000
,
1100
0000
1001
0000
,
0100
0200
0000
0000
,
0010
0000
0000
0000
0000
0000
0000
0000
0000
0000
0000
0000
0000
0000
0000
0000
0000
0000
0000
0000
0000
0000
0000
0000
0000
0000
0000
0000
0000
0000
0000
0000
0000
0000
0000
0000
0000
0000
0000
0000
0000
0000
0000
0000
0000
0000
0000
0000
0320
0000
0000
0000
0000
0000
0000
0000
0000
0000
0000
0000
0000
0000
0000
0000
0000
0000
0000
0000
0000
0000
0000
0000
0000
0000
0000
0000
0000
0000
0000
0000
0000
0000
0000
0000
0000
0000
0000
0000
0000
0000
0000
0000
0000
0000
0000
0000
0000
0000
0000
0000
0000
0000
0000
0000
0000
0000
0000
0000
0000
0000
0000
0000
0000
0000
0000
0000
0000
0000
0000
0000
0000
0000
0000
0000
0000
0000
0000
0000
0000
0000
0000
0000
0000
0000
0000
0000
0000
0000
0000
0000
0000
0000
0000
0000
0000
0030
0000
0000
0000
0000
0000
0000
0000
0000
0000
0000
0000
0000
0000
0000
0000
0000
0000
0000
0000
0000
0000
0000
0000
0000
0000
0000
0000
0000
0000
0000
0000
0000
0000
0000
0000
0000
0000
0000
0000
0000
0000
0000
0000
0000
0000
0000
,
2000
3000
0200
0300
,
0020
0030
0000
0000
,
0001
0002
0000
0000
,
0103
0200
0000
0000
,
0310
0000
1000
0000
,
0100
0100
0100
0100
;
