#TITLE:The Magician;
#SUBTITLE:-The House of The Dead-;
#ARTIST:Tetsuya Kawauchi;
#TITLETRANSLIT:;
#SUBTITLETRANSLIT:;
#ARTISTTRANSLIT:;
#CREDIT:;
#BANNER:The Magician-bn.png;
#BACKGROUND:The Magician-bg.png;
#LYRICSPATH:;
#CDTITLE:;
#MUSIC:The Magician.mp3;
#OFFSET:-0.120;
#SAMPLESTART:6.728;
#SAMPLELENGTH:16.180;
#SELECTABLE:YES;
#BPMS:0.000=145.000;
#STOPS:;
#BGCHANGES:0.000=The Magician.avi=1.000=1=0=0,
99999=-nosongbg-=1.000=0=0=0 // don't automatically add -songbackground-
;

//---------------dance-single - ----------------
#NOTES:
     dance-single:
     :
     Beginner:
     1:
     0.117,0.195,0.010,0.000,0.000:
0000
0000
0000
0000
,
0000
0000
0000
0000
,
0000
0000
0000
0000
,
0000
0000
0000
0000
,
0010
0000
0000
0000
,
0100
0000
0000
0000
,
0001
0000
0000
0000
,
1000
0000
1000
0000
,
1000
0000
0000
0000
,
0010
0010
0000
0000
,
0100
0100
0000
0000
,
0001
0001
0000
0000
,
0010
0000
0000
0000
,
0001
0000
0000
0000
,
1000
0000
1000
0000
,
0100
0000
0100
0000
,
0010
0000
0000
0000
,
0001
0000
0000
0000
,
1000
0000
0000
0000
,
0010
0000
0100
0100
,
0100
0000
0000
0000
,
0001
0000
0000
0000
,
0010
0000
0010
0000
,
0001
0000
0001
0000
,
0100
0000
0000
0000
,
0001
0000
0000
0000
,
1000
0000
0100
0000
,
1000
0000
0000
0000
,
0010
0000
0000
0000
,
0100
0000
0000
0001
,
0001
0000
0000
0000
,
1000
0000
0000
0000
,
0010
0000
0000
0000
,
1000
0000
0000
0100
,
0100
0000
0000
0000
,
1000
0000
0000
0000
,
0001
0001
0000
0000
,
0001
0001
0000
0000
,
0100
0100
0000
0000
,
0100
0100
0000
0000
,
0010
0010
0000
0000
,
0010
0010
0000
0000
,
1000
1000
0000
0000
,
1000
1000
1000
1000
,
1000
0000
0000
0000
,
0000
0000
0000
0000
,
0100
0000
0100
0000
,
0010
0000
0010
0010
,
0010
0000
0000
0000
,
0001
0000
0000
0000
,
1000
0000
0000
0000
,
0010
0000
0010
0000
,
0010
0000
0000
0000
,
0100
0100
0000
0000
,
0001
0001
0000
0000
,
1000
1000
0000
0000
,
0010
0000
0000
0000
,
1000
0000
0000
0000
,
1001
0000
0000
0000
;

//---------------dance-single - ----------------
#NOTES:
     dance-single:
     :
     Medium:
     6:
     0.436,0.510,0.384,0.480,0.000:
0000
0000
0000
0000
,
0000
0000
0000
0000
,
0000
0000
0000
0000
,
0000
0000
0000
0000
,
0210
0010
0001
0310
,
0102
1000
0100
1003
,
2100
0100
0010
3100
,
0012
0013
2100
3100
,
0210
0000
0010
0000
0001
0000
0310
0100
,
0002
0000
0100
0000
0010
0000
0103
0010
,
2000
0000
0100
0000
0100
0000
3001
1000
,
0200
0010
0310
0000
,
2001
0001
0100
3001
,
0120
0100
1000
0130
,
0012
1003
2100
3010
,
0210
0301
2010
3001
,
0012
0000
0100
0000
0010
0000
0103
1000
,
0020
0100
2030
3200
,
0320
0032
0203
0320
,
2030
3002
1000
1003
,
0200
0000
0310
0001
,
0200
0000
0301
1000
,
0200
0000
1300
0010
,
2000
0000
3100
0110
,
0020
0000
0031
0100
,
0020
0000
0130
0001
,
2000
0000
3100
1000
,
0020
0000
0100
0130
,
0001
1000
0001
1000
0100
0000
0000
0000
,
1000
0100
1000
0100
0010
0000
0000
0000
,
0001
0010
0001
0010
0100
0000
0000
0000
,
1000
0001
1000
0001
0100
0000
0000
0000
,
0010
0100
0010
0100
0001
0000
0000
0000
,
1000
0100
1000
0100
0010
0000
0000
0000
,
0001
1000
0001
1000
0010
0000
0000
0000
,
0100
0001
0100
0001
0010
0000
0000
0000
,
0100
0010
0100
0000
1000
0000
1100
0000
,
0010
0110
1000
1010
,
0001
0100
0001
0000
0010
0000
0011
0000
,
0001
0101
1000
1100
,
0010
0100
0001
0000
0100
0000
0110
0000
,
1000
1100
0001
0101
,
1000
0001
0100
0000
0010
0000
0110
0000
,
1010
1100
0101
0011
,
2002
0000
0000
3003
,
0010
0010
0100
0100
,
0010
0100
0010
0100
0010
0100
0010
0100
,
0010
0100
0010
0100
0001
0000
1000
0000
,
2100
0000
0100
3010
,
0102
0000
1000
0103
,
1020
0000
0100
1030
,
2100
3100
0102
0103
,
2010
0000
0010
0000
0100
0000
3010
1000
,
0002
0000
0100
0000
0010
0000
0103
0001
,
2000
0000
0001
0000
0010
0000
3001
0010
,
0200
0010
0310
0000
,
2001
0001
0100
3100
,
1002
1000
0100
0103
,
2020
3030
0202
0303
,
1001
0000
0000
0000
;

//---------------dance-single - ----------------
#NOTES:
     dance-single:
     :
     Hard:
     11:
     0.503,0.510,0.394,0.288,0.058: // measure 1
0000
0000
0000
0000
,  // measure 2
0000
0000
0000
0000
,  // measure 3
0000
0000
0000
0000
,  // measure 4
0010
0100
0010
0100
0001
0100
0001
0100
,  // measure 5
0020
0000
1030
0000
0100
1000
0001
0000
,  // measure 6
0200
0000
0301
0000
0010
0001
0100
0000
,  // measure 7
0002
0000
0103
0000
1000
0010
0100
0000
,  // measure 8
0102
0013
2100
3001
,  // measure 9
0210
0000
0310
0000
0100
0001
0100
0010
,  // measure 10
2000
0000
3100
0000
0010
1000
0100
0010
,  // measure 11
0002
0000
0103
0000
0010
0100
0010
1000
,  // measure 12
0001
0010
0010
0100
0100
1000
0001
0000
,  // measure 13
2000
0000
3100
0000
0010
1000
0001
0000
,  // measure 14
0200
0000
0310
0000
0100
0001
1000
0000
,  // measure 15
2010
3100
0012
0103
,  // measure 16
0102
1003
2100
3001
,  // measure 17
0210
0000
0301
0000
0010
0100
0001
0010
,  // measure 18
0200
0000
0310
0000
0001
0010
0100
0000
,  // measure 19
0001
1000
0100
1000
0010
0100
0001
0010
,  // measure 20
1000
0010
0100
1000
1001
0000
1100
0000
,  // measure 21
0010
0000
0000
0010
0000
0000
0010
0000
0001
0000
0000
0000
0100
0000
0000
0000
,  // measure 22
0010
0000
0000
0010
0000
0000
0010
0000
0100
0000
0000
0000
0001
0000
0000
0000
,  // measure 23
1000
0000
0000
1000
0000
0000
1000
0000
0100
0000
0000
0000
0010
0000
0000
0000
,  // measure 24
0001
0000
0000
0001
0000
0000
0001
0000
0100
0000
0000
0000
1010
0000
0000
0000
,  // measure 25
0100
0000
0000
0100
0000
0000
0100
0000
0010
0000
0000
0000
0001
0000
0000
0000
,  // measure 26
1000
0000
0000
1000
0000
0000
1000
0000
0010
0000
0000
0000
0100
0000
0000
0000
,  // measure 27
0001
0000
0000
0010
0000
0000
0100
0000
1000
0000
0000
0010
0000
0000
0100
0000
,  // measure 28
0002
0000
0100
0103
,  // measure 29
0110
0000
0001
0000
0100
0010
1000
0000
,  // measure 30
1100
0010
1000
1100
,  // measure 31
0101
0000
0010
0000
0001
0010
0100
1000
,  // measure 32
0001
0000
1000
0000
0010
0100
0010
0000
,  // measure 33
1010
0100
0001
0010
,  // measure 34
0011
0100
0001
1100
,  // measure 35
1001
0000
0010
1000
0100
0000
0010
0000
,  // measure 36
0110
0000
0001
0000
1000
0100
0010
0000
,  // measure 37
1001
0000
1001
0000
0010
1000
0100
0000
,  // measure 38
1100
0000
1001
0000
0010
1000
0001
0000
,  // measure 39
0101
0000
0011
0000
0100
0010
0001
0000
,  // measure 40
0100
0010
0100
0001
1000
0010
0100
0000
,  // measure 41
1010
0000
1100
0000
0010
0001
1000
0000
,  // measure 42
1100
0000
0101
0000
0010
0001
0100
0000
,  // measure 43
0110
0101
1100
1001
,  // measure 44
0010
1000
0100
1000
0010
0100
0001
0010
,  // measure 45
0100
0000
0000
0100
0000
0000
0100
0000
1000
0000
0000
1000
0000
0000
1000
0000
,  // measure 46
0010
0000
0000
0010
0000
0000
0010
0000
0100
0000
0000
0100
0000
0000
0100
0000
,  // measure 47
0001
0100
0001
0100
0001
0100
0001
0100
,  // measure 48
0010
1000
0010
1000
1010
0000
1001
0000
,  // measure 49
0200
0000
0310
0000
0100
0001
1000
0000
,  // measure 50
0200
0000
1300
0000
0001
1000
0100
0000
,  // measure 51
0002
0000
1003
0000
0010
1000
0001
0000
,  // measure 52
2100
3010
0102
0013
,  // measure 53
0120
0000
0031
0000
1000
0001
0100
0010
,  // measure 54
2000
0000
3100
1000
0010
0100
0001
0010
,  // measure 55
0200
0000
0310
0001
0100
0010
0100
0001
,  // measure 56
2000
3100
0010
1001
,  // measure 57
0002
0000
0103
0000
0010
1000
0100
0000
,  // measure 58
2000
0000
3100
0000
0010
0001
0100
0000
,  // measure 59
0220
0000
0000
0000
,  // measure 60
0330
0000
0000
0000
;

//---------------dance-single - ----------------
#NOTES:
     dance-single:
     :
     Easy:
     3:
     0.241,0.283,0.182,0.202,0.000:
0000
0000
0000
0000
,
0000
0000
0000
0000
,
0000
0000
0000
0000
,
0000
0000
0000
0000
,
0010
1000
0100
0000
,
1000
0001
0100
0000
,
0001
0010
0100
0000
,
1000
0001
0100
0000
,
0010
1000
0100
0100
,
1000
0001
0100
0000
,
0001
0010
0001
0001
,
0010
0100
1000
0000
,
0010
1000
0001
0000
,
0100
0001
1000
0000
,
1100
0000
1001
0000
,
0101
0000
0110
0000
,
1001
0000
0100
0000
,
1000
0100
0010
0000
,
0001
0001
1000
1000
,
0010
0010
0100
0000
,
0002
0000
0103
0000
,
0020
0000
0130
0000
,
0002
0000
0013
0000
,
0200
0000
1300
0000
,
2000
0000
3001
0000
,
0020
0000
0130
0000
,
2000
0000
3100
0000
,
2002
0000
3003
0000
,
0010
0010
0100
0100
,
0010
0100
0110
0000
,
0001
0001
0100
0100
,
0001
0100
0101
0000
,
1000
1000
0100
0100
,
1000
0100
1100
0000
,
0010
0010
1000
0010
,
1000
1000
1010
0000
,
0220
0000
0330
0000
,
2002
0000
3003
0100
,
0200
0000
0310
0000
,
0001
0001
1000
0000
,
2020
0000
3030
0000
,
2002
0000
3003
0010
,
0020
0000
0031
0000
,
0100
0001
1000
0100
,
0020
0000
0000
0000
,
0001
0000
0001
0000
,
0002
0000
0000
0000
,
0000
0033
1001
1001
,
0100
0000
0000
0000
,
1000
0000
0000
0000
,
0010
0000
0000
0000
,
0001
0000
0100
0000
,
1000
1000
0000
0000
,
0010
0010
0000
0000
,
1000
1000
0000
0000
,
0001
0001
0000
0000
,
0100
0010
0100
0000
,
0001
0100
0001
0000
,
1100
0000
1001
0000
,
0110
0000
0000
0000
;

//---------------dance-single - ----------------
#NOTES:
     dance-single:
     :
     Challenge:
     13:
     0.638,0.623,0.259,0.269,0.226:
0000
0000
0000
0000
,
0000
0000
0000
0000
0000
0000
0000
1001
,
0110
1001
0000
0000
0000
0000
0000
0000
,
0100
0000
1000
0000
0100
0000
1000
0000
0010
0100
0010
0100
0010
0100
0010
0000
,
1000
0100
1000
0010
0100
0001
1000
0000
,
0001
0010
0001
0100
0010
1000
0001
0000
,
0010
1000
0010
0100
0010
0001
1000
0000
,
0100
0010
0100
1000
0100
0010
0001
0000
,
1000
0000
0100
0000
1000
0000
0000
0000
0010
0000
0100
0000
0010
0000
1000
0100
,
0010
0000
0001
0000
0010
0000
0000
0000
0100
0000
0010
0000
0001
0000
0100
0010
,
1000
0000
0001
0000
1000
0000
0000
0000
0100
0000
1000
0000
0010
0000
0100
0001
,
1000
0000
0010
0000
1000
0000
0100
0000
0010
0001
0010
0001
0010
0001
0010
0000
,
0001
0100
0010
0100
0001
1000
0100
0000
,
1000
0010
0100
0001
0010
0100
1000
0000
,
0110
0100
0001
1000
1100
1000
0010
0100
,
0101
0010
0100
1000
1100
1000
0010
0100
,
0101
0000
0000
0000
0010
0000
0100
0000
0001
0000
0100
0000
0010
0000
1000
0100
,
0010
0000
0001
0100
0010
0100
0001
0000
,
0010
0100
0010
0001
1000
0100
0010
0001
,
0100
0010
1000
0010
0110
0100
1001
0000
,
0100
0000
0000
1000
0000
0000
0100
0000
0010
0000
0000
0001
0000
0000
0100
0000
,
0010
0100
0000
0001
0000
0000
0010
0000
0100
0000
0000
1000
0000
0000
0001
0000
,
1000
0100
0000
1000
0000
0000
0010
0000
0100
0000
0000
0001
0000
0000
0010
0000
,
0100
0010
0000
0001
0000
0000
0100
0000
0101
0000
0000
0000
1100
0000
0000
0000
,
0010
1000
0000
0100
0000
0000
0010
0000
0001
0000
0000
0100
0000
0000
0010
0000
,
0100
0001
0000
0010
0000
0000
0100
0000
1000
0001
0000
1000
0000
0000
0100
0000
,
1000
0010
0000
0100
0000
0000
0001
0000
0010
0100
0000
0010
0000
0000
0001
0000
,
1000
0000
0100
0000
1000
0000
0010
0000
0100
0001
0100
0001
0100
0001
0100
0000
,
0020
0100
0130
0001
0100
0010
1000
0001
,
2000
0100
3100
1000
0010
0100
0002
0000
,
0203
0010
0310
0100
0001
0010
0100
1000
,
0002
1000
1003
0100
0010
0001
1000
0000
,
0200
0001
0301
1000
0100
0010
0001
1000
,
0002
0100
0103
0010
1000
0001
2000
0000
,
3020
0100
0130
0001
0100
0010
1000
0001
,
2000
0000
0100
0000
3100
0000
0010
0000
0001
1000
0001
1000
0001
1000
0001
0000
,
0200
0001
0310
0100
0001
0010
0100
1000
,
0002
1000
0103
0010
1000
0100
0020
0000
,
0032
1000
0103
0010
0100
0001
0010
0100
,
2000
0100
3010
0100
0001
0010
0002
0000
,
0203
0010
0301
0100
0010
1000
0001
1000
,
0200
0001
0310
0001
0100
0010
2000
0000
,
3200
0010
1300
0001
0010
0100
1000
0001
,
0101
1100
1001
0110
,
0001
0000
0000
0100
0000
0000
0010
0000
1000
0100
0000
1000
0000
0000
0001
0000
,
0100
0010
0000
0100
0000
0000
0001
0000
0010
0100
0000
0010
0000
0000
0001
0000
,
0010
0100
1000
0001
0100
0010
1000
0001
,
0100
0100
0010
0010
1010
0000
1001
0000
,
0001
0010
0001
0100
0010
1000
0101
0000
,
1000
0100
1000
0010
0100
0001
1010
0000
,
0100
0001
1000
0100
0010
0001
1100
0000
,
0010
0001
0101
0000
0010
0100
0110
0000
,
2001
0000
0000
0000
0010
0000
0000
0000
0100
0000
0000
0000
3010
0000
0100
0001
,
0020
0000
0000
0000
0100
0000
0000
0000
0001
0000
0000
0000
0130
0000
1000
0001
,
0200
0000
0000
0000
0010
0000
0000
0000
0001
0000
0000
0000
0010
0000
0301
1000
,
0002
0000
0010
0000
0103
0100
1000
0010
,
0210
0000
0310
0000
0001
0100
0010
1000
,
2100
0000
3100
0000
0010
1000
0001
0100
,
0202
0000
0000
0000
,
0303
0000
0000
0000
;
