#TITLE:THIS KISS;
#SUBTITLE:;
#ARTIST:Carly Rae Jepsen;
#TITLETRANSLIT:;
#SUBTITLETRANSLIT:;
#ARTISTTRANSLIT:;
#CREDIT:;
#BANNER:This Kiss-bn.png;
#BACKGROUND:This Kiss-bg.png;
#LYRICSPATH:;
#CDTITLE:;
#MUSIC:This Kiss.mp3;
#OFFSET:-0.078;
#SAMPLESTART:52.580;
#SAMPLELENGTH:11.980;
#SELECTABLE:YES;
#DISPLAYBPM:64:128;
#BPMS:0.000=128.000,172.500=124.920,173.500=128.000,175.000=64.000,176.000=62.400,176.500=64.000,191.500=128.000;
#STOPS:;
#BGCHANGES:;

//---------------dance-single - ----------------
#NOTES:
     dance-single:
     :
     Beginner:
     2:
     0.147,0.172,0.000,0.051,0.000: // measure 1
0000
0000
0000
0000
,  // measure 2
0000
0000
0000
0000
,  // measure 3
0000
0000
0000
0000
,  // measure 4
0000
0000
0000
0100
,  // measure 5
0100
0100
0000
0000
,  // measure 6
0000
0000
0000
0001
,  // measure 7
0001
0001
0001
0001
,  // measure 8
0000
0000
0000
1000
,  // measure 9
0000
0010
0000
1000
,  // measure 10
0000
0100
0000
1000
,  // measure 11
0000
0001
0000
0100
,  // measure 12
0100
0000
0000
0001
,  // measure 13
0001
0001
0000
0000
,  // measure 14
0000
0000
0000
0010
,  // measure 15
0010
0010
0010
0010
,  // measure 16
0000
0000
0000
0100
,  // measure 17
0000
1000
0000
0010
,  // measure 18
0000
1000
1000
1000
,  // measure 19
0000
0100
0000
0010
,  // measure 20
0010
0000
0000
0002
,  // measure 21
0003
0000
0000
0200
,  // measure 22
0300
0000
0000
0020
,  // measure 23
0030
0000
0000
2000
,  // measure 24
3000
0000
0000
0200
,  // measure 25
0300
0000
0000
2000
,  // measure 26
3000
0000
0000
0020
,  // measure 27
0030
0000
0000
0100
,  // measure 28
0000
0100
0000
0000
,  // measure 29
0010
0010
0000
1000
,  // measure 30
0000
0100
0000
1000
,  // measure 31
1000
1000
0000
0001
,  // measure 32
0000
0000
0000
0000
,  // measure 33
0100
0100
0000
0001
,  // measure 34
0000
1000
0000
0010
,  // measure 35
0010
0010
0000
1000
,  // measure 36
0000
0000
0000
0000
,  // measure 37
0100
0100
0100
0100
,  // measure 38
0100
0100
0000
0000
,  // measure 39
1000
1000
1000
1000
,  // measure 40
1000
1000
0000
0000
,  // measure 41
0001
0001
0000
1000
,  // measure 42
0000
0001
0000
0010
,  // measure 43
0000
0000
0000
0100
,  // measure 44
0100
0100
0100
0100
,  // measure 45
0000
1000
0000
0010
,  // measure 46
0000
1000
0000
0001
,  // measure 47
0000
0010
0000
0100
,  // measure 48
0000
0000
1000
0000
0000
0000
0000
0001
,  // measure 49
0000
0001
0000
0000
0000
0100
0000
0000
,  // measure 50
0000
0001
0000
0000
0000
1000
0000
1000
,  // measure 51
0000
1000
0000
0000
0000
0010
0000
0000
,  // measure 52
0000
0000
0000
0000
0000
0000
0000
1000
,  // measure 53
0000
1000
0000
0000
0000
0100
0000
0000
,  // measure 54
0000
1000
0000
0000
0000
0001
0000
0001
,  // measure 55
0000
0001
0000
0000
0000
0100
0000
0000
,  // measure 56
0000
0000
0000
0000
0000
0000
0000
0010
,  // measure 57
0000
0010
0000
0010
0000
0010
0000
0010
,  // measure 58
0000
0010
0000
0000
0000
0000
0000
1000
,  // measure 59
0000
1000
0000
1000
0000
1000
0000
1000
,  // measure 60
0000
1000
0000
0000
0000
0000
0000
0100
,  // measure 61
0000
0100
0000
0000
0000
1000
0000
0000
,  // measure 62
0000
0001
0000
0000
0000
0100
0000
0100
,  // measure 63
0000
0100
0000
0000
0000
0001
0000
0000
,  // measure 64
0000
1000
0000
0000
0000
0000
0000
0010
,  // measure 65
0000
0000
0000
0010
0000
0000
0000
0010
,  // measure 66
0000
0000
0000
0010
0000
0000
0000
0010
,  // measure 67
0000
0000
0000
0010
0000
0010
0000
0010
,  // measure 68
0000
0010
0000
0010
0000
0000
0000
0000
;

//---------------dance-single - ----------------
#NOTES:
     dance-single:
     :
     Medium:
     6:
     0.321,0.320,0.357,0.226,0.000:
0000
0000
0000
0000
,
0000
0000
0000
0000
,
0000
0000
0000
0000
,
0000
0000
0000
2000
,
3020
0230
0300
0001
,
1000
0001
0000
0000
0010
0000
0002
0000
,
0203
0320
0030
1000
,
0100
1000
0000
0000
0001
0000
2000
0000
,
3010
0200
0310
1000
,
0100
0010
0001
0100
,
0100
0000
0010
0000
0000
0000
1000
0001
,
1000
0001
0000
0000
0000
0000
0020
0000
,
0032
0203
0300
0010
,
1000
0100
0000
0000
1000
0000
0200
0000
,
0320
0032
0003
0100
,
0001
1000
0000
0000
0010
0000
2000
0000
,
3100
0020
0130
1000
,
0001
0100
0010
1000
,
1000
0000
0010
0000
0000
0000
1000
0100
,
0010
0001
0000
0000
0000
0000
0100
0000
,
0100
0010
0010
1000
,
0100
0010
1001
0010
,
0010
0100
0100
0001
,
0010
0100
1010
0200
,
0310
1000
0100
0020
,
0031
0100
0010
2000
,
3100
0000
1000
0000
0100
0000
0010
0001
,
0010
0000
0100
1000
0100
0000
0000
0000
,
1001
2002
3003
0010
,
0100
0010
0010
1000
,
0110
0110
0110
0000
,
1000
0000
0001
0000
,
1001
2002
3003
0010
,
0001
1000
1000
0100
,
0110
0110
0110
0000
,
0010
0000
0001
0000
,
0101
0101
1000
1100
,
1100
0010
0000
1000
,
1001
1001
0100
0101
,
0101
0010
0000
0000
,
1001
2002
3003
0010
,
1000
0100
0100
1000
,
0110
0110
0110
1000
,
0100
0010
0001
0100
,
0100
0000
0010
0000
0010
0000
1000
0100
,
0010
0000
0001
0100
0010
0000
1000
0000
,
0001
0000
0010
0000
0100
0000
1000
0010
,
0100
0001
0010
0010
0010
0010
0000
1001
,
0000
2002
0000
3003
0000
0010
0000
0100
,
0000
0001
0000
0001
0000
0010
0000
0110
,
0000
0110
0000
0110
0000
0000
0000
1000
,
0000
0000
0000
0001
0000
0000
0000
1001
,
0000
2002
0000
3003
0000
0100
0000
1000
,
0000
0010
0000
0010
0000
1000
0000
0110
,
0000
0110
0000
0110
0000
0000
0000
1000
,
0000
0000
0000
0001
0000
0000
0000
1100
,
0000
1100
0000
0010
0000
0101
0000
0101
,
0000
1000
0000
0000
0000
0001
0000
0011
,
0000
0011
0000
1000
0000
1100
0000
1100
,
0000
0010
0000
0000
0000
0000
0000
1001
,
0000
2002
0000
3003
0000
0010
0000
1000
,
0000
0100
0000
0100
0000
1000
0000
0110
,
0000
0110
0000
0110
0000
1000
0000
0100
,
0000
0010
0000
0001
0000
0000
0000
0100
,
0000
0000
0000
0001
0000
0000
0000
1000
,
0000
0000
0000
0010
0000
0000
0000
1000
,
0000
0000
0000
0001
0000
1000
0100
1000
,
0010
0100
1001
0000
;

//---------------dance-single - ----------------
#NOTES:
     dance-single:
     :
     Hard:
     10:
     0.462,0.517,0.452,0.277,0.029:
0000
0000
0000
0000
,
0000
0000
0000
0000
,
0000
0000
0000
0000
,
0000
0000
0000
1000
,
0001
0000
0100
0000
0010
0000
1000
0100
,
0010
0100
1000
0000
0010
1000
0001
0000
,
0100
0000
0001
0000
1000
0000
0001
0010
,
0100
0010
0001
0000
1000
0000
0020
0000
,
0100
0000
2030
0000
0000
0000
3100
1000
,
0010
1000
0001
0010
0100
0000
0022
0000
,
0033
0000
0100
0010
1000
0000
0001
0010
,
0100
1000
0000
0000
0010
0100
0001
0000
,
1010
0000
1001
0000
0100
0000
0001
0010
,
1000
0010
0100
1000
0010
0000
1000
0000
,
0101
0000
1001
0000
0010
0000
1000
0100
,
0001
0100
1000
0010
0100
0000
0020
0000
,
1030
0000
0200
0000
0310
0000
0001
0100
,
1000
0001
0010
1000
0100
0000
2002
0000
,
3003
0000
0010
0100
0001
0000
1000
0100
,
0010
0001
0000
0000
0100
0000
1001
0000
,
0020
0000
0230
0000
1300
0010
0100
0000
,
0001
1000
0100
0000
0010
0001
1000
0000
,
0020
0000
2030
0000
3200
0000
1300
0100
,
0010
0001
0100
0000
0010
0100
0001
0000
,
0020
0000
0230
0000
1300
0100
0001
0000
,
0100
1000
0010
0000
0100
0010
1000
0000
,
0100
0000
0010
0000
0001
0000
0100
0010
,
1000
0100
1000
0001
0100
0000
0010
0000
,
1010
0000
0202
0000
0303
0000
0010
1000
,
0100
1000
0001
0010
0100
1000
0001
0000
,
1100
0000
1001
0000
1001
0000
0010
0100
,
0010
1000
0100
0010
0002
0000
0003
0000
,
1010
0000
2002
0000
3003
0000
0010
0001
,
0100
0010
0100
0001
0010
0100
1000
0000
,
1010
0000
0101
0000
0101
0000
0010
0001
,
1000
0100
0001
0100
2000
0000
3000
0000
,
1100
0000
0110
0000
0011
0000
1000
0001
,
1000
0001
0100
0010
1000
0000
0001
0000
,
0101
0000
0011
0000
1100
0000
0010
1000
,
0100
0010
0001
1000
0010
0100
0010
0000
,
1010
0000
2002
0000
3003
0000
0010
0100
,
0010
1000
0100
0010
0001
1000
0001
0000
,
0011
0000
1100
0000
0010
0100
0010
1000
,
0100
0020
0000
0032
0000
1003
0010
0110
,
1100
0000
0010
1000
0001
0100
0001
0011
,
1001
0110
2000
0000
3000
0000
0010
0110
,
1001
0000
0000
0000
0010
0001
0000
1000
0000
0100
0000
1000
0000
0000
1010
0000
,
1001
0000
0000
0000
0010
0100
0010
1000
0100
0010
0001
1000
0000
0000
0110
0000
,
0000
2002
0000
3003
0000
0100
1000
0100
,
0010
0001
1000
0010
0100
0001
0000
0101
,
0000
1001
0000
1100
0000
0010
0001
1000
,
0100
1000
0010
0200
0000
0300
0000
1010
,
0000
2002
0000
3003
0000
1000
0100
0001
,
0100
1000
0010
0100
0001
1000
0000
0011
,
0000
1001
0000
0110
0000
1000
0010
0100
,
0001
0010
0100
2000
0000
3000
0000
1100
,
0000
0011
0000
1001
0000
0010
1000
0100
,
0010
0001
0100
1000
0001
0010
0000
1010
,
0000
1100
0000
0011
0000
1000
0001
0100
,
1000
0001
0010
1000
0100
0001
0000
0101
,
0000
2200
0000
3300
0000
0010
1000
0100
,
1000
0001
0010
0100
1000
0010
0000
1010
,
0000
1001
0000
0001
0010
0001
1000
0100
,
0020
0000
0032
0000
1003
0000
0000
1010
,
0000
0000
0000
0110
0000
0000
0000
0011
,
0000
0000
0000
1010
0000
0000
0000
1100
,
0000
0000
0000
0101
0000
1000
0100
0010
,
0002
0000
2003
0010
3010
0000
0000
0000
;

//---------------dance-single - ----------------
#NOTES:
     dance-single:
     :
     Easy:
     4:
     0.218,0.246,0.226,0.036,0.000:
0000
0000
0000
0000
,
0000
0000
0000
0000
,
0000
0000
0000
0000
,
0000
0000
0000
1000
,
1000
1000
0000
0010
,
0000
1000
0000
0001
,
0001
0001
0010
0100
,
0000
0010
0000
0001
,
0000
1000
0000
0010
,
1000
0100
1000
0010
,
0000
0100
0000
2002
,
3003
0000
0000
0010
,
0010
0010
0000
0100
,
0000
1000
0000
0010
,
0010
0010
1000
0100
,
0000
1000
0000
0001
,
0000
1000
0000
0010
,
0100
0010
1000
0100
,
0000
1000
0000
2002
,
3003
0000
0000
0200
,
0300
0000
0000
0010
,
1000
0100
1000
0000
,
0001
0001
0000
0010
,
0001
0100
0001
0000
,
1000
1000
0000
0010
,
1000
0100
1000
0000
,
0010
0010
0000
1000
,
0001
1000
0010
0000
,
0110
1001
0000
0100
,
0000
1000
0000
0001
,
1001
0110
1001
0000
,
0100
0000
0001
0000
,
1001
0110
0000
1000
,
0000
0100
0000
1000
,
1001
0110
1001
0000
,
0100
0000
0001
0000
,
0010
0010
0100
1000
,
1000
0001
0000
1000
,
1000
0001
0010
0010
,
0100
1000
0000
0000
,
0110
1001
0000
1000
,
0000
0001
0000
0010
,
0001
1000
0100
1000
,
0010
0100
0100
0001
,
0000
1000
0000
0100
,
0000
1000
0000
0010
,
0100
0001
0001
1000
,
0100
0000
1000
0000
1000
0000
0000
1001
,
0000
0110
0000
0000
0000
0100
0000
0000
,
0000
0001
0000
0000
0000
1000
0000
1001
,
0000
0110
0000
1001
0000
0000
0000
0100
,
0000
0000
0000
0001
0000
0000
0000
1001
,
0000
0110
0000
0000
0000
1000
0000
0000
,
0000
0001
0000
0000
0000
0010
0000
0110
,
0000
1001
0000
0110
0000
0000
0000
1000
,
0000
0000
0000
0001
0000
0000
0000
0100
,
0000
0100
0000
0001
0000
1000
0000
1000
,
0000
0100
0000
0000
0000
0000
0000
1000
,
0000
1000
0000
0001
0000
0010
0000
0010
,
0000
0001
0000
0000
0000
0000
0000
1001
,
0000
0110
0000
0000
0000
1000
0000
0000
,
0000
0010
0000
0000
0000
0100
0000
0000
,
0000
0001
0000
0000
0000
0010
0000
0001
,
0000
1000
0000
0100
0000
0000
0000
1001
,
0000
0110
0000
0000
0000
1000
0000
0000
,
0000
0010
0000
0000
0000
0100
0000
0110
,
0000
1001
0000
0110
0000
0000
0000
0010
,
0000
0001
0000
1000
0000
0000
0000
0000
;
