#TITLE:THE RUSH OF ORDERS;
#SUBTITLE:;
#ARTIST:aurae;
#TITLETRANSLIT:;
#SUBTITLETRANSLIT:;
#ARTISTTRANSLIT:;
#CREDIT:;
#BANNER:THE RUSH OF ORDERS-bn.png;
#BACKGROUND:THE RUSH OF ORDERS-bg.png;
#LYRICSPATH:;
#CDTITLE:;
#MUSIC:THE RUSH OF ORDERS.mp3;
#OFFSET:-0.100;
#SAMPLESTART:72.468;
#SAMPLELENGTH:16.100;
#SELECTABLE:YES;
#BPMS:0.000=184.000,200.500=92.000,201.500=184.000,263.500=92.000,264.000=184.000;
#STOPS:64.000=2.440
,200.500=3.900
;
#BGCHANGES:;

//---------------dance-single - ----------------
#NOTES:
     dance-single:
     :
     Beginner:
     5:
     0.181,0.245,0.034,0.000,0.000: // measure 1
0000
0000
0000
0000
,  // measure 2
0000
0000
0000
0000
,  // measure 3
0000
0000
0000
0000
,  // measure 4
0000
0000
0000
0000
,  // measure 5
0000
0000
0000
0000
,  // measure 6
0000
0000
0000
0000
,  // measure 7
0000
0000
0000
0000
,  // measure 8
0000
0000
0000
0000
,  // measure 9
1000
0000
0000
0000
,  // measure 10
1000
0000
0000
0000
,  // measure 11
0010
0000
0000
0000
,  // measure 12
0010
0000
0000
0000
,  // measure 13
0001
0000
0000
0000
,  // measure 14
0001
0000
0000
0000
,  // measure 15
0010
0000
0000
0000
,  // measure 16
0010
0000
0000
0000
,  // measure 17
1001
0000
0000
0100
0000
0000
0000
0100
,  // measure 18
0000
0000
0000
1000
0000
0000
0000
1000
,  // measure 19
0000
0000
0000
0001
0000
0000
0000
0001
,  // measure 20
0000
0000
0000
0000
,  // measure 21
0000
0000
0000
0010
0000
0000
0000
0010
,  // measure 22
0000
0000
0000
0001
0000
0000
0000
0001
,  // measure 23
0000
0000
0000
1000
0000
0000
0000
1000
,  // measure 24
0000
0000
0000
0010
0000
0000
0000
0000
,  // measure 25
0000
0000
0000
1000
0000
0000
0000
0100
,  // measure 26
0000
0000
0000
1000
0000
0000
0000
1000
,  // measure 27
0000
0000
0000
0001
0000
0000
0000
0100
,  // measure 28
0000
0000
0000
0010
0000
0000
0000
0010
,  // measure 29
0000
0000
0000
0100
0000
0000
0000
0001
,  // measure 30
0000
0000
0000
1000
0000
0000
0000
1000
,  // measure 31
0000
0000
0000
0100
0000
0000
0000
1000
,  // measure 32
0000
0000
0000
0010
0000
0000
0000
0010
,  // measure 33
0000
0010
0000
0000
0000
0000
0000
0000
,  // measure 34
0000
0000
0000
0000
,  // measure 35
0000
1000
0000
0000
0000
0000
0000
0000
,  // measure 36
0000
0100
0000
0000
0000
0000
0000
0000
,  // measure 37
0000
1000
0000
0000
0000
0000
0000
0000
,  // measure 38
0000
0001
0000
0000
0000
0001
0000
0000
,  // measure 39
0000
0010
0000
0000
0000
0000
0000
0000
,  // measure 40
0000
0001
0000
0000
0000
0000
0000
0000
,  // measure 41
0000
0100
0000
0000
0000
0000
0000
0000
,  // measure 42
0000
0010
0000
0010
0000
0010
0000
0000
,  // measure 43
0000
1000
0000
0000
0000
0100
0000
0000
,  // measure 44
0000
1000
0000
0000
0000
0001
0000
0000
,  // measure 45
0000
0010
0000
0000
0000
0010
0000
0000
,  // measure 46
0000
0001
0000
0000
0000
1000
0000
0000
,  // measure 47
0000
0100
0000
0000
0000
0100
0000
0000
,  // measure 48
0000
0100
0000
0000
0000
1000
0000
0000
,  // measure 49
0000
0001
0000
0000
0000
1000
0000
0000
,  // measure 50
0000
0010
0000
0000
0000
0010
0000
0000
,  // measure 51
0000
0110
0000
1001
0000
0000
0000
0000
,  // measure 52
0000
0000
0000
0100
0000
0000
0000
0000
,  // measure 53
0000
0000
0000
1000
0000
0000
0000
1000
,  // measure 54
0000
0000
0000
0001
0000
0000
0000
0001
,  // measure 55
0000
0000
0000
0100
0000
0000
0000
0000
,  // measure 56
0000
0000
0000
0001
0000
0000
0000
0000
,  // measure 57
0000
0000
0000
0010
0000
0000
0000
0000
,  // measure 58
0000
0000
0000
0100
0000
0100
0000
0100
,  // measure 59
0000
0100
0000
0100
0000
0000
0000
1000
,  // measure 60
0000
0000
0000
0010
0000
0000
0000
1000
,  // measure 61
0000
0000
0000
0001
0000
0000
0000
1000
,  // measure 62
0000
0000
0000
0100
0000
0100
0000
0010
,  // measure 63
0010
0010
0010
0010
0000
0000
0000
0100
,  // measure 64
0000
0000
0000
1000
0000
0000
0000
0001
,  // measure 65
0000
0000
0000
1001
0000
0000
0000
0000
,  // measure 66
0000
0000
0000
0010
0000
0010
0000
0010
,  // measure 67
0000
0100
0000
0001
,  // measure 68
0000
1000
0000
1000
,  // measure 69
0000
0010
0000
1000
,  // measure 70
0000
0001
0001
0001
,  // measure 71
0001
0001
0000
0010
,  // measure 72
0000
0001
0000
1000
,  // measure 73
0000
0010
0000
1000
,  // measure 74
0000
0000
0100
0000
0100
0000
1000
1000
,  // measure 75
1000
1000
1000
0000
0000
0000
0010
0000
,  // measure 76
0000
1000
0000
0001
,  // measure 77
0000
0010
0000
0001
,  // measure 78
0000
1000
1000
0100
,  // measure 79
0100
0010
0000
0100
,  // measure 80
0000
1000
0000
0010
,  // measure 81
0000
1000
0000
0100
,  // measure 82
0000
0000
0010
0000
0010
0000
0001
0001
,  // measure 83
0001
0001
0001
0000
0000
0000
0000
0000
;

//---------------dance-single - ----------------
#NOTES:
     dance-single:
     :
     Medium:
     11:
     0.496,0.563,0.247,0.298,0.000: // measure 1
0000
0000
0000
0000
,  // measure 2
0000
0000
0000
0000
,  // measure 3
0000
0000
0000
0000
,  // measure 4
0000
0000
0000
0000
,  // measure 5
0000
0000
0000
0000
,  // measure 6
0000
0000
0000
0000
,  // measure 7
0000
0000
0000
0000
,  // measure 8
0000
0000
0000
0000
,  // measure 9
1001
0100
0100
0100
,  // measure 10
0100
0100
0100
0100
,  // measure 11
0110
1000
1000
1000
,  // measure 12
1000
1000
1000
1000
,  // measure 13
1100
0001
0001
0001
,  // measure 14
0001
0001
0001
0001
,  // measure 15
0101
0010
0010
0010
,  // measure 16
0010
0010
0010
0010
,  // measure 17
1001
0100
0000
1000
0000
0100
0010
0001
,  // measure 18
0000
0100
0000
0001
0000
1000
0000
1000
,  // measure 19
0000
0010
0000
1000
0000
0001
0010
0100
,  // measure 20
0000
0010
0000
0001
0000
0000
0000
0000
,  // measure 21
0000
0110
0000
0001
0000
0010
0100
1000
,  // measure 22
0000
0010
0000
1000
0000
0001
0000
0001
,  // measure 23
0000
0010
0000
0001
0000
1000
0100
0010
,  // measure 24
0000
0001
0000
1000
0000
0010
0000
0000
,  // measure 25
0000
1001
0000
0010
0000
1000
0100
0010
,  // measure 26
0000
0001
0000
2002
0000
3003
0202
0000
,  // measure 27
0303
0010
0000
0001
0000
1000
0100
0010
,  // measure 28
0000
0001
0000
0202
0000
0303
2020
0000
,  // measure 29
3030
0100
0000
1000
0000
0001
0010
0100
,  // measure 30
0000
1000
0000
2200
0000
3300
0022
0000
,  // measure 31
0033
0100
0000
0100
0000
0010
0000
0010
,  // measure 32
0000
1010
0000
1100
0000
0101
0000
0011
,  // measure 33
0000
2002
0000
0000
0000
0000
0000
0000
,  // measure 34
0000
0000
0000
0000
0000
0000
0000
3003
,  // measure 35
0000
0100
0000
0001
0000
1000
0100
0010
,  // measure 36
0000
0001
0000
1000
0000
1000
0000
0001
,  // measure 37
0000
0010
0001
0100
0000
0010
0000
1000
,  // measure 38
0000
0001
0000
0020
0000
0130
0000
0000
,  // measure 39
0000
0010
0000
0001
0000
1000
0100
0010
,  // measure 40
0000
0001
0000
0100
0000
0010
1000
0010
,  // measure 41
1000
0100
0000
0010
0000
0001
1000
0100
,  // measure 42
0000
0010
0000
0002
0000
0103
0000
0000
,  // measure 43
0000
0110
0000
1001
0000
1100
0000
1010
,  // measure 44
0000
0001
1000
0100
0000
0010
0000
0001
,  // measure 45
0000
1001
0000
0101
0000
0010
0000
0001
,  // measure 46
0000
1000
0010
1000
0000
0001
0100
0001
,  // measure 47
0000
0010
0000
0100
0000
1000
0100
0010
,  // measure 48
0000
0001
0000
2000
0000
3010
0000
0200
,  // measure 49
0000
0301
0000
0010
0000
0100
0010
0001
,  // measure 50
0000
0100
0010
0100
0010
1000
0100
1000
,  // measure 51
0100
0010
0000
0001
1000
0100
1000
0010
,  // measure 52
0100
0001
0000
1000
0000
0100
0000
0010
,  // measure 53
0000
0010
0000
0001
0010
0100
0010
0001
,  // measure 54
1000
0010
0000
0100
0000
0100
0000
0001
,  // measure 55
0000
1000
0000
0100
1000
0010
1000
0001
,  // measure 56
0010
0100
0000
0010
0000
0010
0000
0001
,  // measure 57
0000
1000
0000
0010
1000
0100
1000
0001
,  // measure 58
0100
0010
0000
0100
0000
0001
0000
1000
,  // measure 59
0001
1000
0000
0100
1000
0010
1000
0001
,  // measure 60
0010
0100
0000
0010
0000
0001
0000
0001
,  // measure 61
0000
1000
0000
0010
1000
0100
1000
0001
,  // measure 62
0100
0010
0000
0100
0000
0100
0000
0001
,  // measure 63
0000
1000
0000
0010
1000
0100
1000
0001
,  // measure 64
0010
1000
0000
0010
0000
0001
0000
1000
,  // measure 65
0000
0010
0000
0220
0000
0330
0000
2002
,  // measure 66
0000
3003
0000
0100
1000
0100
1000
0002
,  // measure 67
1003
0010
0200
0000
0001
0000
0010
0000
,  // measure 68
0010
0001
0010
0302
,  // measure 69
0023
0230
1000
0010
,  // measure 70
0010
0000
2300
0000
3100
0000
0010
1000
,  // measure 71
0100
0010
0002
0000
1000
0000
0100
0000
,  // measure 72
0100
1000
0100
2003
,  // measure 73
3200
0320
0001
0100
,  // measure 74
0100
0000
0032
0000
0013
0000
0100
0001
,  // measure 75
0010
0000
1000
0100
0010
0000
0001
0000
,  // measure 76
1000
0010
0200
0010
,  // measure 77
0310
0101
1100
0010
,  // measure 78
1000
0000
0001
0010
0100
0000
1000
0000
,  // measure 79
0001
0000
0100
0001
0100
0001
1000
0100
,  // measure 80
1000
0100
0010
0000
0011
0000
1000
0001
,  // measure 81
0100
0010
0010
1000
,  // measure 82
0100
0000
1000
0100
0010
0001
0010
0100
,  // measure 83
1000
0001
0200
0000
0300
0000
0000
0000
;

//---------------dance-single - ----------------
#NOTES:
     dance-single:
     :
     Hard:
     14:
     0.715,0.739,0.443,0.102,0.188: // measure 1
0000
0000
0000
0000
,  // measure 2
0000
0000
0000
0000
,  // measure 3
0000
0000
0000
0000
,  // measure 4
0000
0000
0000
0000
,  // measure 5
0000
0000
0000
0000
,  // measure 6
0000
0000
0000
0000
,  // measure 7
0000
0000
0000
0000
,  // measure 8
0000
0000
0000
0000
,  // measure 9
1001
0100
0100
0100
,  // measure 10
0100
0100
0100
0100
,  // measure 11
0110
1001
1000
1000
,  // measure 12
1000
1000
1000
1000
,  // measure 13
1100
0011
0100
0010
,  // measure 14
1000
0100
1000
0001
,  // measure 15
1001
0011
0100
0001
,  // measure 16
1000
0100
1010
1001
,  // measure 17
0200
0300
0000
0000
0000
0000
0000
0000
0000
0000
0000
0000
0000
0000
0000
0000
0000
0000
0000
0000
0000
0000
0000
0000
0001
0000
0000
0000
0000
0000
0000
0000
0000
0000
0000
0000
0000
0000
0000
0000
0000
0000
0000
0000
0000
0000
0000
0000
0100
0000
0000
0000
0000
0000
0000
0000
0000
0000
0000
0000
0000
0000
0000
0000
0000
0000
0000
0000
0000
0000
0000
0000
1000
0000
0000
0000
0000
0000
0000
0000
0000
0000
0000
0000
0000
0000
0000
0000
0000
0000
0000
0000
0000
0000
0000
0000
0100
0000
0000
0000
0000
0000
0000
0000
0000
0000
0000
0000
0000
0000
0000
0000
0000
0000
0000
0000
0000
0000
0000
0000
0010
0000
0000
0000
0000
0000
0000
0000
0000
0000
0000
0000
0000
0000
0000
0000
0000
0000
0000
0000
0000
0000
0000
0000
0100
0000
0000
0000
0000
0000
0000
0000
0000
0000
0000
0000
0000
0000
0000
0000
0000
0000
0000
0000
0000
0000
0000
0000
1000
0000
0000
0000
0000
0000
0000
0000
0000
0000
0000
0000
0000
0000
0000
0000
0000
0000
0000
0000
0000
0000
0000
0000
,  // measure 18
0100
0001
0010
0100
1000
0010
0100
0001
,  // measure 19
1000
0001
0010
1000
0010
0100
0010
0001
,  // measure 20
1000
0000
0010
0000
0100
0000
0001
0000
0000
1000
0000
0000
0000
0100
0000
0000
,  // measure 21
0000
1000
0010
0000
0100
0000
0001
0000
0100
0000
0010
0000
1000
0000
0100
0000
,  // measure 22
0001
0100
0010
1000
0010
0001
1000
0010
,  // measure 23
0100
0001
1000
0100
1000
0010
0100
0001
,  // measure 24
0010
0000
1000
0000
0010
0001
0000
0000
0000
1010
0000
0000
0000
0101
0000
0000
,  // measure 25
0000
0100
0001
0000
0010
0000
1000
0000
0010
0000
0001
0000
1000
0000
0100
0000
,  // measure 26
1000
0001
0000
0101
0000
1000
1001
0000
,  // measure 27
1000
0010
1000
0001
0100
1000
0100
0010
,  // measure 28
0100
0001
0010
0011
0000
0100
0110
0000
,  // measure 29
1000
0100
1000
0010
0100
0001
0010
1000
,  // measure 30
0010
0001
0100
1000
0100
0001
1000
0100
,  // measure 31
0010
0011
0100
1000
0000
1010
1000
0001
,  // measure 32
0000
0101
0000
0011
0000
1100
0000
1001
,  // measure 33
0000
0220
0000
0000
0000
0000
0000
0000
,  // measure 34
0000
0000
0000
0000
0000
0000
0000
0330
,  // measure 35
0000
0000
1001
0000
0000
0000
0100
0000
0000
0000
1000
0100
1000
0000
0100
0000
,  // measure 36
0000
0010
1000
0001
0000
0000
0100
0001
,  // measure 37
0000
0000
0010
0000
0001
0000
1000
0000
0000
0000
0100
1000
0100
0000
0010
0000
,  // measure 38
0000
0000
0001
0000
0100
0010
0100
0000
0000
0000
0000
0000
1000
0000
0100
0000
,  // measure 39
0000
0001
0010
0100
0000
1000
0100
0010
,  // measure 40
0000
0000
0001
1000
0001
1000
0001
0000
0000
0000
0000
0000
0100
0000
0010
0000
,  // measure 41
0000
2000
0100
3100
0000
0200
0010
0310
,  // measure 42
0000
0000
0010
0001
0010
0000
0100
0000
0010
0000
1000
0001
1000
0000
0100
0000
,  // measure 43
0000
0011
0100
1000
0010
0100
0001
0010
,  // measure 44
0100
0000
1000
0001
1000
0001
1000
0000
0010
0000
0100
0000
0001
0000
0010
0000
,  // measure 45
1000
0010
0100
1000
0010
0001
0010
0100
,  // measure 46
0001
0010
1000
0010
0100
1000
0010
0100
,  // measure 47
0001
1000
0100
0010
0001
0100
0010
0100
,  // measure 48
0001
0000
1000
0100
1000
0100
1000
0000
0100
0000
1000
0000
0010
0000
0100
0000
,  // measure 49
0001
0010
1000
0010
0100
1000
0010
0100
,  // measure 50
0001
0101
0000
1010
0000
0110
0000
1100
,  // measure 51
0000
0000
0000
0000
0000
0000
0022
0033
0000
0000
0000
0000
0000
0000
0000
0000
0000
0000
0100
0000
0000
0000
0000
0000
0010
0000
0000
0000
0000
0000
0100
0000
0000
0000
0000
0000
0001
0000
0000
0000
0000
0000
1000
0000
0000
0000
0000
0000
,  // measure 52
0010
0100
0001
1000
0100
0110
0011
0000
,  // measure 53
1001
0000
1010
0010
1000
0100
1000
0010
,  // measure 54
0100
0000
0001
0000
0010
0000
1000
0000
0010
0000
0100
0000
1000
0000
0001
0100
,  // measure 55
0001
0000
0100
0010
0100
0000
0001
0000
1000
0000
0100
0000
1000
0000
0010
0000
,  // measure 56
0100
0001
0010
0100
1000
1100
1010
0000
,  // measure 57
1001
0000
0101
0001
0010
1000
0010
0100
,  // measure 58
1000
0000
0010
0000
0100
0010
1000
0000
0001
0000
0100
0000
0001
0000
1000
0010
,  // measure 59
1000
0000
0001
0000
0000
0000
0110
0000
0100
0000
0001
0000
0000
0000
1000
0100
,  // measure 60
1000
0000
0100
1000
0001
0000
0000
0000
0100
0000
0110
0000
1010
0000
0000
0000
,  // measure 61
0011
0000
0101
0010
1000
0001
1000
0100
,  // measure 62
0010
0000
0001
0000
1000
0000
0100
0000
1000
0000
0001
0000
0100
0000
0010
1000
,  // measure 63
0010
0000
1000
0100
1000
0000
0001
0000
1000
0000
0100
0000
0010
0000
0001
0100
,  // measure 64
0001
0000
1000
0100
0010
0000
0000
0000
1000
0000
1100
0000
0011
0000
0000
0000
,  // measure 65
1001
0000
0010
0012
0000
0003
0000
1020
,  // measure 66
0000
0000
0030
0000
1000
0100
0010
0000
0001
1000
0001
0000
0100
0000
0020
0000
,  // measure 67
0130
0001
0100
0001
1000
0000
0100
0000
1000
0000
0010
0000
0100
0001
0100
0000
,  // measure 68
0010
1000
0010
0000
1000
0000
0100
0000
1000
0000
0010
0000
0100
0000
0001
0000
,  // measure 69
0010
0100
0010
0001
1000
0100
1000
0001
,  // measure 70
0010
0000
0100
0000
1000
0000
0001
0000
0100
0000
0010
0000
1000
0000
0000
1000
,  // measure 71
0100
0000
0010
0000
0001
0000
0100
0000
1000
0000
0100
0000
0010
0100
0010
0000
,  // measure 72
1000
0010
1000
0000
0001
0000
1000
0000
0010
0000
0001
0000
0010
0000
0100
0000
,  // measure 73
0010
0001
0010
1000
0100
0010
0001
1000
,  // measure 74
0010
0000
1000
0000
0001
0000
0100
0000
0010
0000
1000
0000
0001
0000
0000
1000
,  // measure 75
0100
0000
1000
0000
0010
0000
0100
0000
0001
0000
1000
0000
0100
0010
0100
0000
,  // measure 76
1000
0001
1000
0000
0010
0000
1000
0000
0100
0000
1000
0000
0001
0000
0010
0000
,  // measure 77
1000
0010
0001
0100
1000
0100
0001
1000
,  // measure 78
0100
0000
1000
0000
0010
0000
0100
0000
0001
0000
0010
0000
0100
1000
0000
1000
,  // measure 79
0100
0000
0010
0000
0001
0000
1000
0000
0100
0000
1000
0000
0010
0100
0010
0000
,  // measure 80
0100
0001
0100
0000
1000
0000
0100
0000
0001
0000
0010
0000
1000
0000
0010
0000
,  // measure 81
0001
1000
0100
1000
0010
0100
0001
0010
,  // measure 82
0100
0010
1001
0000
1100
0000
0110
0100
,  // measure 83
1001
0202
0303
0000
;

//---------------dance-single - ----------------
#NOTES:
     dance-single:
     :
     Easy:
     7:
     0.301,0.352,0.136,0.068,0.000: // measure 1
0000
0000
0000
0000
,  // measure 2
0000
0000
0000
0000
,  // measure 3
0000
0000
0000
0000
,  // measure 4
0000
0000
0000
0000
,  // measure 5
0000
0000
0000
0000
,  // measure 6
0000
0000
0000
0000
,  // measure 7
0000
0000
0000
0000
,  // measure 8
0000
0000
0000
0000
,  // measure 9
1001
0000
0000
0100
0000
0000
0000
0000
,  // measure 10
1000
0000
0100
0000
,  // measure 11
1010
0000
0000
0001
0000
0000
0000
0000
,  // measure 12
0100
0000
0001
0000
,  // measure 13
0011
0000
0000
1000
0000
0000
0000
0000
,  // measure 14
0010
0000
0100
0000
,  // measure 15
1001
0000
0000
0100
0000
0000
0000
0000
,  // measure 16
1000
0100
0010
0001
,  // measure 17
1001
0100
0000
0001
0000
1000
0000
0100
,  // measure 18
0000
0010
0000
0001
0000
1000
0000
1000
,  // measure 19
0000
0010
0000
1000
0000
0001
0000
0010
,  // measure 20
0000
0110
0000
0000
0000
0000
0000
0000
,  // measure 21
0000
0001
0000
0010
0000
0001
0000
1000
,  // measure 22
0000
0100
0000
1000
0000
0010
0000
0010
,  // measure 23
0000
0100
0000
0001
0000
1000
0000
0100
,  // measure 24
0000
1000
0000
0110
0000
0000
0000
0000
,  // measure 25
0000
1000
0000
0100
0000
1000
0000
0010
,  // measure 26
0000
0100
0000
0001
0000
0010
0000
0010
,  // measure 27
0000
0100
0000
0010
0000
0001
0000
1000
,  // measure 28
0000
0010
0000
0100
0000
0010
0000
0010
,  // measure 29
0000
1000
0000
0100
0000
0010
0000
0000
,  // measure 30
0000
0001
0000
0100
0000
0010
0000
0000
,  // measure 31
0000
1010
0000
0000
0000
1001
0000
0000
,  // measure 32
0000
0110
0000
0000
0000
0101
0000
0000
,  // measure 33
0000
2002
0000
0000
0000
0000
0000
0000
,  // measure 34
0000
0000
0000
0000
0000
0000
0000
3003
,  // measure 35
0000
0100
0000
0000
0000
0100
0000
0000
,  // measure 36
0000
1000
0000
0000
0000
0001
0000
0000
,  // measure 37
0000
0010
0000
0000
0000
0010
0000
0000
,  // measure 38
0000
0001
0000
1000
0000
0100
0000
0000
,  // measure 39
0000
0010
0000
0000
0000
0010
0000
0000
,  // measure 40
0000
0100
0000
0000
0000
1000
0000
0000
,  // measure 41
0000
0100
0000
0010
0000
0001
0000
0000
,  // measure 42
0000
0100
0000
0000
0000
0010
0000
0000
,  // measure 43
0000
1000
0000
0100
0000
1000
0000
0000
,  // measure 44
0000
0010
0000
0000
0000
1000
0000
0000
,  // measure 45
0000
0001
0000
0100
0000
0001
0000
0000
,  // measure 46
0000
1000
0000
0100
0000
0010
0000
0001
,  // measure 47
0000
1000
0000
0000
0000
0010
0000
0000
,  // measure 48
0000
0100
0000
0100
0000
0000
0000
0000
,  // measure 49
0000
0001
0000
0000
0000
1000
0000
0000
,  // measure 50
0000
0100
0000
1000
0000
0010
0000
0100
,  // measure 51
0000
1001
0000
0010
0000
0100
0000
0001
,  // measure 52
0000
0010
0000
0100
0000
1000
0001
0000
,  // measure 53
0001
0000
0001
1000
0000
0100
0000
1000
,  // measure 54
0000
0010
0000
0100
0000
0001
0000
0010
,  // measure 55
0000
0010
0000
0001
0000
1000
0000
0010
,  // measure 56
0000
0100
0000
0001
0000
0010
0100
0000
,  // measure 57
0100
0000
0100
0010
0000
0001
0000
1000
,  // measure 58
0000
0010
0000
0100
0000
0010
0000
1000
,  // measure 59
0000
1000
0000
0100
1000
0010
0000
1000
,  // measure 60
0000
0001
0000
0010
0000
0100
0010
0000
,  // measure 61
0010
0000
0010
0001
0000
0100
0000
0010
,  // measure 62
0000
1000
0000
0001
0000
0010
0000
0100
,  // measure 63
0000
1000
0000
0001
1000
0100
0000
1000
,  // measure 64
0000
0010
0000
0100
0000
0001
0010
0000
,  // measure 65
0010
0000
0010
0001
0000
0000
0000
1000
,  // measure 66
0000
0000
0000
0110
0000
0110
0000
1001
,  // measure 67
0000
0020
0000
0001
,  // measure 68
0000
0031
1000
0200
,  // measure 69
0000
2300
0000
0010
,  // measure 70
0000
0100
0000
3100
,  // measure 71
0000
0020
0000
0100
,  // measure 72
0000
1030
0100
1000
,  // measure 73
0000
0002
0000
0103
,  // measure 74
0000
0010
1000
0010
,  // measure 75
1000
0010
0000
1000
,  // measure 76
0000
0100
0000
0010
,  // measure 77
0000
0001
0000
1000
,  // measure 78
0000
0001
0001
1000
,  // measure 79
1000
0010
0000
1000
,  // measure 80
0000
0100
0000
0010
,  // measure 81
0000
0001
1000
0001
,  // measure 82
0000
1000
0100
1000
,  // measure 83
0010
0200
0300
0000
;

//---------------dance-single - ----------------
#NOTES:
     dance-single:
     :
     Challenge:
     17:
     0.879,0.914,0.460,0.222,0.588: // measure 1
0000
0000
0000
0000
,  // measure 2
0000
0000
0000
0000
,  // measure 3
0000
0000
0000
0000
,  // measure 4
0000
0000
0000
0000
,  // measure 5
0000
0000
0000
0000
,  // measure 6
0000
0000
0000
0000
,  // measure 7
0000
0000
0000
0000
,  // measure 8
0000
0000
0000
0000
,  // measure 9
1001
0100
0100
0100
,  // measure 10
0100
0100
0100
0100
,  // measure 11
0011
0010
1100
0000
1000
0000
1000
0000
,  // measure 12
1000
1000
1000
1000
,  // measure 13
1010
0101
1000
0001
,  // measure 14
0010
0100
1000
0001
,  // measure 15
0110
0100
0101
0000
1010
0000
1001
0000
,  // measure 16
0110
1001
1100
0110
,  // measure 17
2002
0000
3003
0000
0000
0000
0000
0000
0000
0000
0000
0000
0000
0000
0000
0000
0000
0000
0000
0000
0000
0000
0000
0000
0010
0000
0000
0000
0000
0000
0000
0000
0000
0000
0000
0000
0000
0000
0000
0000
0000
0000
0000
0000
0000
0000
0000
0000
0100
0000
0000
0000
0000
0000
0000
0000
0000
0000
0000
0000
0000
0000
0000
0000
0000
0000
0000
0000
0000
0000
0000
0000
0001
0000
0000
0000
0000
0000
0000
0000
0000
0000
0000
0000
0000
0000
0000
0000
0000
0000
0000
0000
0000
0000
0000
0000
0010
0000
0000
0000
0000
0000
0000
0000
0000
0000
0000
0000
0000
0000
0000
0000
0000
0000
0000
0000
0000
0000
0000
0000
1000
0000
0000
0000
0000
0000
0000
0000
0000
0000
0000
0000
0000
0000
0000
0000
0000
0000
0000
0000
0000
0000
0000
0000
0010
0000
0000
0000
0000
0000
0000
0000
0000
0000
0000
0000
0000
0000
0000
0000
0000
0000
0000
0000
0000
0000
0000
0000
0001
0000
0000
0000
0000
0000
0000
0000
0000
0000
0000
0000
0000
0000
0000
0000
0000
0000
0000
0000
0000
0000
0000
0000
,  // measure 18
0010
0000
0100
0000
1000
0000
0010
0000
0100
0000
0001
0000
1000
0000
0100
1000
,  // measure 19
0010
0100
0001
0000
1000
0000
0100
0000
1000
0000
0010
0000
0100
0000
0001
0000
,  // measure 20
0010
0000
1000
0000
0010
0000
0001
0000
1000
0100
0000
0000
0000
0100
0000
0000
,  // measure 21
0000
0100
1000
0000
0100
0000
1000
0000
0010
0000
0100
0000
0001
0000
0010
0000
,  // measure 22
1000
0000
0010
0000
0001
0000
1000
0000
0100
0000
0010
0000
0001
0000
0100
0010
,  // measure 23
0100
0001
1000
0000
0010
0000
0100
0000
0001
0000
0010
0000
1000
0000
0010
0000
,  // measure 24
0001
0000
1000
0000
0100
0000
0010
0000
0001
0100
0000
0000
0000
0100
0000
0000
,  // measure 25
0000
0100
0001
0000
1000
0000
0100
0010
0000
0001
0100
0000
0010
1000
0000
0100
,  // measure 26
0010
0000
0001
0000
0100
0000
0010
1000
0000
1000
0100
0000
1000
0010
0000
0100
,  // measure 27
0001
0010
0100
0000
1000
0000
0010
0100
0000
0001
0010
0000
1000
0010
0000
0100
,  // measure 28
1000
0000
0001
0000
0100
0000
0010
0100
0000
0001
0010
0000
0010
0100
0000
1000
,  // measure 29
0100
0010
0001
0000
1000
0000
0100
0010
0100
0000
1000
0000
0010
0000
0100
0001
,  // measure 30
1000
0000
0010
0000
0100
0000
0001
1000
0001
0000
1000
0000
0010
0000
0100
0001
,  // measure 31
0010
0011
0001
1000
0000
0110
1000
0001
,  // measure 32
0000
1010
0000
0101
0000
0011
0001
1010
,  // measure 33
0100
2002
0000
0000
0000
0000
0000
0000
,  // measure 34
0000
0000
0000
0000
0000
0000
0000
0000
0000
0000
0000
0000
3000
0000
1003
0100
,  // measure 35
0010
0001
0100
0000
0010
0000
1000
0000
0100
0010
0001
1000
0010
0000
0100
0001
,  // measure 36
0000
0000
1000
0000
0100
0010
0001
0000
0000
0000
0100
0000
0110
0000
0000
0000
,  // measure 37
0000
0000
0101
0000
0010
0000
0100
0000
0001
1000
0100
1000
0100
0000
1000
0000
,  // measure 38
0010
0000
0100
0000
0001
1000
0010
0000
0100
0000
0010
0000
1000
0000
0000
0000
,  // measure 39
0000
0000
0100
0000
0010
0000
0001
0000
1000
0010
0100
0010
1000
0000
0100
0010
,  // measure 40
0001
0000
0100
0000
0001
1000
0010
0000
0000
0000
0100
0000
0110
0000
0001
0000
,  // measure 41
1000
0100
0020
0000
0000
0000
0130
0000
0000
0000
2000
0000
0000
0000
3001
0000
,  // measure 42
0100
0010
0100
0000
0001
1000
0100
1000
0001
0010
0100
1000
0010
0100
0001
0000
,  // measure 43
0000
0000
1001
0000
0100
0000
0010
0000
1000
0100
0010
0001
0100
0000
0001
1000
,  // measure 44
0001
0100
0010
1010
1000
0100
1100
1000
,  // measure 45
0010
0100
0001
1000
0100
1000
0001
0010
,  // measure 46
1000
0010
0001
0100
0010
1000
0100
0010
,  // measure 47
0001
0000
0100
0000
0010
0000
1000
0000
0001
0000
0010
0001
0100
0010
1000
0001
,  // measure 48
0100
0010
1000
1001
0010
0001
0101
0010
,  // measure 49
0100
0002
1000
1003
0100
0020
0001
0031
,  // measure 50
0100
0010
1000
0000
0100
1000
0010
0100
0001
0010
1000
0010
0001
0100
0010
1000
,  // measure 51
0100
0000
0000
1000
0000
0000
0020
0030
0000
0000
0000
0000
0000
0000
0000
0100
0000
0000
0100
0000
0000
0000
0000
0000
0001
0000
0000
0000
0000
0000
1000
0000
0000
0000
0000
0000
0010
0000
0000
1000
0000
0000
0100
0000
0000
0010
0000
0000
,  // measure 52
0001
0100
0010
0100
0001
0000
1000
0000
0010
0000
1010
0000
1010
0000
0000
0000
,  // measure 53
0101
0000
1001
0100
0010
1000
0100
0010
,  // measure 54
0001
0100
0010
0000
1000
0000
0010
0000
0100
0000
0001
0000
0010
0000
1000
0000
,  // measure 55
0010
0001
0100
0010
1000
0100
0010
0000
0001
0000
1000
0000
0010
0001
0010
0100
,  // measure 56
0001
1000
0100
0010
0001
0000
0010
0000
0100
0000
0110
0000
1100
0000
0000
0000
,  // measure 57
1010
0000
1001
0010
0100
0001
0010
0100
,  // measure 58
1000
0010
0100
0000
0001
0000
0100
0000
0010
0000
1000
0000
0100
0000
0010
0001
,  // measure 59
0100
0010
1000
0100
1000
0000
0101
0000
0010
0001
0100
0000
0010
0000
1000
0000
,  // measure 60
0100
0001
1000
0010
0001
0110
1010
0000
,  // measure 61
1001
0000
0000
0000
0101
0000
1000
0000
0100
0010
0001
0000
0100
0000
0001
0000
,  // measure 62
0010
0100
1000
0000
0100
0000
1000
0000
0010
0100
0001
0000
1000
0000
0010
0100
,  // measure 63
0010
1000
0100
1000
0001
0000
0100
0000
0010
0000
1000
0000
0001
0000
0010
0000
,  // measure 64
1000
0001
0100
1000
0001
0101
1010
0000
,  // measure 65
1001
0000
0110
2002
0000
3003
0000
0202
,  // measure 66
0000
0000
0303
0000
1000
0100
0010
0000
0001
0100
0010
0000
1000
0100
0020
0000
,  // measure 67
0031
0100
1000
0100
0002
0000
0100
0000
1003
0000
0010
0000
0100
0001
0100
0010
,  // measure 68
1000
0100
0010
0000
0001
0000
0100
0001
1000
0000
0100
0010
0001
0000
0101
0000
,  // measure 69
0010
0000
0100
0000
0020
0000
1000
0000
0130
0000
0001
0000
1000
0000
0100
0010
,  // measure 70
0001
0100
0010
0000
2000
0000
3100
0000
0002
0000
0103
0000
0020
0000
0130
1000
,  // measure 71
0002
0000
0103
0000
0010
0000
0100
0000
0001
0000
1000
0100
0010
0001
0100
1000
,  // measure 72
0100
0010
1000
0000
0001
0000
0100
0000
0210
0000
0000
0000
0301
0000
1020
0000
,  // measure 73
0000
1030
0102
0000
1003
0100
0010
0001
,  // measure 74
0100
0000
0010
0000
1000
0001
0100
0000
0010
1000
0100
0000
0010
0001
0100
0000
,  // measure 75
0001
0010
0100
0000
0011
0000
1000
0000
0010
0100
0010
1000
0100
0010
0001
0100
,  // measure 76
0010
0100
0001
0000
1000
0000
0100
1000
0001
0000
0100
0000
0010
0000
0110
0000
,  // measure 77
0001
0000
1000
0000
0100
0010
0001
0000
0010
0000
0001
0000
1000
0000
0100
0000
,  // measure 78
0010
0000
0001
0000
1000
0010
0100
0000
0001
1000
0001
0000
0010
0001
0100
0000
,  // measure 79
1000
0100
1000
0000
0200
0000
0010
0000
0301
0000
1000
0010
0001
0010
0100
0001
,  // measure 80
1000
0100
1000
0010
0100
0000
0001
0000
1000
0100
0010
0000
0001
0000
0100
0001
,  // measure 81
1000
0000
0100
0010
0100
0000
1000
0000
0100
0000
0010
0000
0001
0000
0100
0000
,  // measure 82
0010
0000
1000
0000
0100
0010
0001
0100
0010
0100
0001
0010
0100
1000
0010
0100
,  // measure 83
1000
0001
0010
0200
0002
0000
0000
0000
0303
0000
0000
0000
0000
0000
0000
0000
;
