#TITLE:THE FEELING;
#SUBTITLE:;
#ARTIST:DJ FRESH ft. RAVAUGHN;
#TITLETRANSLIT:;
#SUBTITLETRANSLIT:;
#ARTISTTRANSLIT:;
#CREDIT:;
#BANNER:The Feeling-bn.png;
#BACKGROUND:The Feeling-bg.png;
#LYRICSPATH:;
#CDTITLE:;
#MUSIC:The Feeling.mp3;
#OFFSET:-0.080;
#SAMPLESTART:65.868;
#SAMPLELENGTH:16.140;
#SELECTABLE:YES;
#BPMS:0.000=175.040;
#STOPS:192.000=0.340
,255.000=0.340
;
#BGCHANGES:0.000=The Feeling.avi=1.000=1=0=0,
321.000=Black.png=1.000=0=0=1,
99999=-nosongbg-=1.000=0=0=0 // don't automatically add -songbackground-
;

//---------------dance-single - ----------------
#NOTES:
     dance-single:
     :
     Beginner:
     3:
     0.257,0.353,0.022,0.000,0.000:
0000
0000
0000
0000
,
0000
0000
0000
0000
,
0000
0000
0000
0000
,
0000
0000
0000
0000
,
0000
0000
0000
0000
,
0000
0000
0000
0000
,
0000
0000
0000
0000
,
0000
0000
0000
0000
,
0100
0100
0000
0001
,
0000
1000
0000
0100
,
0000
1000
0000
1000
,
0000
0001
0000
0010
,
0000
0001
0000
0100
,
0000
0010
0000
0010
,
0000
0100
0000
0001
,
0000
1000
0000
0000
,
0100
0000
0100
0000
,
1000
0000
0010
0010
,
0010
0000
1000
0000
,
0001
0000
0001
0000
,
0010
0000
0001
0000
,
1000
0000
0100
0100
,
0100
0000
1000
0000
,
0001
0000
0100
0000
,
0010
0000
0010
0000
,
1000
0000
0001
0001
,
0001
0000
0010
0000
,
0100
0000
0010
0000
,
0001
0000
0100
0000
,
0010
0010
0010
0000
,
1000
1000
1000
0000
,
0001
0001
0001
0000
,
1001
0000
0100
0000
,
0100
0000
1000
0000
,
0010
0000
1000
0000
,
0001
0000
0001
0000
,
0010
0000
0001
0000
,
0100
0000
0100
0000
,
0010
0000
1000
0000
,
0100
0000
0000
0000
,
1001
0000
1000
0000
,
0100
0000
0001
0000
,
1000
0000
0010
0000
,
0100
0100
0100
0000
,
0100
0000
0001
0000
,
1000
0000
0001
0000
,
0010
0000
0100
0000
,
0010
0010
0010
0000
,
0010
0000
0000
0001
,
0000
1000
1000
1000
,
0000
0100
0000
1000
,
0000
0100
0000
0010
,
0000
0001
0000
1000
,
0000
0001
0000
0010
,
0010
0010
0000
0001
,
0001
0001
0000
0100
,
0000
0010
0000
0100
,
0000
0001
0001
0001
,
0000
0010
0000
0001
,
0000
1000
0000
0100
,
0000
1000
0000
0010
,
0000
0100
0100
0100
,
0000
0010
0010
0010
,
0000
1000
0000
1000
,
0000
0000
0001
0001
,
0000
0000
0010
0000
,
0100
0000
1000
1000
,
0000
0100
0000
1000
,
0000
0010
0000
0100
,
0000
0001
0000
0010
,
0000
0001
0000
0100
,
0100
0100
0000
0010
,
0000
1000
0000
0100
,
0000
0100
0000
1000
,
0000
0001
0000
0010
,
0010
0010
0000
0001
,
0000
1000
0000
0100
,
0000
1000
1000
0000
,
0100
0000
0010
0000
,
0001
0001
0001
0000
;

//---------------dance-single - ----------------
#NOTES:
     dance-single:
     :
     Hard:
     12:
     0.726,0.757,0.433,0.322,0.000:
0000
0000
0000
0000
,
0000
0000
0000
0000
,
0000
0000
0000
0000
,
0000
0000
0000
0000
,
0000
0000
0000
0000
,
0000
0000
0000
0000
,
0000
0000
0000
0000
,
0000
0000
0000
0000
,
0200
0000
0000
0310
0000
0000
0101
0000
,
0010
0000
1000
0000
0100
1000
0001
0000
,
2000
0000
0000
3100
0000
0000
1010
0000
,
0001
0000
1000
0000
0010
0100
0001
0000
,
0020
0000
0000
0130
0000
0000
0011
0000
,
0100
0000
0010
0000
1000
0001
1000
0000
,
0100
1000
0100
1000
0001
0100
0001
0100
,
0010
1000
0010
1000
0001
0010
0001
0000
,
0210
0000
0000
0302
0000
0000
1003
0000
,
0100
0000
1000
0000
0010
0100
0001
0000
,
1100
1001
1100
0010
,
0101
0110
0101
0010
,
0120
0000
0000
0032
0000
0000
1003
0000
,
0010
0000
0100
0000
0010
1000
0100
0000
,
1000
0100
1000
0000
0001
0100
0001
0000
,
0100
0010
0100
0000
0001
1000
0001
0000
,
0120
0000
0000
0230
0000
0000
1300
0000
,
0010
0000
0100
0000
0001
0100
0010
0000
,
0101
0110
0101
1000
,
0110
1100
1001
0100
,
2010
0000
0000
3002
0000
0000
0013
0000
,
0100
0000
0010
0000
0001
1000
0100
0000
,
1000
0100
1000
0000
0001
0100
0001
0000
,
0010
0100
0010
0001
0100
0001
1000
0000
,
0020
0000
0130
0000
0001
0100
1000
0000
,
0001
0100
1000
0000
0010
0000
1000
0000
,
0200
0000
1300
0000
0001
0010
1000
0000
,
0001
0010
1000
0000
0010
0000
0001
0000
,
2000
0000
3001
0000
0100
0010
1000
0000
,
0100
0010
1000
0000
0001
0000
1000
0000
,
0002
0000
0013
0000
0100
0010
0001
0000
,
0100
0010
0001
0000
1000
0000
0001
0000
,
2100
3001
0010
0100
,
0201
0000
0310
0000
1000
0100
0010
0000
,
0012
1003
0100
1000
,
0201
0000
0310
0000
1000
0001
0100
0000
,
2010
0010
0100
3010
,
1002
0100
0103
0010
,
1000
0100
1000
0100
0010
0001
0010
0001
,
0100
1000
0100
1000
0100
0001
0100
0001
,
1000
0000
0110
0001
,
1000
0000
0100
0010
0001
0000
1100
0000
,
0101
1100
0010
1001
,
0110
0000
1001
0000
0010
0100
0010
0100
,
0010
0100
0002
0000
0203
0000
0310
0000
,
1000
0000
0100
1000
0001
0000
1000
0100
,
1000
0000
0001
0100
0001
0000
0010
0100
,
0010
0000
0001
1000
0001
0000
1000
0100
,
1000
0100
2000
0000
3020
0000
0130
0000
,
0001
0000
1000
0100
0010
0000
1001
0000
,
1100
1001
0010
0101
,
1001
0000
1100
0000
1000
0010
1000
0010
,
1000
0010
0200
0000
0302
0000
1003
0000
,
0100
0000
1000
0001
0010
0000
0001
0100
,
0001
0000
1000
0100
1000
0000
0010
0100
,
0010
1000
0100
1000
0001
0000
1010
0000
,
0000
0000
0000
0000
0001
0100
0010
1000
,
0100
0010
0001
0000
0001
0100
0010
1000
,
0100
0010
0001
0000
0001
0100
0010
1000
,
0100
0010
0001
0000
1000
0100
0010
0001
,
0100
0010
1000
0000
1000
0100
0010
0001
,
0100
0010
1000
0000
1000
0100
0010
0001
,
0100
0010
1000
0000
1000
0100
0010
0001
,
0100
0010
1000
0000
0001
0010
0100
1000
,
0010
0100
0001
0100
0010
1000
0100
0010
,
0001
1000
0010
0000
1000
0100
0010
0001
,
0100
1000
0100
0010
1000
0100
0010
0001
,
1000
0010
0100
0000
0001
0010
1000
0010
,
0001
1000
0100
0010
0001
0100
0010
0100
,
0001
1000
0100
0000
1000
0100
0001
1000
,
0010
0001
0100
0010
1000
0010
0001
0010
,
0100
0001
1000
0100
0020
0000
0000
0200
,
0000
0330
0000
0000
;

//---------------dance-single - ----------------
#NOTES:
     dance-single:
     :
     Medium:
     9:
     0.582,0.623,0.399,0.233,0.000:
0000
0000
0000
0000
,
0000
0000
0000
0000
,
0000
0000
0000
0000
,
0000
0000
0000
0000
,
0000
0000
0000
0000
,
0000
0000
0000
0000
,
0000
0000
0000
0000
,
0000
0000
0000
0000
,
0100
0000
0000
1001
0000
0000
0100
0000
,
1000
0000
0100
0000
0010
0001
0100
0000
,
0010
0000
0000
0101
0000
0000
0010
0000
,
1000
0000
0001
0000
1000
0100
0010
0000
,
0100
0000
0000
1100
0000
0000
0010
0000
,
1000
0000
0001
0000
0100
0010
1000
0000
,
0001
0000
0000
0101
0000
0000
0010
0000
,
0100
0001
1000
0000
,
1010
0000
0001
0000
0100
0010
1000
0000
,
0001
1000
0100
0010
,
0002
0000
0000
0103
0000
0000
0110
0000
,
0002
0000
0000
0103
0000
0000
0110
0000
,
1000
0000
0001
0000
0010
0100
1000
0000
,
0001
1000
0010
0100
,
0001
0100
0010
1000
,
0001
0100
0001
0000
1000
0100
1000
0000
,
0010
0000
0100
0000
0001
1000
0100
0000
,
0010
0001
1000
0100
,
2000
0000
0000
3010
0000
0000
0110
0000
,
2000
0000
0000
3010
0000
0000
0110
0000
,
0001
0000
1000
0000
0100
0010
0001
0000
,
1000
0010
0100
0001
,
0010
0000
0100
0000
1000
0100
1000
0000
,
0010
0100
0010
0000
1000
0000
0000
0000
,
0011
0001
0100
0100
,
0001
0010
0100
0000
1000
0000
0001
0000
,
1100
1000
0010
0010
,
1000
0100
0010
0000
0001
0000
1000
0000
,
0010
0100
0010
0000
2000
0000
3100
0000
,
0020
0031
0200
0310
,
0001
0100
0010
0000
0002
0000
0103
0000
,
0020
1030
0200
0310
,
1001
1001
0100
0100
,
1000
0100
0010
0001
1000
0000
0001
0000
,
1001
1001
0100
0100
,
0001
0100
0010
1000
0001
0000
0010
0000
,
0100
1000
0100
0000
0010
0000
0001
0000
,
0100
0001
0100
0000
0010
0000
1000
0000
,
0001
1000
0001
0000
0010
0000
0100
0000
,
2000
0100
0010
3001
,
1001
0000
1001
0100
,
0010
0000
1000
0100
0010
0000
0002
0000
,
0000
0103
0000
0000
0110
0000
0002
0000
,
0000
0103
0000
0000
0110
0000
1000
0000
,
0001
0000
0010
0100
1000
0000
0001
0000
,
1000
0000
0100
0000
1000
0000
0010
1000
,
0010
0000
0100
0000
0001
0000
0010
0100
,
0010
0001
1000
0100
,
0100
0000
1000
0010
0100
0000
0001
0000
,
1000
0000
0100
0010
0100
0000
2000
0000
,
0000
3010
0000
0000
0101
0000
2000
0000
,
0000
3010
0000
0000
0101
0000
0010
0000
,
0100
0000
0001
0100
1000
0000
0010
0000
,
0100
0000
0001
0000
0010
0000
0100
0010
,
0100
0000
1000
0100
1000
0000
0001
1000
,
0001
0100
0010
0110
,
0000
0110
1001
0110
,
1000
0001
0010
0100
,
1000
0001
0100
0000
0110
0000
1001
0000
,
1100
0000
0010
0001
,
1000
0100
0010
0000
0001
0000
1000
0000
,
0001
0000
0100
0000
0010
0000
1000
0010
,
0100
0001
0110
1001
,
0110
0000
0000
0000
1000
0100
1000
0100
,
2000
3000
0100
0010
,
0001
0000
1000
0000
0001
0100
0001
0100
,
0002
0000
0003
0000
0100
0010
0100
0010
,
0200
0000
0300
0000
0010
1000
0010
1000
,
0020
0030
0100
0001
,
1000
0100
0010
0000
1001
0000
1100
0000
,
1001
0100
0101
1010
,
0100
0000
0001
0000
2000
0000
0000
0002
,
0000
3003
0000
0000
;

//---------------dance-single - ----------------
#NOTES:
     dance-single:
     :
     Easy:
     6:
     0.479,0.534,0.266,0.122,0.000:
0000
0000
0000
0000
,
0000
0000
0000
0000
,
0000
0000
0000
0000
,
0000
0000
0000
0000
,
0000
0000
0000
0000
,
0000
0000
0000
0000
,
0000
0000
0000
0000
,
0000
0000
0000
0000
,
0010
0010
1000
0001
,
0100
0100
0001
1000
,
0001
0001
0010
0100
,
1000
1000
0100
1000
,
0002
0103
0001
0100
,
0020
0130
0001
0010
,
0200
1300
0010
1000
,
0002
0103
0010
0110
,
0001
1000
0100
0010
,
0001
1000
0010
0100
,
0110
0001
1000
0001
,
0110
1000
0001
1000
,
0100
1000
0010
0100
,
0001
0010
0100
1000
,
0010
0010
0100
0100
,
0001
1000
0001
1000
,
0100
1000
0010
0100
,
0001
0010
0100
1000
,
1100
0010
1000
0001
,
0101
0010
0001
1000
,
0100
1000
0010
0100
,
0001
1000
0001
0010
,
0100
0100
1000
1000
,
0010
0010
0100
0000
,
1001
0000
0000
0100
0000
0000
1000
0000
,
0001
0000
0000
0100
0000
0000
0001
0000
,
1000
0000
0000
0010
0000
0000
0100
0000
,
0100
0000
0000
0001
0000
0000
0010
0000
,
0100
0000
0000
0010
0000
0000
0001
0000
,
1000
0000
0000
0100
0000
0000
1000
0000
,
1000
0000
0000
1000
0000
0000
0010
0000
,
0100
0000
0000
0001
0000
0000
0000
0000
,
0010
0000
0000
0001
0000
0000
1000
0000
,
0100
0000
0000
1000
0000
0000
0001
0000
,
0001
0000
0000
0100
0000
0000
0010
0000
,
0100
0000
0000
0001
0000
0000
1000
0000
,
1000
0000
0000
0010
0000
0000
1000
0000
,
0100
0000
0000
0010
0000
0000
0100
0000
,
0100
0000
0000
0100
0000
0000
1000
0000
,
0001
0000
0000
0100
0000
0000
0000
0000
,
1001
0000
0110
0001
,
0100
1000
0010
1010
,
0100
0001
1000
1001
,
0100
1000
0010
0100
,
0001
0010
0100
0010
,
0001
1000
0010
1000
,
1000
0001
0001
0010
,
0010
0100
0100
0010
,
0001
1000
0010
0100
,
0001
1000
0100
1010
,
0100
0001
1000
0101
,
0010
1000
0001
0010
,
0100
1000
0010
0100
,
0001
0010
0100
0010
,
0010
0001
0001
1000
,
1000
0100
0100
1000
,
0000
0110
1001
0100
,
1000
0020
0130
0001
,
1000
0001
1001
1100
,
1000
0002
0103
0010
,
1000
0001
1001
1100
,
1000
0200
1300
0010
,
0100
0001
0010
0010
,
0100
0100
1000
0001
,
0100
0010
1000
0001
,
0100
0010
0110
0100
,
0101
0010
1000
0001
,
0010
0100
1100
1000
,
0101
0010
1000
0001
,
0010
0100
0020
0031
,
2000
3100
1000
0001
,
0110
0000
0110
0000
0002
0000
0000
2000
,
0000
3003
0000
0000
;

//---------------dance-single - ----------------
#NOTES:
     dance-single:
     :
     Challenge:
     14:
     0.769,0.757,0.399,0.178,0.178: // measure 1
0000
0000
0000
0000
,  // measure 2
0000
0000
0000
0000
,  // measure 3
0000
0000
0000
0000
,  // measure 4
0000
0000
0000
0000
,  // measure 5
0000
0000
0000
0000
,  // measure 6
0000
0000
0000
0000
,  // measure 7
0000
0000
0000
0000
,  // measure 8
0000
0000
0000
0000
,  // measure 9
2000
0000
0000
3001
0000
0000
1100
0000
,  // measure 10
0010
0000
0100
0000
0001
1000
0010
0000
,  // measure 11
0002
0000
0000
1003
0000
0000
0110
0000
,  // measure 12
1000
0000
0001
0000
1000
0100
0010
0000
,  // measure 13
0200
0000
0000
1300
0000
0000
0101
0000
,  // measure 14
0010
0000
1000
0000
0001
0100
0010
0000
,  // measure 15
1000
0100
0001
1000
0010
0001
0100
0010
,  // measure 16
1000
0100
0010
0001
0100
0001
0010
0000
,  // measure 17
1100
0000
0101
0000
1000
0001
0100
0000
,  // measure 18
0010
1000
0001
0000
0010
0100
1000
0000
,  // measure 19
0001
0000
0001
0010
0000
0010
0100
0000
,  // measure 20
0001
0000
0001
0010
0000
0010
0100
0000
,  // measure 21
0110
0000
1001
0000
0100
1000
0001
0000
,  // measure 22
0100
0010
1000
0000
0100
1000
0001
0000
,  // measure 23
1000
0000
1000
0010
0000
0010
0100
0000
,  // measure 24
0001
0100
0010
0100
0001
1000
0100
0000
,  // measure 25
1100
0000
0000
0000
1001
0000
0000
0100
0010
0100
0010
0000
0001
0000
0000
0000
,  // measure 26
1010
0000
0001
1000
0100
1000
0001
0000
,  // measure 27
0010
0000
0010
0100
0000
0100
1000
0000
,  // measure 28
0010
0000
0010
0100
0000
0100
1000
0000
,  // measure 29
1001
0000
0000
0000
0101
0000
0000
0100
0010
0100
0010
0000
1000
0000
0000
0000
,  // measure 30
1100
0000
0100
1000
0010
0100
0001
0000
,  // measure 31
1000
0000
1000
0100
0000
0100
0001
0000
,  // measure 32
0100
1000
0100
0010
0001
0100
0110
0000
,  // measure 33
0001
0000
0000
1000
0000
0000
0100
0000
1000
0000
0000
0010
0000
0000
0100
0000
,  // measure 34
0001
0000
0000
0100
0000
0000
0001
0000
1000
0000
0000
0000
0010
0000
0100
0000
,  // measure 35
0001
0000
0000
0100
0000
0000
0010
0000
1000
0000
0000
0100
0000
0000
0001
0000
,  // measure 36
0100
0000
0000
1000
0000
0000
0010
0000
0100
0000
0000
0000
0001
0000
0010
0000
,  // measure 37
0100
0000
0000
0010
0000
0000
0001
0000
1000
0000
0000
0100
0000
0000
1000
0000
,  // measure 38
0010
0000
0000
0100
0000
0000
0001
0000
0010
0000
0000
0000
0100
0000
0010
0000
,  // measure 39
0001
0000
0000
1000
0000
0000
0100
0000
1000
0000
0000
0010
0000
0000
0100
0000
,  // measure 40
0002
0000
0100
0000
1000
1000
1003
0000
,  // measure 41
0010
0000
0010
1000
0000
0000
0100
0000
0010
0000
0010
0001
0000
0000
0100
0000
,  // measure 42
0001
0000
0001
0100
0000
0000
0001
0000
0010
0000
0000
0000
0001
0000
1000
0000
,  // measure 43
0010
0000
0010
1000
0000
0000
0100
0000
1000
0000
1000
0001
0000
0000
0100
0000
,  // measure 44
0010
0000
0010
0100
0000
0000
0001
0000
1000
0000
0000
0000
0100
0000
1000
0000
,  // measure 45
0001
0000
0001
0010
0000
0000
1000
0000
0010
0000
0010
0001
0000
0000
1000
0000
,  // measure 46
0100
0000
0100
1000
0000
0000
0010
0000
0100
0000
0000
0000
0001
0000
0100
0000
,  // measure 47
0010
0000
0010
1000
0000
0000
0100
0000
1000
0000
1000
0010
0000
0000
0100
0000
,  // measure 48
0020
0000
0100
0000
0001
0001
0031
0000
,  // measure 49
1000
0000
0000
0100
1001
0000
0010
0000
,  // measure 50
0110
0000
0001
0100
0010
0000
1000
0001
,  // measure 51
1000
0100
0010
0100
0010
0000
1000
0001
,  // measure 52
1000
0100
0010
0100
0010
0001
1000
0001
,  // measure 53
1000
0001
0100
0000
1010
0000
0001
0000
,  // measure 54
0100
0100
0010
1000
0100
0000
0010
0100
,  // measure 55
0010
0001
0100
0001
0100
0000
0010
0100
,  // measure 56
0010
0001
0100
0001
0100
0010
1000
0010
,  // measure 57
1000
0010
0100
0000
1001
0000
0010
0000
,  // measure 58
1000
0000
0100
1000
0001
0000
1000
0001
,  // measure 59
1000
0100
0010
0100
0010
0000
1000
0001
,  // measure 60
1000
0100
0010
0100
0010
0001
1000
0001
,  // measure 61
1000
0001
0010
0000
1100
0000
0010
0000
,  // measure 62
0100
0100
0010
0100
0001
0000
1001
0000
,  // measure 63
1100
0000
0100
0110
0000
1000
1001
0000
,  // measure 64
0101
0000
1000
1010
0000
0100
1001
0000
,  // measure 65
0000
0010
0102
0000
1000
0000
0103
0000
,  // measure 66
0010
0000
0000
1000
0000
0000
0100
0000
0010
0000
0001
0000
0100
0000
0000
0000
,  // measure 67
0010
0000
1100
0000
0010
1000
0001
0100
,  // measure 68
0010
0000
0100
0000
0101
0000
0000
0000
1010
0000
0000
0000
0100
0000
0000
0001
,  // measure 69
1000
0001
1000
0000
0010
0000
0000
0000
1000
0000
0100
0000
0001
0000
0100
0000
,  // measure 70
1000
0000
0010
0000
0100
0000
0001
0000
0010
0000
0000
0000
0100
0000
0000
0010
,  // measure 71
0001
0010
0001
0000
1000
0000
0000
0000
0100
0000
0010
0000
0001
0000
1000
0000
,  // measure 72
0001
0010
0100
0010
0002
0000
1003
0200
,  // measure 73
1000
0310
0001
1100
,  // measure 74
0010
0000
0010
0001
0000
0000
0100
0000
0020
0000
0000
0000
1030
0000
0002
0000
,  // measure 75
0100
0000
0013
0000
2100
0000
3001
0020
,  // measure 76
0001
0000
1030
0000
0102
0000
1003
0200
,  // measure 77
0010
0301
1100
1010
,  // measure 78
0100
0001
0100
0010
0110
0000
0001
0100
,  // measure 79
0010
1000
0001
0100
1000
0001
0010
1000
,  // measure 80
0100
0010
0001
1000
0200
0000
0000
0020
,  // measure 81
0000
0330
0000
0000
;
