#TITLE:Swoon;
#SUBTITLE:;
#ARTIST:the chemical brothers;
#TITLETRANSLIT:;
#SUBTITLETRANSLIT:;
#ARTISTTRANSLIT:;
#CREDIT:;
#BANNER:Swoon-bn.png;
#BACKGROUND:Swoon-bg.png;
#LYRICSPATH:;
#CDTITLE:;
#MUSIC:Swoon.mp3;
#OFFSET:-0.060;
#SAMPLESTART:19.408;
#SAMPLELENGTH:16.160;
#SELECTABLE:YES;
#DISPLAYBPM:124.000;
#BPMS:0.000=124.020,39.000=117.940,40.000=124.020;
#STOPS:;
#BGCHANGES:0.000=Swoon.avi=1.000=1=0=0,
221.500=Black.png=1.000=1=0=0,
99999=-nosongbg-=1.000=0=0=0 // don't automatically add -songbackground-
;

//---------------dance-single - ----------------
#NOTES:
     dance-single:
     :
     Beginner:
     1:
     0.122,0.151,0.009,0.000,0.000:
0000
0000
0000
0000
,
0000
0000
0000
0000
,
0001
0000
0000
0000
,
0010
0000
0010
0000
,
0010
0000
0000
0000
,
1000
0000
1000
0000
,
1000
0000
0000
0000
,
0001
0000
0001
0000
,
0001
0000
0000
0000
,
0100
0000
0100
0000
,
0100
0000
0000
0000
,
0001
0000
1000
0000
,
0100
0000
0000
0000
,
1000
0000
0010
0000
,
0100
0000
0000
0000
,
0010
0000
1000
0000
,
0001
0000
0000
0000
,
0010
0000
0001
0000
,
0100
0100
0000
0000
,
0001
0000
1000
0000
,
0010
0010
0000
0000
,
1000
0000
0100
0000
,
0010
0010
0000
0000
,
0001
0000
1000
0000
,
0001
0001
0000
0000
,
0100
0000
0010
0000
,
1000
0000
1000
0000
,
0100
0000
0100
0000
,
1000
0000
0010
0000
,
1000
0000
0001
0000
,
0010
0000
0010
0000
,
0001
0000
0001
0000
,
0100
0000
0001
0000
,
1000
0000
0010
0000
,
1001
0000
0000
0000
,
0100
0100
0100
0000
,
0100
0000
0000
0000
,
1000
1000
1000
0000
,
1000
0000
0000
0000
,
0010
0010
0010
0000
,
0010
0000
0000
0000
,
0001
0001
0001
0000
,
0001
0000
0000
0000
,
0100
0000
0100
0000
,
0100
0000
0000
0000
,
0010
0000
0010
0000
,
0010
0000
0000
0000
,
1000
0000
1000
0000
,
1000
0000
0000
0000
,
0001
0001
0001
0001
,
0001
0000
0000
0000
,
0100
0000
0000
0000
,
0001
0000
0000
0000
,
1000
0000
0000
0000
,
0010
0000
0000
0000
;

//---------------dance-single - ----------------
#NOTES:
     dance-single:
     :
     Medium:
     7:
     0.371,0.355,0.214,0.270,0.000:
0000
0000
0000
0000
,
0000
0000
0000
0000
,
2000
3100
0000
0000
,
0020
0031
0200
0310
,
2000
3001
0000
0000
,
0002
0103
0020
0130
,
0002
1003
0000
0000
,
0200
1300
0020
0130
,
2000
3001
0000
0000
,
0200
0310
0002
0103
,
1010
0100
0001
1000
,
0100
0010
0001
0000
0100
0010
0001
0000
,
0100
0010
1000
0001
,
1000
0010
0100
0000
1000
0010
0100
0000
,
0001
1000
0100
0010
,
0001
0100
0010
0000
0001
0100
0010
0000
,
0100
0001
0010
1000
,
0010
0100
1000
0000
0010
0100
1000
0000
,
1001
1100
0100
1000
,
0010
1000
0001
0000
0100
0001
1000
0000
,
0011
0101
0010
1000
,
0100
1000
0001
0000
0010
0001
0100
0000
,
1010
1100
0010
0001
,
0100
0010
1000
0000
0100
0010
0001
0000
,
0110
1001
0100
1000
,
0001
0100
0010
0000
1000
0100
0010
0000
,
2000
0000
3100
0000
0010
0010
0010
0000
,
1000
0000
0001
0000
0100
0001
1000
0000
,
0020
0000
0000
0000
0100
0100
0130
0000
,
0002
0000
0000
0000
1000
1000
1003
0000
,
0100
0000
1000
0100
0010
0000
1001
0000
,
0010
1000
0010
0100
,
0001
0000
0010
0010
0010
0010
0010
0000
,
0000
0000
0100
0100
0100
0100
0100
0000
,
2000
3100
0000
0000
,
0020
0130
0002
0013
,
2000
3001
0000
0000
,
0002
0103
0020
0130
,
0002
1003
0000
0000
,
2000
3100
0020
0130
,
2000
3001
0000
0000
,
0020
0031
0200
0310
,
1000
1100
1010
1001
,
0100
0001
1000
0000
0100
0001
1000
0000
,
0001
1001
1100
0011
,
0010
0100
1000
0000
0010
0100
1000
0000
,
0010
1010
1001
0110
,
1000
0001
0100
0000
1000
0001
0100
0000
,
0010
0110
1100
0101
,
0001
0010
0100
0000
0001
0010
0100
0000
,
1000
0000
1000
0000
1000
0000
1000
0100
,
0001
0000
0001
0000
0001
0000
0001
0100
,
0010
0000
0010
0000
0010
0000
0010
1000
,
0100
0000
0100
0000
0100
0000
0100
0010
,
2002
0000
3003
0000
;

//---------------dance-single - ----------------
#NOTES:
     dance-single:
     :
     Hard:
     10:
     0.452,0.457,0.223,0.242,0.019: // measure 1
0000
0000
0000
0000
,  // measure 2
0000
0000
0000
0000
,  // measure 3
2002
0000
3003
0000
,  // measure 4
0100
1000
0010
0000
0100
0001
0010
0000
,  // measure 5
0220
0000
0330
0000
,  // measure 6
0001
0010
0100
0000
1000
0001
0100
0000
,  // measure 7
2020
0000
3030
0000
,  // measure 8
0010
1000
0100
0000
0010
0100
1000
0000
,  // measure 9
0202
0000
0303
0000
,  // measure 10
0001
0010
0100
0000
1000
0001
0100
0000
,  // measure 11
1010
0000
0101
0000
1000
0001
0100
0000
,  // measure 12
0010
0100
0010
0000
1000
0100
1000
0000
,  // measure 13
1001
0000
0110
0000
0100
0001
0010
0000
,  // measure 14
0100
0010
0100
0000
1000
0100
1000
0000
,  // measure 15
1010
0000
0110
0000
0001
0010
0100
0000
,  // measure 16
0001
0010
0001
0000
1000
0100
1000
0000
,  // measure 17
0101
0000
1010
0000
0001
0100
0010
0000
,  // measure 18
1000
0001
1000
0000
0010
0100
0110
0000
,  // measure 19
0001
1000
0020
0200
0000
0030
0301
0000
,  // measure 20
0010
0100
0001
0000
0010
0100
1000
0000
,  // measure 21
0010
1000
0002
0200
0000
0003
0310
0000
,  // measure 22
0100
0001
1000
0000
0100
0010
0001
0000
,  // measure 23
1000
0010
2000
0002
0000
3000
0013
0000
,  // measure 24
0100
0010
1000
0000
0001
1000
0100
0000
,  // measure 25
0010
0001
2000
0020
0000
3000
0130
0000
,  // measure 26
0001
0000
1000
0000
0100
0000
0000
0000
0010
0100
0010
0100
0010
0000
0000
0000
,  // measure 27
1001
0000
0010
1000
0100
1000
0001
0000
,  // measure 28
0010
0000
0001
0100
1000
0100
0001
0000
,  // measure 29
0010
0000
0001
1000
0100
1000
0001
0000
,  // measure 30
0010
0000
0001
1000
0100
1000
0001
0000
,  // measure 31
0100
0000
0010
1000
0100
1000
0001
0000
,  // measure 32
0010
0000
0001
0100
1000
0100
0001
0000
,  // measure 33
1000
0000
0001
0010
0100
1000
0001
0000
,  // measure 34
1000
0000
0001
0010
0100
1000
0001
0000
,  // measure 35
1000
0100
0010
0000
1001
0000
0000
0000
,  // measure 36
0001
0100
0010
0000
1000
0100
0010
0000
,  // measure 37
0001
1000
0100
0000
0101
0000
0000
0000
,  // measure 38
0010
0001
0100
0000
0010
1000
1001
0000
,  // measure 39
0010
0100
0001
0000
0110
0000
0000
0000
,  // measure 40
0010
0001
1000
0000
0100
0010
0001
0000
,  // measure 41
1000
0010
0100
0000
1100
0000
0000
0000
,  // measure 42
0001
0000
1000
0000
0100
0000
0000
0000
0010
0100
0010
0100
0010
0000
0000
0000
,  // measure 43
1000
0100
0010
0001
0100
0010
1000
0100
,  // measure 44
1000
0010
0100
0001
0010
0200
2000
0300
,  // measure 45
3010
1000
0100
1000
0010
0100
0001
0010
,  // measure 46
0100
1000
0001
1000
0010
0200
0002
0300
,  // measure 47
0013
0100
0010
0001
0010
0100
1000
0001
,  // measure 48
0100
0010
1000
0100
0010
0002
2000
0003
,  // measure 49
3010
0100
0001
1000
0100
0001
0100
1000
,  // measure 50
0010
0100
0001
0010
0100
2000
0020
3000
,  // measure 51
0130
0000
0110
0000
0010
0100
0010
0000
,  // measure 52
0001
0000
0101
0000
0100
0001
0100
0000
,  // measure 53
1000
0000
1100
0000
0100
1000
0100
0000
,  // measure 54
0010
0000
1010
0000
1000
0010
1000
0100
,  // measure 55
2002
0000
3003
0000
;

//---------------dance-single - ----------------
#NOTES:
     dance-single:
     :
     Easy:
     5:
     0.253,0.254,0.074,0.056,0.000:
0000
0000
0000
0000
,
0000
0000
0000
0000
,
0010
0010
1000
0100
,
1000
0001
0100
0000
,
0001
0001
0010
0001
,
0100
0010
1000
0000
,
0100
0100
1000
0001
,
1000
0010
0100
0000
,
0010
0010
1000
0010
,
1000
0001
0100
0000
,
1001
0000
0100
1000
,
0010
0010
0010
0000
1000
0000
0000
0000
,
1001
0000
0010
0001
,
0100
0100
0100
0000
0001
0000
0000
0000
,
0110
0000
1000
0001
,
0100
0100
0100
0000
0001
0000
0000
0000
,
1010
0000
0100
0001
,
0010
0010
0010
0000
0001
0000
0000
0000
,
1000
1000
1000
0000
0000
0000
0000
0000
,
0100
0010
0001
1000
,
0001
0001
0001
0000
0000
0000
0000
0000
,
0010
0001
1000
0100
,
0010
0010
0010
0000
0000
0000
0000
0000
,
0100
1000
0001
1000
,
0010
0010
0010
0000
0000
0000
0000
0000
,
0100
0001
1000
0100
,
1000
1000
0100
0100
,
1000
0010
0100
0001
,
0010
0001
1000
0010
,
0100
0010
1000
0100
,
0010
0001
0100
0010
,
1000
0001
1000
0010
,
0100
0001
0010
0010
,
0100
1100
1100
0000
,
0010
0001
0000
1000
,
0000
0010
0000
1000
,
0100
0010
0000
0001
,
0000
1000
0000
0001
,
1000
0010
0000
0100
,
0000
0001
0000
0010
,
0001
0100
0000
0010
,
0000
1000
0000
1001
,
0100
0100
1000
0010
,
1000
1000
1000
0000
0010
0000
1000
0000
,
0001
0001
0010
0001
,
0100
0100
0100
0000
0001
0000
1000
0000
,
0010
0010
1000
0001
,
1000
1000
1000
0000
0100
0000
1000
0000
,
0010
0010
0100
0001
,
0010
0010
0010
0000
0001
0000
1000
0000
,
0200
0000
0300
0000
,
2000
0000
3000
0000
,
0020
0000
0030
0000
,
0002
0000
0003
0000
,
2002
0000
3003
0000
;

//---------------dance-single - ----------------
#NOTES:
     dance-single:
     :
     Challenge:
     13:
     0.565,0.533,0.251,0.158,0.344:
0000
0000
0000
0000
,
0000
0000
0000
0000
,
1020
0130
1000
0100
,
0010
0001
1000
0000
0100
1000
0001
0000
,
0210
0301
0010
0001
,
1000
0100
0010
0000
0001
1000
0010
0000
,
0102
1003
0010
1000
,
0001
0010
0100
0000
1000
0100
0010
0000
,
0120
0031
1000
0001
,
0100
0010
1000
0000
0010
1000
0100
0000
,
0011
0000
0001
0000
0100
0000
0000
0000
0010
1000
0000
0000
1100
0000
0000
0001
,
0000
0000
0100
0000
0010
0000
0000
0000
1000
0100
0000
0000
1001
0000
0000
0000
,
0010
0000
1000
0000
0001
0000
0000
0000
0010
0100
0000
0000
1001
0000
0000
0010
,
0000
0000
0100
0000
0001
0000
0000
0000
0010
0001
0000
0000
1010
0000
0000
0000
,
0100
0000
0001
0000
1000
0000
0000
0000
0100
0010
0000
0000
1100
0000
0000
0001
,
0000
0000
1000
0000
0010
0000
0000
0000
1000
0001
0000
0000
0011
0000
0000
0000
,
0100
0000
0001
0000
1000
0000
0000
0000
0001
0010
0000
0000
1010
0000
0000
0001
,
0000
0000
0010
0000
0100
0000
0000
0000
0010
0001
0000
0000
1100
0000
0000
0000
,
1010
0000
1000
0000
0001
0000
0100
0010
0100
0010
0000
0000
0101
0000
0000
0010
,
0000
0000
1000
0000
0100
0000
1000
0000
0001
0100
0000
0100
0010
0000
0000
0000
,
1000
0000
0001
0000
0010
0000
0100
1000
0100
1000
0000
0000
1001
0000
0000
0010
,
0000
0000
0100
0000
0001
0000
0100
0000
0010
1000
0000
1000
0001
0000
0000
0000
,
0100
0000
0010
0000
0100
0000
0001
1000
0001
1000
0000
0000
1100
0000
0000
0010
,
0000
0000
0001
0000
0100
0000
0001
0000
1000
0100
0000
0100
1000
0000
0000
0000
,
0010
0000
1000
0000
0001
0000
1000
0010
1000
0010
0000
0000
0110
0000
0000
0001
,
0000
0000
0100
0000
0010
0000
0100
0000
0001
1000
0001
1000
0001
0000
0000
0000
,
0100
0000
0010
0000
1000
0000
0100
0000
1000
0100
0000
0100
0010
0000
0001
0010
,
0000
0000
0100
0000
1000
0000
0001
0000
1000
0010
0100
0000
0001
0000
1000
0000
,
0010
0000
0100
0000
0001
0000
0010
0000
0100
0010
0000
0010
0001
0000
0001
1000
,
0000
0000
0100
0000
1000
0000
0010
0000
0100
0001
1000
0000
1010
0000
0000
0000
,
0100
0000
0001
0000
0100
0000
1000
0000
0100
0010
0000
0010
1000
0000
0001
0010
,
0000
0000
0100
0000
0010
0000
0001
0000
1000
0100
0010
0000
0001
0000
1000
0000
,
0100
0000
1000
0000
0010
0000
0100
0000
0001
0010
0000
0010
1000
0000
0010
0001
,
0000
0000
0100
0000
0010
0000
0100
0000
0001
1000
0100
0000
1001
0000
0000
0000
,
0020
0000
1000
0000
0130
0000
0000
0000
0001
0100
0000
0000
1010
0000
0000
0000
,
0200
1000
0310
0000
0002
0100
1003
0000
,
0020
0000
0001
0000
0130
0000
0000
0000
0010
1000
0000
0000
1001
0000
0000
0000
,
0200
0010
1300
0000
0002
1000
0103
0000
,
0020
0000
1000
0000
0031
0000
0000
0000
1000
0001
0000
0000
0110
0000
0000
0000
,
2000
0100
3010
0000
0020
0100
1030
0000
,
0002
0000
0100
0000
0013
0000
0000
0000
1000
0010
0000
0000
1100
0000
0000
0000
,
0020
0000
0100
0000
0031
0000
0000
0000
1000
0010
1000
0010
1000
0000
0000
0000
,
1001
0000
0010
0000
0001
0000
0100
0000
0010
1000
0000
1000
0100
0000
0010
0001
,
0000
0001
0010
0000
0100
0000
1000
0000
0001
1000
0001
0000
0100
0000
0010
0000
,
1000
0000
0100
0000
1000
0000
0001
0000
0100
0010
0000
0010
1000
0000
1000
0100
,
0000
0100
0010
0000
0001
0000
0010
0000
0100
1000
0100
0000
0010
0000
0001
0000
,
1000
0000
0010
0000
0100
0000
0001
0000
0010
0100
0000
0100
0010
0000
0001
1000
,
0000
1000
0010
0000
0100
0000
0001
0000
0010
0100
0010
0000
0001
0000
1000
0000
,
0100
0000
1000
0000
0010
0000
0100
0000
0001
1000
0000
1000
0100
0000
0100
0010
,
0000
0010
0001
0000
1000
0000
0010
0000
0100
0001
1000
0000
1001
0000
0000
0000
,
0010
1000
0100
0001
1000
0010
0001
0100
,
0010
1000
0100
0001
0100
0010
0100
1000
,
0001
0100
0010
1000
0010
0001
0010
0100
,
0001
0010
1000
0001
0100
1000
0010
0100
,
2002
0000
3003
0000
;
