#TITLE:Spokes For The Wheel Of Torment;
#SUBTITLE:;
#ARTIST:BUCKETHEAD;
#TITLETRANSLIT:;
#SUBTITLETRANSLIT:;
#ARTISTTRANSLIT:;
#CREDIT:;
#BANNER:Spokes For The Wheel Of Torment-bn.png;
#BACKGROUND:BLACK.png;
#LYRICSPATH:;
#CDTITLE:BEN original.PNG;
#MUSIC:Spokes For The Wheel Of Torment.mp3;
#OFFSET:0.940;
#SAMPLESTART:13.990;
#SAMPLELENGTH:11.960;
#SELECTABLE:YES;
#DISPLAYBPM:152.000;
#BPMS:0.000=140.010,218.500=8.230,219.000=140.010,276.000=70.010,278.000=140.010;
#STOPS:234.500=3.420
,270.500=2.160
;
#BGCHANGES:-0.300=Spokes for the Wheel of Torment.avi=1.000=1=0=1,
293.250=BEWARE.PNG=1.000=1=0=1,
99999=-nosongbg-=1.000=0=0=0 // don't automatically add -songbackground-
;

//---------------dance-single - ----------------
#NOTES:
     dance-single:
     :
     Hard:
     14:
     0.595,0.642,0.708,0.109,0.248: // measure 1
0000
0000
0000
0000
,  // measure 2
0000
0000
0000
0000
,  // measure 3
0000
0000
0000
0000
,  // measure 4
0000
0000
0000
0000
,  // measure 5
0000
0000
0000
0000
0000
0000
1000
0100
,  // measure 6
0010
0001
0100
0010
0100
0010
1000
0001
,  // measure 7
0010
0100
1000
0010
1000
0010
0100
0001
,  // measure 8
0010
0100
1000
0010
1000
0010
0100
0001
,  // measure 9
0010
0000
0100
0000
1000
0000
0010
0000
0100
0001
0000
0000
1100
0000
0000
0110
,  // measure 10
0000
0000
1010
0000
0000
0011
0000
0000
1000
0000
0001
0000
1001
0000
0000
0110
,  // measure 11
0000
0000
0101
0000
0002
0000
0000
0000
2003
0000
0000
0000
3010
0000
0000
0010
,  // measure 12
0000
0000
0010
0000
0002
0000
0000
0000
0003
0000
0000
0000
0100
0000
0000
0100
,  // measure 13
0000
0000
0100
0000
2000
0000
0000
0000
3000
0000
0000
0000
0101
0000
0000
0110
,  // measure 14
0000
0000
1010
0000
0000
1100
0000
0000
0001
0000
0001
0000
0110
0000
0000
0101
,  // measure 15
0000
0000
1100
0000
0000
1001
0000
0000
0010
0000
0010
0000
1100
0000
0000
0110
,  // measure 16
0000
0000
0011
0000
0000
1001
0000
0000
0010
0000
0010
0000
1100
0000
0000
0110
,  // measure 17
0000
0000
0011
0000
0000
0001
0010
0000
0101
0000
0101
0000
1000
0000
0100
0000
,  // measure 18
0010
0001
1000
0100
0010
0001
1000
1000
,  // measure 19
1100
0000
1000
0000
1100
0000
0010
0010
,  // measure 20
0011
0000
0010
0000
0011
0000
0100
0100
,  // measure 21
0110
0000
0100
0000
0110
0000
1000
1000
,  // measure 22
1010
0000
1000
0000
1010
0000
0001
0001
,  // measure 23
1100
0001
0001
0000
0100
0000
0010
0010
,  // measure 24
1001
0010
0010
0000
1000
0000
0100
0100
,  // measure 25
1010
0100
0100
0000
1000
0000
0001
0001
,  // measure 26
0110
0001
0001
0000
0010
0000
0100
1000
,  // measure 27
0010
0100
0001
0010
0100
1000
0010
0010
,  // measure 28
0010
0010
0010
0000
0010
0010
0010
0010
,  // measure 29
0010
0000
0010
0010
0010
0010
0010
0000
,  // measure 30
0010
0010
0010
0010
0010
0000
0010
0010
,  // measure 31
0010
0010
0010
0000
0010
0010
1100
0000
,  // measure 32
0001
1000
1001
0000
0010
0001
0011
0000
,  // measure 33
0100
0010
0110
0000
1000
0010
1010
0000
,  // measure 34
0001
1000
1001
0000
0100
0001
0101
0000
,  // measure 35
0010
0001
0011
0000
0100
1000
1100
1100
,  // measure 36
0000
0000
0011
0011
0000
0000
0110
0110
,  // measure 37
0000
0000
0011
0011
0000
0000
1100
1100
,  // measure 38
0000
0000
1010
1010
0000
0000
1001
1001
,  // measure 39
0000
0000
0101
0101
0000
0000
0010
1000
,  // measure 40
0010
1000
0010
1000
0010
0000
0100
0001
,  // measure 41
0100
0000
0001
0000
0100
0000
0001
0000
0100
0000
0000
0000
1010
0000
0000
0110
,  // measure 42
0000
0101
1000
0100
1000
0100
0010
0001
,  // measure 43
0100
0000
0010
0000
1000
0000
0100
0000
0010
0000
0000
0000
0001
1000
0001
1000
,  // measure 44
0001
1000
0001
1000
0001
1000
0001
1000
0001
0000
0000
0000
0100
0010
0100
0010
,  // measure 45
0100
0010
0100
0010
0100
0010
0100
0010
0100
0000
0000
0000
0011
0000
0000
0110
,  // measure 46
0000
0000
1100
0000
0010
0000
1000
0000
0010
0000
1000
0000
1010
0000
0000
0110
,  // measure 47
0000
0000
0101
0000
0100
0000
0001
0000
0100
0000
0001
0000
1000
0010
1000
0010
,  // measure 48
1000
0100
1000
0100
1000
0010
1000
0010
1000
0000
0000
0000
0001
0100
0001
0100
,  // measure 49
0001
0010
0001
0010
0001
0100
0001
0100
0001
0000
0000
0000
1010
0000
0000
0110
,  // measure 50
0000
0000
0101
0000
1000
0000
0001
0000
1000
0000
0001
0000
1100
0000
0000
0110
,  // measure 51
0000
0011
0100
0010
0100
0010
1000
0100
,  // measure 52
0010
0001
1000
0100
0010
0000
0001
0100
,  // measure 53
0010
0000
1000
0000
0001
0000
0100
0000
0010
0000
0000
0000
1100
0000
0000
0110
,  // measure 54
0000
0000
0011
0000
1000
0000
0010
0000
0100
0000
0001
0000
0011
0000
0000
0110
,  // measure 55
0000
0000
1100
0000
1000
0100
1000
0000
0100
0000
0010
0000
1001
0000
0000
0000
,  // measure 56
0110
0011
1100
0110
,  // measure 57
1001
1100
0011
0101
,  // measure 58
1001
1100
0110
1001
,  // measure 59
0101
0000
0000
0000
1010
0000
0000
0000
0202
0000
0000
0303
0020
0000
0000
0000
,  // measure 60
0032
2003
3010
0100
,  // measure 61
0001
2000
3200
0320
,  // measure 62
0031
0100
0010
2000
,  // measure 63
3020
0000
0000
0000
0230
0000
0000
0000
0301
0000
0000
0000
1000
0000
1000
0100
,  // measure 64
1000
0100
1000
0000
0000
0000
0001
0000
0001
0010
0001
0010
0001
0000
0000
0000
,  // measure 65
0100
0010
0100
0010
0100
0010
0100
0000
0000
0000
0000
0000
0000
0000
0000
0000
,  // measure 66
0001
0000
0001
0010
0001
0010
0001
0000
0000
0000
1000
0000
1000
0010
1000
0010
,  // measure 67
1000
0000
0000
0000
0100
0010
0100
0010
0100
0010
0100
0000
0000
0000
0000
0000
,  // measure 68
0000
0000
0000
0000
0001
0100
0001
0100
0001
0100
0001
0000
0000
0000
0001
0000
,  // measure 69
1000
0001
1000
0001
1000
0100
0010
0001
,  // measure 70
0100
0010
0100
0010
0100
0010
0010
0000
1000
0000
0100
0000
1000
0000
0000
0000
,  // measure 71
0010
0100
0010
0000
0001
0010
0001
0000
,  // measure 72
1000
0000
0100
0000
1000
0001
0000
0000
0100
0000
0010
0000
1000
0000
0000
0000
,  // measure 73
0100
0010
0001
0000
1000
0001
0100
0000
,  // measure 74
0010
0000
1000
0000
0100
0010
0000
0000
0000
0000
0000
0000
0000
0000
0000
0000
;

//---------------dance-single - ----------------
#NOTES:
     dance-single:
     :
     Medium:
     8:
     0.502,0.535,0.379,0.124,0.004: // measure 1
0000
0000
0000
0000
,  // measure 2
0000
0000
0000
0000
,  // measure 3
0000
0000
0000
0000
,  // measure 4
0000
0000
0000
0000
,  // measure 5
0000
0000
0000
0000
0000
0000
1000
0100
,  // measure 6
1000
0100
0010
0001
0010
0001
0100
0010
,  // measure 7
0100
0010
1000
0010
1000
0000
0001
0100
,  // measure 8
0001
0100
0010
0100
0010
0100
0010
1000
,  // measure 9
0010
1000
0100
1000
0100
0000
0010
0000
,  // measure 10
0001
1000
0100
0010
,  // measure 11
0001
0000
1000
0010
1000
0010
0100
0000
,  // measure 12
0110
0000
0010
0001
0010
0001
0100
0000
,  // measure 13
0101
0000
0010
1000
0010
1000
0100
0000
,  // measure 14
0010
0000
0001
0000
1000
1000
0010
0000
,  // measure 15
0100
0000
0001
0000
1000
1000
0100
0000
,  // measure 16
0010
0000
0001
0000
0100
0100
0001
0000
,  // measure 17
0010
0000
0100
0000
1000
1000
0010
0010
,  // measure 18
0010
0010
0010
0010
0010
0010
0100
0000
,  // measure 19
0101
1000
1100
0100
,  // measure 20
0101
1000
1100
0010
,  // measure 21
0011
1000
1010
0010
,  // measure 22
0011
1000
1010
0001
,  // measure 23
1001
1000
1001
0001
,  // measure 24
1001
1000
1001
0010
,  // measure 25
0110
0100
0110
0010
,  // measure 26
0110
0000
0100
0000
0110
0000
0001
1000
,  // measure 27
0010
0100
0001
0010
0100
1000
0010
0010
,  // measure 28
0010
0010
0010
0000
0010
0010
0010
0010
,  // measure 29
0010
0000
0010
0010
0010
0010
0010
0000
,  // measure 30
0010
0010
0010
0010
0010
0000
0010
0010
,  // measure 31
0010
0010
0010
0000
0010
0010
1000
1000
,  // measure 32
0100
0010
0001
0001
0100
0010
1000
1000
,  // measure 33
0100
0010
0001
0001
0000
0000
0100
0100
,  // measure 34
0010
1000
0100
0100
0010
0001
0100
0100
,  // measure 35
0010
1000
0100
0010
0110
0000
0001
0001
,  // measure 36
1000
0010
0100
0100
0001
1000
0010
0010
,  // measure 37
1000
0100
0010
0010
0001
1000
0010
0010
,  // measure 38
1000
0100
0001
0001
0010
0100
1000
1000
,  // measure 39
0010
0100
0001
1000
1001
0000
0010
0100
,  // measure 40
0010
0000
0100
0010
0100
0000
0001
1000
,  // measure 41
0001
0000
1000
0001
1000
0000
0100
0000
,  // measure 42
0100
0000
0010
0001
0010
0001
1000
0000
,  // measure 43
1000
0000
0100
0010
0100
0010
1000
0010
,  // measure 44
1000
0010
1000
0010
1000
0000
0001
0100
,  // measure 45
0001
0100
0001
0100
0001
0000
1000
0000
,  // measure 46
1000
0000
0100
0010
0100
0010
0001
0000
,  // measure 47
0001
0000
0100
0010
0100
0010
1000
0100
,  // measure 48
0001
0100
1000
0100
0001
0000
0001
0010
,  // measure 49
1000
0010
0001
0010
1000
0000
0100
0000
,  // measure 50
0100
0000
0010
0001
0010
0001
1000
0000
,  // measure 51
1000
0000
0010
1000
0010
1000
0001
0100
,  // measure 52
1000
0100
0001
0010
1000
0000
1000
0100
,  // measure 53
0001
0100
1000
0010
0001
0000
0010
0000
,  // measure 54
0010
0000
1000
0100
0010
0001
1000
0000
,  // measure 55
1000
0000
0001
0100
0010
1000
0200
0000
,  // measure 56
0320
0032
2003
3020
,  // measure 57
0230
0302
2003
3200
,  // measure 58
0320
0032
0203
2300
,  // measure 59
3020
0000
0000
0000
0230
0000
0000
0000
0302
0000
2000
3003
0110
0000
0000
0000
,  // measure 60
0011
0110
1100
1010
,  // measure 61
1001
0101
0110
1100
,  // measure 62
0011
1001
1010
1001
,  // measure 63
0101
0000
0110
0000
1100
0000
0101
0100
,  // measure 64
0001
0101
0000
1100
1000
0100
1100
0000
,  // measure 65
0110
0010
0100
0110
0001
0000
0001
0000
,  // measure 66
1010
1000
0010
1010
0000
1001
0001
1000
,  // measure 67
1001
0000
0011
0010
0001
0011
0100
0000
,  // measure 68
0100
0000
1001
1000
0001
1001
0000
0000
,  // measure 69
0110
0000
1001
0000
0001
0100
0010
1000
,  // measure 70
0100
0100
0100
0100
0010
0001
1000
0010
,  // measure 71
0100
0001
1000
0000
0100
1000
0010
0100
,  // measure 72
0001
0010
0100
0000
1000
0001
1000
0010
,  // measure 73
0100
0001
0010
0000
0100
1000
0010
0100
,  // measure 74
0001
0000
0010
0000
0100
1000
0000
0000
0000
0000
0000
0000
0000
0000
0000
0000
;

//---------------dance-single - ----------------
#NOTES:
     dance-single:
     :
     Beginner:
     3:
     0.168,0.187,0.036,0.000,0.000: // measure 1
0000
0000
0000
0000
,  // measure 2
0000
0000
0000
0000
,  // measure 3
0000
0000
0000
0000
,  // measure 4
0000
0000
0000
0000
,  // measure 5
0000
0000
0000
1000
,  // measure 6
0000
1000
0000
0001
,  // measure 7
0000
0001
0000
0100
,  // measure 8
0000
0100
0000
0010
,  // measure 9
0000
0010
0000
1000
,  // measure 10
0000
0000
0000
0001
,  // measure 11
0000
0000
0000
0010
,  // measure 12
0010
0000
0000
0100
,  // measure 13
0100
0000
0000
1000
,  // measure 14
0000
0001
0000
1000
,  // measure 15
0000
0001
0000
0100
,  // measure 16
0000
0010
0000
0100
,  // measure 17
0000
0010
0000
0100
,  // measure 18
0100
0100
0100
0010
,  // measure 19
0000
0010
0000
0010
,  // measure 20
0000
0010
0000
1000
,  // measure 21
0000
1000
0000
1000
,  // measure 22
0000
1000
0000
0001
,  // measure 23
0000
0001
0000
0001
,  // measure 24
0000
0001
0000
0100
,  // measure 25
0000
0100
0000
0100
,  // measure 26
0000
0100
0000
0010
,  // measure 27
0010
0010
0000
1000
,  // measure 28
0000
0000
1000
0000
,  // measure 29
0000
1000
0000
0000
,  // measure 30
1000
0000
0000
1000
,  // measure 31
0000
0000
1000
0001
,  // measure 32
0000
0100
0000
0010
,  // measure 33
0000
1000
0000
0100
,  // measure 34
0000
0010
0000
0001
,  // measure 35
0000
1000
1001
0001
,  // measure 36
0000
1000
0000
0010
,  // measure 37
0000
0100
0000
0001
,  // measure 38
0000
1000
0000
0100
,  // measure 39
0000
0010
0110
0100
,  // measure 40
0000
0100
0000
1000
,  // measure 41
0000
1000
0000
0001
,  // measure 42
0000
0001
0000
0100
,  // measure 43
0000
0100
0000
0010
,  // measure 44
0010
0010
0000
1000
,  // measure 45
1000
1000
0000
0001
,  // measure 46
0000
0001
0000
1000
,  // measure 47
0000
1000
0000
0100
,  // measure 48
0100
0100
0100
0010
,  // measure 49
0010
0010
0010
0001
,  // measure 50
0000
0001
0000
1000
,  // measure 51
0000
1000
0000
0010
,  // measure 52
0010
0010
0010
0100
,  // measure 53
0100
0100
0100
0001
,  // measure 54
0000
0001
0000
1000
,  // measure 55
0000
1000
1001
0100
,  // measure 56
0000
0100
0000
0010
,  // measure 57
0000
0010
0000
0001
,  // measure 58
0000
0001
0000
1000
,  // measure 59
0000
1000
1001
0100
,  // measure 60
0000
0100
0000
1000
,  // measure 61
0000
1000
0000
0010
,  // measure 62
0000
0010
0000
0001
,  // measure 63
0000
0001
0000
0100
,  // measure 64
0000
0100
0000
0010
,  // measure 65
0000
0010
0000
1000
,  // measure 66
0000
1000
0000
0001
,  // measure 67
0000
0001
0000
1000
,  // measure 68
0000
1000
0000
0000
,  // measure 69
0100
0100
0100
0100
,  // measure 70
0100
0000
0010
0000
,  // measure 71
0010
0010
0100
0000
,  // measure 72
0100
0100
1000
0000
,  // measure 73
1000
1000
0001
0000
,  // measure 74
0001
1001
0000
0000
;

//---------------dance-single - ----------------
#NOTES:
     dance-single:
     :
     Easy:
     5:
     0.347,0.454,0.073,0.175,0.000: // measure 1
0000
0000
0000
0000
,  // measure 2
0000
0000
0000
0000
,  // measure 3
0000
0000
0000
0000
,  // measure 4
0000
0000
0000
0000
,  // measure 5
0000
0000
0000
1000
,  // measure 6
0100
0010
0001
1000
,  // measure 7
0100
0010
0001
0100
,  // measure 8
0010
1000
0001
0100
,  // measure 9
0010
1000
0001
1000
,  // measure 10
1000
0001
0001
1000
,  // measure 11
1000
0001
0001
0100
,  // measure 12
0100
0010
1000
0001
,  // measure 13
0001
1000
0100
0010
,  // measure 14
0001
1000
0010
1000
,  // measure 15
0100
0010
0001
1000
,  // measure 16
0001
1000
0010
0100
,  // measure 17
0001
0010
0100
1000
,  // measure 18
0001
0100
0010
1000
,  // measure 19
1100
0010
0011
1000
,  // measure 20
1010
0010
0011
0100
,  // measure 21
0101
1000
1100
0010
,  // measure 22
1010
0001
0011
2000
,  // measure 23
3100
0020
0031
0200
,  // measure 24
0310
2000
3100
0020
,  // measure 25
0031
0200
0301
0002
,  // measure 26
1003
0200
1300
0010
,  // measure 27
1000
0100
0010
0001
,  // measure 28
0001
0001
0001
0001
,  // measure 29
0001
0001
0001
0001
,  // measure 30
0001
0001
0001
0001
,  // measure 31
0001
0000
0001
0000
0001
0001
1000
1000
,  // measure 32
0001
0000
1000
1000
0100
0000
0010
0010
,  // measure 33
0001
0000
1000
1000
0010
0000
0100
0100
,  // measure 34
0001
0000
1000
1000
0100
0000
1000
1000
,  // measure 35
0010
0000
0100
0000
0101
0000
0001
0001
,  // measure 36
0010
0000
0100
0100
1000
0000
0010
0010
,  // measure 37
1000
0000
0001
0001
1000
0000
0100
0100
,  // measure 38
0010
0000
0001
0001
0100
0000
0010
0010
,  // measure 39
1000
0100
1100
0010
,  // measure 40
0010
0010
0010
0100
,  // measure 41
0100
0100
0100
1000
,  // measure 42
1000
0001
0001
1000
,  // measure 43
1000
0001
0001
0100
,  // measure 44
0100
0000
0100
0010
0100
0000
0001
0000
,  // measure 45
0001
0000
0001
1000
0001
0000
1000
0000
,  // measure 46
1000
0001
0001
1000
,  // measure 47
1000
0001
0001
0010
,  // measure 48
0010
0000
0010
0100
0010
0000
1000
0000
,  // measure 49
1000
0000
1000
0001
1000
0000
0100
0000
,  // measure 50
0100
1000
1000
0010
,  // measure 51
0010
0100
0100
0001
,  // measure 52
0001
0001
0001
1000
,  // measure 53
1000
1000
1000
0010
,  // measure 54
0010
0100
0100
0001
,  // measure 55
0001
0000
1000
0100
0010
0001
0200
0000
,  // measure 56
0320
2030
3002
2003
,  // measure 57
3200
0320
0032
2003
,  // measure 58
3020
2030
3200
0320
,  // measure 59
0032
0000
0000
0000
2003
0000
0000
0000
0002
0000
0000
3003
0010
0000
0000
0000
,  // measure 60
0010
0010
1000
0001
,  // measure 61
1000
0100
0100
0100
,  // measure 62
0010
0001
1000
0010
,  // measure 63
0010
0010
1000
0001
,  // measure 64
0100
0001
1000
0100
,  // measure 65
0010
0001
0100
0001
,  // measure 66
1000
0010
1000
0100
,  // measure 67
0010
0001
1000
0001
,  // measure 68
0100
0000
0010
0000
1000
0100
0000
0000
,  // measure 69
0010
0010
0001
0001
,  // measure 70
0100
0000
1000
1000
,  // measure 71
0001
1000
0001
0000
1000
0000
1000
0000
,  // measure 72
0001
1000
0001
0000
0010
0000
0010
0000
,  // measure 73
0100
0010
0100
0000
0010
0000
0010
0000
,  // measure 74
0100
0010
0100
0000
0000
0000
0000
0000
;

//---------------dance-single - ----------------
#NOTES:
     dance-single:
     :
     Challenge:
     16:
     0.841,0.883,0.803,0.336,0.671: // measure 1
0000
0000
0000
0000
,  // measure 2
0000
0000
0000
0000
,  // measure 3
0000
0000
0000
0000
,  // measure 4
0000
0000
0000
0000
,  // measure 5
0000
0000
0000
0000
0000
0000
0000
0000
0000
0000
0000
0000
1000
0100
1000
0000
,  // measure 6
0001
0100
0001
0000
0100
0010
0100
0000
0001
0010
0001
0000
1000
0010
1000
0000
,  // measure 7
0001
0100
0001
0000
1000
0100
1000
0000
0010
0100
0010
0000
1000
0100
1000
0000
,  // measure 8
0001
0010
0001
0000
0100
0010
0100
0000
0001
0010
0001
0000
1000
0100
1000
0000
,  // measure 9
0010
0100
0010
0000
1000
0100
1000
0000
0010
0100
0000
0000
0001
0000
0001
0100
,  // measure 10
0000
0100
0010
0000
0010
1000
0000
1000
0100
0010
0100
0010
0001
0000
0001
1000
,  // measure 11
0000
1000
0010
0000
0100
0001
0100
0001
0100
0010
0100
0010
1000
0000
0000
0010
,  // measure 12
0000
0000
1010
0000
0001
0100
0010
1000
0001
0100
0010
1000
0001
0000
0000
1000
,  // measure 13
0000
0000
1001
0000
0100
0001
1000
0010
0100
0001
1000
0010
0100
0000
0100
0001
,  // measure 14
0000
0001
1000
0000
1000
0010
0000
0010
0200
0000
0302
0000
1003
0000
1000
0010
,  // measure 15
0000
0010
0100
0000
0100
0001
0000
0001
2000
0000
3200
0000
0310
0000
0010
0001
,  // measure 16
0000
0001
1000
0000
1000
0010
0000
0010
0200
0000
0302
0000
1003
0000
1000
0010
,  // measure 17
0000
0010
0100
0000
0001
1000
0001
0000
0110
0000
1001
0000
1100
0000
0110
0000
,  // measure 18
0101
0110
1100
1001
1010
0101
0010
0010
,  // measure 19
1100
0010
0010
0010
0101
0010
0010
0010
,  // measure 20
1100
0010
0010
0010
1001
0010
0100
0100
,  // measure 21
0011
0100
0100
0100
1010
0100
0100
0100
,  // measure 22
1001
0100
0100
0100
0011
0100
1000
1000
,  // measure 23
0102
1000
1003
1000
0120
1000
1030
1000
,  // measure 24
0012
1000
1003
1000
0110
1000
0001
0001
,  // measure 25
2100
0001
3001
0001
0210
0001
0301
0001
,  // measure 26
2010
0000
0001
0000
3001
0000
0001
0000
0110
0000
0000
0000
1000
0010
0100
0001
,  // measure 27
1000
0001
0100
0010
1000
0100
0010
0001
0100
0010
1000
0200
0010
0000
0010
0000
,  // measure 28
0010
0010
0010
0000
0010
0010
0010
0010
,  // measure 29
0010
0000
0010
0010
0010
0010
0010
0000
,  // measure 30
0010
0010
0010
0010
0010
0000
0010
0010
,  // measure 31
0010
0000
0010
0000
0010
0000
0000
0000
0010
0000
0010
0300
0110
0000
0011
0000
,  // measure 32
1000
0010
0101
0110
1000
0100
0110
0011
,  // measure 33
1000
0010
1010
1001
0010
0100
0101
1100
,  // measure 34
0001
0010
0110
1100
0010
0100
0101
1001
,  // measure 35
0100
0000
0010
0000
0011
0000
1010
0000
0220
0000
0000
0330
1001
0000
0011
0000
,  // measure 36
0100
0010
0100
0000
1001
0000
0101
0000
1000
0100
1000
0000
0110
0000
0011
0000
,  // measure 37
0001
0010
0001
0000
0110
0000
1001
0000
0100
0001
0100
0000
0011
0000
1001
0000
,  // measure 38
1000
0010
1000
0000
0110
0000
0011
0000
1000
0001
1000
0000
0110
0000
1001
0000
,  // measure 39
0100
1000
0100
0000
0110
0000
0011
0000
0100
0010
0000
0000
1000
0100
0010
0001
,  // measure 40
1000
0100
0010
0001
1000
0100
0010
0001
1000
0000
0000
0000
0010
0100
0001
1000
,  // measure 41
0010
0100
0001
1000
0010
0100
0001
1000
0010
0000
0000
0000
0101
0000
0000
0101
,  // measure 42
0000
0000
0101
0000
1000
0010
1000
0010
1000
0010
1000
0000
0100
0010
0100
0000
,  // measure 43
0002
0000
1000
0000
1003
0000
0110
0000
0011
0000
1001
0000
0100
0010
1000
0001
,  // measure 44
0100
0001
0010
0100
1000
0010
1000
0001
0100
0000
0000
0000
1000
0001
1000
0100
,  // measure 45
0010
0001
0100
0010
1000
0100
0010
0001
0100
0000
0000
0000
1100
0000
0000
1100
,  // measure 46
0000
0000
1100
0000
0010
0001
0010
0001
0010
0001
0010
0000
0101
0000
0000
0101
,  // measure 47
0000
0000
0101
0000
1010
0000
0110
0000
0101
0000
1001
0000
0100
0010
0100
0001
,  // measure 48
1000
0100
0010
0001
0100
0010
1000
0001
0100
0000
0000
0000
0001
0100
0010
1000
,  // measure 49
0100
0010
0001
0100
0001
0010
0100
1000
0100
0000
0000
0000
0010
0000
0010
0002
,  // measure 50
0000
0000
2003
0000
3001
0010
0100
1000
0001
0010
0100
1000
0010
0000
0000
0110
,  // measure 51
0000
0000
1010
0000
1000
0010
0100
0001
1000
0010
1000
0000
0101
0000
0110
0000
,  // measure 52
1100
0101
1100
0110
0101
0000
1010
0110
,  // measure 53
0011
0000
0110
0000
0011
0000
1010
0000
0110
0000
0000
0000
1000
0000
1000
0010
,  // measure 54
0000
0010
0100
0000
0001
1000
0001
1000
0010
0100
0010
0100
0001
0000
0001
1000
,  // measure 55
0000
1000
0100
0000
0010
0001
0010
0001
0100
0002
0200
0303
2020
0000
0030
0000
,  // measure 56
3100
0010
2002
3000
0013
0000
0202
0300
,  // measure 57
2003
0000
3001
0100
2020
3000
0230
0000
,  // measure 58
0301
1000
0220
0300
0032
0000
0203
0000
,  // measure 59
0310
1000
0001
0100
0010
0110
0001
0001
,  // measure 60
0200
0000
0320
0000
2030
0000
3100
0100
,  // measure 61
0020
0000
0031
0001
2000
0000
3020
0000
,  // measure 62
0130
0100
0002
0000
1003
1000
0200
0000
,  // measure 63
0320
0000
0000
0000
0032
0000
0000
0000
1003
0000
1000
0000
0110
0000
1000
0001
,  // measure 64
1000
0001
0010
0000
0000
0000
1001
0000
0100
0010
0100
0010
1000
0000
0000
0000
,  // measure 65
0010
1000
0010
1000
0010
1000
0002
0000
0000
0000
0003
0000
0000
0000
0000
0000
,  // measure 66
1100
0000
0001
0010
0001
0010
0100
0000
0000
0000
0101
0000
0010
1000
0010
1000
,  // measure 67
0001
0000
0000
0000
0010
1000
0001
1000
0001
1000
0200
0000
0000
0000
0300
0000
,  // measure 68
0000
0000
0000
0000
0100
0010
0001
1000
0010
0100
0010
0000
0000
0000
1000
0100
,  // measure 69
1100
0000
0001
0010
0011
0000
0100
0010
0110
0000
1100
0000
0101
0000
0011
0000
,  // measure 70
1000
0000
1000
0100
1000
0000
1000
0000
1000
0100
1000
0000
1100
0000
0000
0000
0100
0000
0010
0000
0100
0000
0010
0000
0000
0000
0000
0000
0001
0000
1000
0000
,  // measure 71
0001
1000
0010
1000
0010
0100
0000
0000
0001
0100
0001
0100
0000
0000
0010
1000
,  // measure 72
0010
1000
0100
1000
0100
0010
0000
0000
0001
1000
0001
1000
0000
0000
0100
0010
,  // measure 73
0100
0010
1000
0010
1000
0001
0000
0000
0100
0010
0100
0010
0000
0000
1000
0100
,  // measure 74
1000
0100
0010
0100
0010
0001
0000
0000
0000
0000
0000
0000
0000
0000
0000
0000
;
