#TITLE:Spectrum (Calvin Harris Mix);
#SUBTITLE:;
#ARTIST:Florence and the Machine;
#TITLETRANSLIT:;
#SUBTITLETRANSLIT:;
#ARTISTTRANSLIT:;
#CREDIT:;
#BANNER:Spectrum (Calvin Harris Mix)-bn.png;
#BACKGROUND:Spectrum (Calvin Harris Mix)-bg.png;
#LYRICSPATH:;
#CDTITLE:;
#MUSIC:Spectrum (Calvin Harris Mix).mp3;
#OFFSET:-0.660;
#SAMPLESTART:45.388;
#SAMPLELENGTH:15.380;
#SELECTABLE:YES;
#BPMS:0.000=126.010;
#STOPS:;
#BGCHANGES:-0.300=Spectrum (Calvin Harris Mix).avi=1.000=1=0=0,
99999=-nosongbg-=1.000=0=0=0 // don't automatically add -songbackground-
;

//---------------dance-single - ----------------
#NOTES:
     dance-single:
     :
     Beginner:
     1:
     0.089,0.124,0.000,0.000,0.000:
0000
0000
0000
0000
,
0000
0000
0000
0000
,
0000
0000
0000
0000
,
0000
0000
0000
0000
,
1000
0000
0000
0000
,
0100
0000
0000
0000
,
0010
0000
0000
0000
,
0001
0000
0000
0000
,
0100
0000
0000
0000
,
0010
0000
0000
0000
,
1000
0000
0000
0000
,
0010
0000
0000
0000
,
0100
0000
0000
0000
,
0001
0000
0000
0000
,
1000
0000
0000
0000
,
0010
0000
0100
0100
,
0100
0000
0000
0000
,
1000
0000
0000
0000
,
0010
0000
0000
0000
,
0100
0000
0000
0000
,
0001
0000
0000
0000
,
1000
0000
0000
0000
,
0010
0000
0000
0000
,
0100
0000
0001
0001
,
0001
0000
0000
0000
,
1000
0000
0100
0000
,
0010
0000
0001
0000
,
0000
0000
0100
0100
,
0100
0000
0000
0000
,
0010
0000
1000
0000
,
0001
0000
0100
0000
,
0000
0000
0001
0001
,
0001
0000
0000
0000
,
1000
0000
0010
0000
,
0100
0000
0010
0000
,
0000
0000
1000
1000
,
1000
0000
0000
0000
,
0100
0000
0010
0000
,
0001
0000
1000
0000
,
0000
0000
0001
0001
,
0001
0000
0000
0000
,
0100
0000
0000
0000
,
0010
0000
0000
0000
,
1000
0000
0000
0000
,
0100
0000
0000
0000
,
1000
0000
0000
0000
,
0010
0000
0000
0000
,
0100
0000
0000
0000
,
0001
0000
0000
0000
,
1000
0000
0000
0000
,
0100
0000
0000
0000
,
1000
0000
0000
0000
,
0010
0000
0000
0000
,
0100
0000
0000
0000
,
0001
0000
0000
0000
,
0001
0000
0000
0000
,
1000
0000
0000
0000
,
0100
0000
0000
0000
,
0010
0000
0000
0000
,
0001
0000
0000
0000
,
1000
0000
0000
0000
,
0010
0000
0000
0000
,
0100
0000
0000
0000
,
0010
0000
1000
1000
,
1000
0000
0000
0000
,
0100
0000
0010
0000
,
0001
0000
1000
0000
,
0000
0000
0010
0010
;

//---------------dance-single - ----------------
#NOTES:
     dance-single:
     :
     Medium:
     7:
     0.310,0.323,0.271,0.205,0.000:
0000
0000
0000
0000
,
0000
0000
0000
0000
,
0000
0000
0000
0000
,
0000
0000
0000
0000
,
0100
0010
1000
0100
,
2000
3000
0100
1000
,
0010
1000
0001
0010
,
0002
0003
0100
0001
,
1001
0000
0100
0000
1000
0100
0010
0000
,
0002
0003
0000
0010
,
0001
0000
0100
0000
0010
1000
0100
0000
,
2000
3000
0000
0100
,
1000
0000
0001
0000
0010
0001
0100
0000
,
0020
0030
0000
0100
,
0001
0000
1000
0000
0100
0010
0001
0000
,
0200
0300
0000
0000
,
0010
0000
0000
1000
0000
0000
0001
0000
,
0000
1000
0000
0000
0100
0000
0100
0000
,
1000
0000
0000
0010
0000
0000
1000
0000
,
0000
0001
0000
0000
0010
0000
0010
0000
,
0001
0000
0000
0100
0000
0000
0010
0000
,
0000
0100
0000
0000
0001
0000
1000
0000
,
0100
0000
0000
1000
0000
0000
0010
0000
,
0000
0100
0000
0000
0110
0000
1001
0000
,
0120
0000
0000
0032
0000
0000
1003
0000
,
0000
1100
0010
0101
,
0010
0100
0010
0000
0001
0000
1000
0000
,
0001
0000
1010
1001
,
1200
0000
0000
0320
0000
0000
0031
0000
,
0000
0101
0010
1100
,
0010
1000
0010
0000
0100
0000
0001
1000
,
0000
0000
0011
1100
,
2001
0000
0000
3020
0000
0000
0130
0000
,
0000
1010
0100
1001
,
0100
0000
1000
0100
0010
0000
0001
1000
,
0001
0000
0110
1001
,
0120
0000
0000
2030
0000
0000
3100
0000
,
0000
0110
1000
0101
,
0010
1000
0010
0000
1000
0000
0100
1000
,
0000
1100
0010
0100
,
0001
0010
0001
1000
,
0100
0100
1000
0010
,
0100
0000
0001
0000
1000
0100
0001
0100
,
1000
0010
0100
0100
,
0010
1000
0001
0010
,
0010
0001
1000
0100
,
1000
1000
0010
0100
,
0001
0010
1001
1001
,
0100
1000
0000
0010
0000
0100
0000
0001
,
0000
1000
0000
0001
0000
0010
0000
0001
,
0000
0011
0000
0100
0000
1100
0000
0010
,
0000
0110
0000
1000
0000
1001
0000
0100
,
0010
0001
0000
0100
0000
0010
0000
1000
,
0000
1010
0000
0100
0000
1001
0000
0110
,
0000
1001
0000
0100
0000
1000
0000
0001
,
0000
0010
0000
0001
0100
0010
1000
0000
,
0200
0000
0000
0320
0000
0000
0032
0000
,
0000
0000
0100
0100
,
0203
0000
0000
0320
0000
0000
2030
0000
,
0000
0000
0100
0100
,
3200
0000
0000
0320
0000
0000
0230
0000
,
0000
0000
0010
0010
,
0302
0000
0000
0203
0000
0000
0320
0000
,
0000
1030
1100
0101
,
0120
0000
0000
2030
0000
0000
3100
0000
,
0000
1001
0100
1010
,
0100
0001
0100
0000
0010
0000
1000
0100
,
1000
0000
0100
0000
0010
0001
0100
1000
;

//---------------dance-single - ----------------
#NOTES:
     dance-single:
     :
     Hard:
     9:
     0.384,0.448,0.161,0.176,0.048: // measure 1
0000
0000
0000
0000
,  // measure 2
0000
0000
0000
0000
,  // measure 3
0000
0000
0000
0000
,  // measure 4
0000
0000
0000
0000
,  // measure 5
0010
0000
0100
0000
0001
1000
0000
0100
,  // measure 6
0000
0000
0000
0000
1000
0000
0100
0010
,  // measure 7
0001
0000
0100
0000
0010
0100
0000
0001
,  // measure 8
0000
0000
0000
0000
0010
0000
0001
1000
,  // measure 9
0101
0000
1000
0000
0010
0100
0010
0000
,  // measure 10
2000
0000
3100
0000
0010
0000
0001
1000
,  // measure 11
0010
0000
0100
0000
0001
0010
0001
0000
,  // measure 12
0200
0000
0310
0000
1000
0000
0001
1000
,  // measure 13
0100
0000
0010
0000
0001
0100
1000
0000
,  // measure 14
0200
0000
0310
0000
1000
0000
0100
1000
,  // measure 15
0001
0000
0010
0000
0100
1000
0100
0000
,  // measure 16
0020
0000
0030
0000
0001
1000
0001
1000
,  // measure 17
2001
0000
0000
0100
0000
0000
0010
0000
,  // measure 18
0000
0100
0000
0000
0010
0000
0010
0000
,  // measure 19
0001
0000
0000
0010
0000
0000
0001
0000
,  // measure 20
0000
0100
0000
0000
0010
0000
0010
0000
,  // measure 21
3002
0000
0000
0100
0000
0000
0010
0000
,  // measure 22
0000
0010
0000
0000
1000
0000
0100
0000
,  // measure 23
1000
0000
0000
0010
0000
0000
1000
0000
,  // measure 24
0000
0100
0000
0000
1000
0000
1003
0000
,  // measure 25
1001
0000
0100
1000
0100
1000
0020
0000
,  // measure 26
0130
0000
0001
0000
0010
0000
0001
1000
,  // measure 27
0100
0000
0010
0000
0100
0010
0001
0000
,  // measure 28
0100
0010
1010
1001
,  // measure 29
0110
0000
0001
0100
0001
0100
0020
0000
,  // measure 30
1030
0000
0100
0000
0010
0000
0001
1000
,  // measure 31
0100
0000
1000
0000
0010
0100
0001
0000
,  // measure 32
0010
0001
0110
0101
,  // measure 33
1010
0000
0100
0010
0100
0010
2000
0000
,  // measure 34
3100
0000
0010
0000
0001
0000
0100
0001
,  // measure 35
1000
0000
0010
0000
1000
0010
0100
0000
,  // measure 36
0001
0010
1100
1001
,  // measure 37
0110
0000
1000
0001
1000
0001
0020
0000
,  // measure 38
0130
0000
0010
0000
0001
0100
1000
0000
,  // measure 39
0100
0010
0100
0010
2000
0000
3100
0200
,  // measure 40
0000
0000
0310
0000
0001
1000
1001
0000
,  // measure 41
0010
0000
0100
0000
0001
0100
0100
0000
,  // measure 42
0010
0000
0000
0010
1000
0000
0000
0000
0100
0000
0010
0000
0100
0000
0000
0000
,  // measure 43
1000
0000
0010
0000
0100
0010
0010
0000
,  // measure 44
0100
0000
0000
0100
0010
0000
0000
0000
1000
0000
0100
0000
0010
0000
0000
0000
,  // measure 45
0001
0000
1000
0000
0100
1000
1000
0000
,  // measure 46
0010
0000
0000
0010
0100
0000
0000
0000
0001
0000
0010
0000
1000
0000
0000
0000
,  // measure 47
0010
0000
0001
0000
1000
0100
0100
0000
,  // measure 48
1000
0000
0000
1000
0001
0000
0000
0000
0010
0000
0100
0000
1000
0000
0000
0000
,  // measure 49
0120
0000
1030
0100
1000
0010
0100
0000
,  // measure 50
0102
0000
0013
0001
0010
0100
1000
0000
,  // measure 51
1200
0000
1300
0010
0001
0010
0100
0000
,  // measure 52
1002
0000
0013
0001
0010
0100
1000
0000
,  // measure 53
0120
0000
1030
0100
0001
0100
1000
0000
,  // measure 54
0012
0000
1003
0001
0100
0001
1000
0000
,  // measure 55
1002
0000
0013
0100
1000
0010
0100
0000
,  // measure 56
0120
0000
1030
0100
1000
0010
0100
0000
,  // measure 57
1000
0100
0001
0100
1000
0100
0001
0100
,  // measure 58
2000
0000
0100
3100
,  // measure 59
0001
0010
1000
0010
0001
0010
1000
0010
,  // measure 60
0002
0000
0100
0103
,  // measure 61
0010
1000
0010
0100
0010
1000
0010
0100
,  // measure 62
0020
0000
0100
0130
,  // measure 63
0001
0100
0010
0100
0001
0100
0010
0100
,  // measure 64
0002
0000
1000
1003
,  // measure 65
1001
0000
0000
1000
0000
0000
0100
0000
0000
0100
0000
0000
0010
0000
0000
0010
,  // measure 66
0000
0000
0001
0000
0000
1000
0000
0000
0001
0000
0000
0100
0000
0000
0010
0000
,  // measure 67
0100
0000
0000
0100
0000
0000
0001
0000
0000
0001
0000
0000
0010
0000
0000
0001
,  // measure 68
0000
0000
1000
0000
0000
0100
0000
0000
1000
0000
0010
0000
0100
0000
0001
0000
;

//---------------dance-single - ----------------
#NOTES:
     dance-single:
     :
     Easy:
     3:
     0.187,0.248,0.125,0.095,0.000:
0000
0000
0000
0000
,
0000
0000
0000
0000
,
0000
0000
0000
0000
,
0000
0000
0000
0000
,
0100
0001
1000
0100
,
0020
0030
0000
0000
,
0001
1000
0100
1000
,
0020
0030
0000
0000
,
1000
0001
0100
0001
,
2000
3000
0000
0100
,
1000
0100
0010
0001
,
0020
0030
0000
0001
,
1000
0100
1000
0010
,
0200
0300
0000
0010
,
1000
0100
0010
0100
,
2000
3000
0000
0000
,
0001
0000
0000
1000
0000
0000
0001
0000
,
0000
0000
0000
0000
,
0100
0000
0000
0001
0000
0000
1000
0000
,
0000
0000
0000
0000
,
0100
0000
0000
1000
0000
0000
0010
0000
,
0000
0000
0000
0000
,
1000
0000
0000
0001
0000
0000
0010
0000
,
0000
0000
1001
1001
,
1001
0000
0100
0000
,
1000
0000
0010
0000
,
1000
0100
0010
0001
,
0000
0000
1001
1001
,
1001
0000
0100
0000
,
0001
0000
0010
0000
,
0001
0010
0100
1000
,
0000
0000
1001
1001
,
1001
0000
0100
0000
,
1000
0000
0001
0000
,
0010
0001
1000
0100
,
0000
0000
1001
1001
,
1001
0000
0100
0000
,
0001
0000
0010
0000
,
0100
1000
0010
0100
,
0000
0000
0000
0000
,
0001
0000
0100
0000
,
0001
0000
1000
0000
,
0100
1000
0100
0010
,
0100
0000
0010
0000
,
0001
0000
1000
0000
,
0010
0000
1000
0000
,
0100
1000
0010
0100
,
0010
0000
1000
0000
,
0100
0100
0010
0000
,
0001
0001
0100
0000
,
0010
0010
1000
0000
,
0100
0100
0010
0000
,
0001
0001
0100
0000
,
1000
1000
0100
0000
,
0010
0010
0100
0000
,
1000
0010
0100
0001
,
0200
0000
0000
0000
,
0320
0000
0000
0000
,
0230
0000
0000
0000
,
0302
0000
0000
0000
,
0203
0000
0000
0000
,
2300
0000
0000
0000
,
3200
0000
0000
0000
,
0300
0000
1001
1001
,
1001
0000
0100
0000
,
1000
0000
0001
0000
,
0010
0001
1000
0100
,
0000
0000
1001
1001
;
