#TITLE:STUCK IN YOUR RADIO;
#SUBTITLE:;
#ARTIST:STUCK IN YOUR RADIO;
#TITLETRANSLIT:;
#SUBTITLETRANSLIT:;
#ARTISTTRANSLIT:;
#CREDIT:;
#BANNER:Stuck In Your Radio-bn.png;
#BACKGROUND:Stuck In Your Radio-bg.png;
#LYRICSPATH:;
#CDTITLE:;
#MUSIC:Stuck In Your Radio.mp3;
#OFFSET:-0.040;
#SAMPLESTART:85.348;
#SAMPLELENGTH:10.940;
#SELECTABLE:YES;
#BPMS:0.000=135.040;
#STOPS:;
#BGCHANGES:0.000=Stuck In Your Radio.avi=1.000=1=0=0,
99999=-nosongbg-=1.000=0=0=0 // don't automatically add -songbackground-
;

//---------------dance-single - ----------------
#NOTES:
     dance-single:
     :
     Beginner:
     1:
     0.118,0.171,0.026,0.000,0.000:
0000
0000
0000
0000
,
0000
0000
0000
0000
,
0000
0000
0000
0000
,
0000
0000
0000
0000
,
0100
0000
0000
0000
,
0010
0000
0010
0000
,
1000
0000
0000
0000
,
0001
0000
0001
0000
,
0010
0000
0000
0000
,
0100
0000
0100
0000
,
1000
0000
0000
0000
,
0010
0000
0010
0000
,
0100
0000
0000
0000
,
0001
0001
0000
0000
,
1000
1000
0000
0000
,
0010
0010
0000
0000
,
0100
0000
0100
0000
,
0100
0000
0001
0000
,
0010
0000
0010
0000
,
0010
0000
0000
0000
,
0001
0000
1000
0000
,
0001
0000
1000
0000
,
0001
0000
1000
0000
,
0001
0001
0001
0000
,
1000
0000
0001
0000
,
1000
0000
0001
0000
,
1000
0000
0001
0000
,
1000
1000
1000
0000
,
0110
0000
0000
0000
,
0000
0000
0000
0000
,
0000
0000
0000
0000
,
0000
0000
0000
0000
,
0100
0000
0000
0000
,
0001
0000
1000
0000
,
0010
0000
0000
0000
,
1000
0000
0000
0000
,
0100
0000
0000
0000
,
0010
0000
0001
0000
,
1000
0000
0000
0000
,
1001
0000
0000
0000
,
0010
0010
0000
0000
,
0001
0001
0000
0000
,
1000
1000
0000
0000
,
0100
0100
0000
0000
,
1000
0000
1000
0000
,
1000
0000
0100
0000
,
0010
0000
0010
0000
,
0110
0000
0000
0000
,
0001
0000
1000
0000
,
0001
0001
0001
0000
,
1000
0000
0001
0000
,
1000
1000
1000
0000
,
0001
0000
1000
0000
,
0001
0001
0001
0000
,
1000
0000
0001
0000
,
1000
1000
1000
1000
,
1000
0000
0000
0000
;

//---------------dance-single - ----------------
#NOTES:
     dance-single:
     :
     Medium:
     6:
     0.286,0.323,0.157,0.139,0.000:
0000
0000
0000
0000
,
0000
0000
0000
0000
,
0000
0000
0000
0000
,
0000
0000
0000
0000
,
0010
0110
0000
0001
,
0100
0001
1000
0000
0010
0000
0000
0000
,
1000
1100
0000
0001
,
0010
0001
0100
0000
0010
0000
0000
0000
,
0001
1001
0000
0100
,
1000
0001
0010
0000
0001
0000
0000
0000
,
0100
1010
0000
0100
,
0001
1000
0100
0000
0010
0000
0000
0000
,
0002
0103
0010
1000
,
0100
0000
0010
0000
0001
0001
1000
0000
,
0020
0130
0001
0010
,
0100
0000
1000
0000
0100
0100
0010
0000
,
0100
1000
0010
0100
,
0110
1001
0110
0000
,
0001
0000
1000
0000
0010
0000
0100
0020
,
0000
0000
0000
0030
,
0100
0001
0000
1000
0000
0100
0000
0010
,
0000
0001
0000
1000
0001
0000
0000
0000
,
0100
0010
0100
0010
0100
0000
0000
0001
,
0000
1000
0000
0100
0100
0000
0000
0000
,
0010
0001
1000
0100
,
1000
0000
0010
0000
0100
0100
0100
0000
,
0010
0000
1000
0000
0100
0000
0010
0001
,
0000
1000
0000
0010
0200
0000
0302
0000
,
2003
0100
0000
0100
,
0000
0100
0000
3100
,
0002
0000
0013
0000
0000
1001
0000
2002
,
0000
0000
0000
3003
,
0100
1100
0000
0010
,
1000
0001
0100
0000
0010
0000
0000
0000
,
0100
1010
0000
1000
,
0001
0010
0200
0000
0000
0000
0300
0000
,
0010
1001
0000
0100
,
1000
0010
0100
0000
0001
0000
1000
0000
,
0010
0000
1100
0000
0000
0011
0000
2002
,
0000
0000
0000
3003
,
0010
0000
0100
0000
0010
0010
1000
0000
,
0100
0000
0010
0000
0001
0001
0100
0000
,
0010
0000
1000
0000
0100
0100
1000
0000
,
0001
0000
0010
0000
0001
0001
0100
0000
,
0010
1000
0100
0010
,
0011
1100
1001
0000
,
0010
0000
1000
0000
0001
0000
1000
0200
,
0000
0000
0000
0300
,
0001
0010
0000
0100
0000
0001
0000
1000
,
0000
0010
0000
0100
0010
0000
0000
0000
,
0001
1000
0001
1000
0001
0000
0000
0010
,
0000
0100
0000
0001
0001
0000
0000
0000
,
1000
0010
0100
0001
,
1000
0000
0100
0000
1000
1000
1000
0000
,
0010
0100
0010
0100
0010
0000
0000
0001
,
0000
0100
0000
0010
0020
0000
2030
0000
,
3002
0000
0000
0000
,
0003
0000
0000
0000
;

//---------------dance-single - ----------------
#NOTES:
     dance-single:
     :
     Hard:
     9:
     0.367,0.372,0.227,0.113,0.009: // measure 1
0000
0000
0000
0000
,  // measure 2
0000
0000
0000
0000
,  // measure 3
0000
0000
0000
0000
,  // measure 4
0000
0000
0000
0000
,  // measure 5
1000
0001
0200
0000
0300
0000
0010
0000
,  // measure 6
0100
0001
1000
0000
0100
1000
0100
0000
,  // measure 7
0010
0001
2000
0000
3000
0000
0010
0000
,  // measure 8
1000
0100
0020
0000
0031
0000
0101
0000
,  // measure 9
0010
1000
0001
1000
0010
0100
0000
0000
,  // measure 10
0010
0000
0100
0000
0001
0100
0010
0000
,  // measure 11
1000
0000
0100
0010
0000
0001
1000
0001
,  // measure 12
0100
0100
0100
0000
0010
0100
0002
0000
,  // measure 13
0103
0000
1010
0000
0100
1000
0100
0000
,  // measure 14
0010
0001
1000
0000
0010
1000
0001
0000
,  // measure 15
0100
0000
0101
0000
0010
0100
0001
0000
,  // measure 16
0010
0001
1000
0000
0100
1000
0010
0000
,  // measure 17
0100
0001
0000
1000
0000
0100
0000
1001
,  // measure 18
0000
0010
0000
0100
0001
1000
0100
0000
,  // measure 19
1000
0001
0000
1000
0000
1010
0000
0002
,  // measure 20
0000
0000
0000
0103
,  // measure 21
0010
0100
0000
0001
0000
1000
0000
1100
,  // measure 22
0000
0001
0000
0010
0001
0000
1000
0000
,  // measure 23
0010
0100
0010
0000
1000
0100
0000
1001
,  // measure 24
0000
1010
0000
0001
0100
0001
1000
0000
,  // measure 25
0100
0010
0100
0000
1000
0100
1000
0000
,  // measure 26
0010
1000
0001
0000
0100
0100
0001
0000
,  // measure 27
1000
0100
0010
0000
0001
1000
0000
0110
,  // measure 28
0000
1001
0000
0100
1000
0010
0200
0000
,  // measure 29
0301
0101
0000
1000
,  // measure 30
0010
1100
0000
0010
,  // measure 31
1000
0000
0101
0000
0000
0000
0000
0220
,  // measure 32
0000
0000
0000
0330
,  // measure 33
0001
0100
1000
0000
0100
0000
0001
0000
,  // measure 34
1000
0100
0010
0000
0001
0000
1000
0000
,  // measure 35
0001
0010
1000
0000
0010
0000
0001
0000
,  // measure 36
0100
0000
0000
0001
0000
0000
0010
0000
0000
0000
0100
0000
0000
0000
1000
0000
0000
0000
0000
0000
0000
0010
0000
0000
,  // measure 37
0100
0001
1000
0000
0100
0000
1000
0000
,  // measure 38
0001
0010
0100
0000
1000
0000
0001
0000
,  // measure 39
1000
0010
0100
0001
1000
0001
0000
0202
,  // measure 40
0000
0000
0000
0300
0000
1000
1003
0000
,  // measure 41
0100
0010
0100
0000
1000
0000
0101
0000
,  // measure 42
0010
0001
1000
0000
0100
1000
0010
0000
,  // measure 43
0100
0001
1000
0000
0100
0000
1100
0000
,  // measure 44
0010
1000
0001
0000
0010
0001
0100
0000
,  // measure 45
0010
1000
0000
0001
0000
0100
0000
0101
,  // measure 46
0000
1100
0000
0010
0100
0010
1000
0000
,  // measure 47
0100
1000
0000
0011
0000
0110
0000
2000
,  // measure 48
0000
0000
0000
3010
,  // measure 49
0100
0010
0000
1000
0000
0001
0000
0011
,  // measure 50
0000
1000
0000
0100
1000
0100
0001
0000
,  // measure 51
0100
0010
0100
0000
0001
0010
0000
1001
,  // measure 52
0000
0101
0000
1000
0010
1000
0001
0000
,  // measure 53
0010
0100
0010
0000
0001
0010
0001
0000
,  // measure 54
0100
0001
1000
0000
0010
0010
1000
0000
,  // measure 55
0001
0010
0100
0000
1000
0001
0000
0110
,  // measure 56
0000
0001
0100
0010
1000
0100
0010
0000
,  // measure 57
0202
0000
0000
0000
,  // measure 58
0303
0000
0000
0000
;

//---------------dance-single - ----------------
#NOTES:
     dance-single:
     :
     Easy:
     4:
     0.229,0.248,0.078,0.105,0.000:
0000
0000
0000
0000
,
0000
0000
0000
0000
,
0000
0000
0000
0000
,
0000
0000
0000
0000
,
0010
0010
0000
1000
,
0100
1000
0010
0100
,
0001
0010
0000
0001
,
0010
0001
0100
0010
,
1000
0100
0000
1000
,
0010
0100
0010
1000
,
0001
0010
0000
0001
,
0100
0010
0100
0000
,
0001
0001
1000
0100
,
1000
1000
0010
0000
,
0100
0100
0001
1000
,
0010
0010
1000
0000
,
0100
0100
1000
1000
,
0010
0100
0001
0000
,
0010
0000
0010
0000
0001
0000
0000
2002
,
0000
0000
0000
3003
,
0100
0100
1000
0010
,
0100
0001
1000
1000
,
0001
0000
0010
0000
0001
0000
0100
0100
,
0000
0100
0000
0100
0000
0000
0000
0000
,
0010
1000
0100
1000
,
0001
0001
1000
1000
,
0010
0100
0001
0000
,
1000
0100
1100
0010
,
2002
0000
3003
0000
,
0100
0000
0100
0000
,
0010
0000
0010
0000
,
0000
0000
0000
0000
,
0001
0001
0000
1000
,
0010
1000
0100
0010
,
0100
0100
0000
0010
,
0000
2002
0000
3003
,
0010
1000
0000
0100
,
1000
0010
0000
0000
,
0001
0010
0000
1001
,
2002
0000
0000
3003
,
0010
1000
0100
0010
,
0001
1000
0001
0000
,
0010
0001
0000
1000
,
0100
1000
0010
0000
,
0100
0100
0010
1000
,
0100
0010
0001
0000
,
0010
0000
0001
0000
0100
0100
0000
0202
,
0000
0000
0000
0303
,
0010
0010
0001
0100
,
0010
1000
0001
0001
,
1000
0000
0100
0000
1000
0000
0010
0010
,
0000
0010
0000
0010
0000
0000
0000
0000
,
0100
0001
0010
0001
,
1000
1000
0001
0001
,
0100
0010
1000
0000
,
0001
0010
0011
0100
,
2002
0000
0000
0000
,
3003
0000
0000
0000
;
