#TITLE:SPHERE;
#SUBTITLE:;
#ARTIST:TATSH feat. K.NAYUKI;
#TITLETRANSLIT:;
#SUBTITLETRANSLIT:;
#ARTISTTRANSLIT:;
#CREDIT:;
#BANNER:Sphere-bn.png;
#BACKGROUND:Sphere-bg.png;
#LYRICSPATH:;
#CDTITLE:LOGO.png;
#MUSIC:Sphere.mp3;
#OFFSET:-0.403;
#SAMPLESTART:37.903;
#SAMPLELENGTH:11.980;
#SELECTABLE:YES;
#BPMS:0.000=160.000,68.000=80.000,84.000=160.000;
#STOPS:;
#BGCHANGES:-0.300=Sphere.avi=1.000=1=1=0,
99999=-nosongbg-=1.000=0=0=0 // don't automatically add -songbackground-
;

//---------------dance-single - ----------------
#NOTES:
     dance-single:
     :
     Medium:
     8:
     0.403,0.469,0.105,0.131,0.017: // measure 1
0000
0000
0000
0000
,  // measure 2
0000
0000
0000
0000
,  // measure 3
0000
0000
0000
0000
,  // measure 4
0000
0000
0000
0000
,  // measure 5
1000
0100
0010
0001
0010
0001
0010
0100
,  // measure 6
0000
0000
0000
0000
,  // measure 7
0001
0010
0100
1000
0100
1000
0100
0010
,  // measure 8
0000
0000
0000
0000
,  // measure 9
1000
0001
1000
0000
0010
0000
1000
0000
,  // measure 10
0100
0000
0000
1000
0000
0000
0010
0000
0000
0100
0000
0000
0001
0000
0000
0000
,  // measure 11
0001
0100
0001
0000
0010
0000
0100
0000
,  // measure 12
1000
0000
0000
0100
0000
0000
1000
0000
0010
0000
0010
0000
0000
0010
0000
0000
,  // measure 13
0100
0001
0100
0000
1010
0000
1000
0000
,  // measure 14
1010
0110
1010
1001
,  // measure 15
0001
0010
0100
1000
0100
0010
0001
0010
,  // measure 16
0001
0010
0100
1000
0100
0010
0100
1000
,  // measure 17
0000
0000
0000
0000
,  // measure 18
2000
0000
3002
0000
,  // measure 19
2003
3200
0320
0032
,  // measure 20
0203
0000
0302
0000
,  // measure 21
0023
0230
2300
3200
,  // measure 22
0310
0001
0010
0000
0001
0000
0100
0000
,  // measure 23
0001
0100
0001
0000
0100
0000
0010
0000
,  // measure 24
1000
0100
1000
0000
0010
0000
0100
0000
,  // measure 25
0001
0010
0001
0000
0100
0000
0001
0000
,  // measure 26
0010
0001
0010
0000
0100
0000
1000
0000
,  // measure 27
0100
1000
0100
0000
0010
0000
0100
0000
,  // measure 28
0010
0001
0010
0000
0001
0000
0010
0000
,  // measure 29
0100
0010
0100
0000
0010
0000
0100
0000
,  // measure 30
1100
0000
0000
0101
0000
0000
0011
0000
,  // measure 31
0010
0010
0001
0010
0001
0100
0001
0100
,  // measure 32
0110
0000
0000
1010
0000
0000
0101
0000
,  // measure 33
0100
0100
0010
1000
0010
1000
0100
0010
,  // measure 34
0001
0010
0001
0010
0000
0001
0001
0001
,  // measure 35
0000
0100
0100
0010
0000
1000
1000
0010
,  // measure 36
0100
0001
0010
0100
,  // measure 37
1000
0100
0010
0001
,  // measure 38
0001
0001
0100
0000
0010
0010
1000
0000
,  // measure 39
2000
0000
3002
0000
,  // measure 40
0003
0000
0000
0000
,  // measure 41
1000
0001
1000
0000
0001
0000
1000
0000
,  // measure 42
0001
0100
0001
0000
0010
0000
0001
0000
,  // measure 43
0100
0010
0100
0000
0010
0000
1000
0000
,  // measure 44
0100
0010
0100
0000
1000
0000
0100
0000
,  // measure 45
1000
0001
1000
0000
0100
0000
0010
0000
,  // measure 46
0001
0010
0001
0000
0010
0000
0100
0000
,  // measure 47
0010
0100
0010
0000
0100
0000
0010
0000
,  // measure 48
0001
0010
0001
0000
0010
0000
0100
0000
,  // measure 49
1000
0100
1000
0000
0100
0000
0010
0000
,  // measure 50
0001
0100
0001
0000
0010
0000
0001
0000
,  // measure 51
0100
0010
0100
0000
0010
0000
1000
0000
,  // measure 52
0100
1000
0100
0000
0010
0000
0001
0000
,  // measure 53
0010
0001
0010
0000
0100
0000
0010
0000
,  // measure 54
0100
0010
0100
0000
0010
0000
0100
0000
,  // measure 55
1000
0100
1000
0000
0100
0000
0010
0000
,  // measure 56
0001
0001
0010
0000
0100
0000
1000
0000
,  // measure 57
0100
0100
0010
0000
0001
0000
0010
0000
,  // measure 58
0100
0100
1000
0000
0100
0000
0010
0000
,  // measure 59
0001
0001
0010
0000
0100
0000
1000
0000
,  // measure 60
0100
0100
0010
0000
0001
0000
0010
0000
,  // measure 61
0100
0100
1000
0000
0100
0000
0010
0000
,  // measure 62
0001
0001
0010
0000
0100
0000
1000
0000
,  // measure 63
1100
1000
0100
1000
,  // measure 64
0010
1000
0100
0010
0001
0010
0100
1000
,  // measure 65
0010
0100
0001
0010
0001
0010
0100
1000
,  // measure 66
0200
0000
0000
0000
,  // measure 67
0000
0000
0000
0000
,  // measure 68
0300
0000
0000
0000
;

//---------------dance-single - ----------------
#NOTES:
     dance-single:
     :
     Easy:
     5:
     0.299,0.381,0.052,0.149,0.000: // measure 1
0000
0000
0000
0000
,  // measure 2
0000
0000
0000
0000
,  // measure 3
0000
0000
0000
0000
,  // measure 4
0000
0000
0000
0000
,  // measure 5
1000
1000
0100
1000
,  // measure 6
0100
0000
0000
0000
,  // measure 7
0001
0001
0010
0001
,  // measure 8
0010
0000
0000
0000
,  // measure 9
1000
1000
0001
1000
,  // measure 10
0000
0000
0000
0000
,  // measure 11
0001
0001
1000
0001
,  // measure 12
0000
0000
0000
0000
,  // measure 13
0100
0100
0010
0100
,  // measure 14
0010
1000
0100
1000
,  // measure 15
0010
0010
0100
0010
,  // measure 16
1000
0000
0100
0000
0010
0000
0001
0001
,  // measure 17
0000
0000
0000
0000
,  // measure 18
0200
0000
0320
0000
,  // measure 19
0230
0302
0023
0230
,  // measure 20
2300
0000
3020
0000
,  // measure 21
2030
3200
0320
0032
,  // measure 22
0103
0100
0010
0010
,  // measure 23
1000
1000
0001
0001
,  // measure 24
0100
0100
0001
0001
,  // measure 25
0010
0010
0100
0100
,  // measure 26
1000
0001
1000
0001
,  // measure 27
0100
0001
0100
0001
,  // measure 28
0010
0001
0010
0001
,  // measure 29
0200
0000
0320
0000
,  // measure 30
1030
0100
0010
0100
,  // measure 31
0010
0001
0100
0100
,  // measure 32
0001
0010
0100
0010
,  // measure 33
0100
1000
0100
0100
,  // measure 34
0010
0100
0010
1000
,  // measure 35
0100
1000
0010
1000
,  // measure 36
0100
1000
0100
0010
,  // measure 37
0001
0010
0001
0100
,  // measure 38
0001
1001
1000
1001
,  // measure 39
2000
0000
3002
0000
,  // measure 40
0003
0000
0000
0000
,  // measure 41
1000
0010
1000
0100
,  // measure 42
1000
0010
0100
0001
,  // measure 43
0010
0001
0100
0001
,  // measure 44
0010
0100
1000
0100
,  // measure 45
1000
0010
0100
0001
,  // measure 46
0010
0001
0100
0001
,  // measure 47
1000
0010
1000
0100
,  // measure 48
1100
1100
0100
0010
,  // measure 49
0001
0010
0100
0010
,  // measure 50
0100
1000
0100
1000
,  // measure 51
0010
0100
0001
0010
,  // measure 52
0001
0100
0001
0010
,  // measure 53
0001
0100
0010
1000
,  // measure 54
0001
1000
0010
0100
,  // measure 55
0010
1000
0100
0010
,  // measure 56
0001
0001
1000
1000
,  // measure 57
0001
0001
1000
1000
,  // measure 58
0010
0010
0100
0100
,  // measure 59
0010
0010
0100
0100
,  // measure 60
0001
1000
0001
1000
,  // measure 61
0010
0100
0010
0100
,  // measure 62
0001
1000
0001
1000
,  // measure 63
1001
0001
0010
0100
,  // measure 64
1100
0100
1000
0100
,  // measure 65
0010
0001
0100
0001
,  // measure 66
0020
0000
0000
0000
,  // measure 67
0000
0000
0000
0000
,  // measure 68
0030
0000
0000
0000
;

//---------------dance-single - ----------------
#NOTES:
     dance-single:
     :
     Beginner:
     2:
     0.125,0.199,0.044,0.000,0.000: // measure 1
0000
0000
0000
0000
,  // measure 2
0000
0000
0000
0000
,  // measure 3
0000
0000
0000
0000
,  // measure 4
0000
0000
0000
0000
,  // measure 5
1000
0000
0000
0000
,  // measure 6
0000
0000
0000
0000
,  // measure 7
0001
0000
0000
0000
,  // measure 8
0000
0000
0000
0000
,  // measure 9
0100
0000
0000
0000
,  // measure 10
0100
0000
0000
0000
,  // measure 11
0010
0000
0000
0000
,  // measure 12
0010
0000
0000
0000
,  // measure 13
1000
0000
0000
0000
,  // measure 14
0001
0000
0000
0000
,  // measure 15
1001
0000
0000
0000
,  // measure 16
0110
0000
0000
0000
,  // measure 17
0000
0000
0000
0000
,  // measure 18
1000
0000
0000
0000
,  // measure 19
0001
0001
0001
0000
,  // measure 20
0010
0000
0000
0000
,  // measure 21
0100
0100
0100
0000
,  // measure 22
1000
0000
0000
0000
,  // measure 23
0001
0000
0000
0000
,  // measure 24
0100
0000
0000
0000
,  // measure 25
0010
0010
0010
0010
,  // measure 26
0010
0000
0000
0000
,  // measure 27
1000
0000
0000
0000
,  // measure 28
0100
0000
0000
0000
,  // measure 29
0010
0000
0010
0000
,  // measure 30
0001
0000
0000
0000
,  // measure 31
1000
0000
0000
0000
,  // measure 32
0010
0000
0000
0000
,  // measure 33
0100
0000
0000
0000
,  // measure 34
0001
0000
0001
0000
,  // measure 35
0001
0000
0000
0000
,  // measure 36
1000
0000
1000
0000
,  // measure 37
1000
0000
0000
0000
,  // measure 38
1001
0000
1001
0000
,  // measure 39
1001
0000
0000
0000
,  // measure 40
0000
0000
0000
0000
,  // measure 41
0100
0000
0000
0010
,  // measure 42
0010
0000
0000
1000
,  // measure 43
1000
0000
0000
0001
,  // measure 44
0001
0000
0000
1000
,  // measure 45
1000
0000
0000
0100
,  // measure 46
0100
0000
0000
0010
,  // measure 47
0010
0000
0000
0000
,  // measure 48
0001
0001
0000
0000
,  // measure 49
0100
0100
0000
0000
,  // measure 50
0010
0010
0000
0000
,  // measure 51
1000
1000
0000
0000
,  // measure 52
1000
0000
1000
0000
,  // measure 53
0001
0000
0000
0000
,  // measure 54
0001
0000
0001
0000
,  // measure 55
0100
0000
0000
0000
,  // measure 56
0010
0000
0010
0000
,  // measure 57
0100
0000
0100
0000
,  // measure 58
0010
0000
0010
0000
,  // measure 59
0100
0000
0100
0000
,  // measure 60
0001
0000
0001
0000
,  // measure 61
1000
0000
1000
0000
,  // measure 62
0001
0000
0001
0000
,  // measure 63
1000
0000
1000
0000
,  // measure 64
0010
0010
0010
0010
,  // measure 65
0010
0010
0010
0010
,  // measure 66
0010
0000
0000
0000
;

//---------------dance-single - ----------------
#NOTES:
     dance-single:
     :
     Hard:
     12:
     0.602,0.732,0.271,0.149,0.219: // measure 1
0000
0000
0000
0000
,  // measure 2
0000
0000
0000
0000
,  // measure 3
0000
0000
0000
0000
,  // measure 4
0000
0000
0000
0000
,  // measure 5
1000
0001
0100
0010
0100
0100
0001
1000
,  // measure 6
0000
0000
0000
0000
,  // measure 7
0001
0010
0100
1000
0010
0010
1000
0001
,  // measure 8
2002
0000
0000
3003
,  // measure 9
0010
1000
0000
1000
0010
0000
1000
0100
1000
0000
0010
0000
0100
0000
0001
0000
,  // measure 10
0010
0001
0000
0100
0000
0000
0010
0000
0000
1000
0000
0000
0100
0000
0100
0000
,  // measure 11
0010
0001
0000
0001
0010
0000
0100
1000
0100
0000
1000
0000
0001
0000
1000
0000
,  // measure 12
0010
1000
0000
0100
0000
0000
1000
0000
0001
0000
0100
0000
0000
0010
0000
0000
,  // measure 13
1010
1000
0100
1000
1001
1000
0010
0100
,  // measure 14
0101
1100
0011
1010
,  // measure 15
0001
1000
0001
1000
0010
0100
0010
0100
,  // measure 16
0001
0010
0001
0010
0100
1000
0100
1000
,  // measure 17
0000
0000
0000
0000
,  // measure 18
1001
0000
1000
0100
0010
0000
0001
0000
,  // measure 19
1000
0010
0100
0001
0010
0100
1000
0010
,  // measure 20
0100
0000
0001
0100
0001
0000
0010
1000
,  // measure 21
0001
0100
0010
0100
0202
0000
0000
0303
,  // measure 22
0020
0000
1030
0100
1000
0010
2000
0000
,  // measure 23
3002
0000
0103
0001
0100
0010
2000
0000
,  // measure 24
3200
0000
1300
0010
1000
0001
0200
0000
,  // measure 25
0310
0000
0000
0010
1000
0000
0000
1000
0001
0000
0000
0001
0010
0000
0000
0010
,  // measure 26
0200
0000
1300
0010
0100
0001
1000
0100
,  // measure 27
2000
0000
3010
1000
0001
1000
0010
0100
,  // measure 28
0020
0000
0130
0001
0010
0100
1000
0001
,  // measure 29
1000
0010
0100
0001
0010
0100
0010
0001
,  // measure 30
0101
0000
0010
1000
0100
0000
1001
0000
,  // measure 31
0010
1000
0100
0000
0011
0000
1100
0000
,  // measure 32
1001
0000
0010
0100
0001
0000
0110
0000
,  // measure 33
0001
0010
0100
0000
1001
0000
1010
0000
,  // measure 34
1100
1000
0010
1000
0000
0100
0001
0100
,  // measure 35
0000
0010
1000
0010
0000
1000
0001
1000
,  // measure 36
0010
0100
0001
0010
1000
0010
0001
0100
,  // measure 37
0010
1000
0100
1000
0010
0100
0001
1000
,  // measure 38
0100
0010
0100
0010
0100
0000
0000
0000
0010
0100
0010
0100
0010
0000
0000
0000
,  // measure 39
0101
1010
0011
1001
,  // measure 40
2000
0000
0002
3003
,  // measure 41
0010
1000
0100
0001
0100
1000
0010
0100
,  // measure 42
0001
0010
1000
0010
0001
0100
0010
0100
,  // measure 43
0001
1000
0100
0010
0001
0010
1000
0010
,  // measure 44
0001
0100
0010
1000
0100
0010
0001
0100
,  // measure 45
0010
0100
0001
0010
0100
1000
0010
1000
,  // measure 46
0100
0010
0001
0100
1000
0100
0001
1000
,  // measure 47
0100
0010
0001
1000
0010
0100
0001
0010
,  // measure 48
0011
0000
0000
0000
1001
0000
0000
0000
0010
1000
0010
1000
0010
0000
0000
0000
,  // measure 49
1100
0000
0000
0000
1001
0000
0000
0000
0100
0001
0100
0001
0100
0000
0000
0000
,  // measure 50
1010
0000
0000
0000
0011
0000
0000
0000
1000
0001
1000
0001
1000
0000
0000
0000
,  // measure 51
1010
0000
0000
0000
1100
0000
0000
0000
1000
0001
1000
0001
1000
0000
0000
0000
,  // measure 52
0010
0000
0000
0010
1000
0000
0000
1000
0100
0000
0000
0100
0010
0000
0000
0010
,  // measure 53
0001
0000
0000
0001
0100
0000
0000
0100
0010
0000
0000
0010
1000
0000
0000
1000
,  // measure 54
0001
1000
0100
1000
0001
1000
0100
1000
,  // measure 55
0010
0100
0001
0100
0010
0100
0001
0100
,  // measure 56
0010
1000
0100
1000
0010
0100
0001
0010
,  // measure 57
1000
0010
0001
1000
0100
0010
0001
0100
,  // measure 58
1000
0100
0001
1000
0100
0010
0001
0100
,  // measure 59
0010
0000
1000
0000
0100
0000
1000
0000
0010
0100
0010
0000
1000
0001
1000
0000
,  // measure 60
0100
0010
0001
0100
0010
0100
0001
0010
,  // measure 61
1000
0010
0001
1000
0010
0100
0010
1000
,  // measure 62
0100
1000
0010
0100
0001
0010
0100
0010
,  // measure 63
0001
0010
0001
0000
1000
0100
1000
0000
0001
0100
0001
0000
1000
0010
1000
0000
,  // measure 64
0001
1000
0001
0000
0100
0010
0100
0000
0001
0010
0001
0000
1000
0100
1000
0000
,  // measure 65
0001
1000
0001
0000
1000
0010
1000
0000
0001
0100
0001
0000
1000
0100
1000
0000
,  // measure 66
2002
0000
0000
0000
,  // measure 67
0000
0000
0000
0000
,  // measure 68
3003
0000
0000
0000
;
