#TITLE:SHUT ME UP;
#SUBTITLE:;
#ARTIST:mindless self indulgence;
#TITLETRANSLIT:;
#SUBTITLETRANSLIT:;
#ARTISTTRANSLIT:;
#CREDIT:;
#BANNER:Shut Me Up-bn.png;
#BACKGROUND:Shut Me Up-bg.png;
#LYRICSPATH:;
#CDTITLE:;
#MUSIC:Shut Me Up.mp3;
#OFFSET:-0.437;
#SAMPLESTART:33.540;
#SAMPLELENGTH:12.000;
#SELECTABLE:YES;
#BPMS:0.000=174.000;
#STOPS:;
#BGCHANGES:-0.300=Shut Me Up.avi=1.000=1=1=0,
383.500=Shut Me Up-bg.png=1.000=1=0=0,
99999=-nosongbg-=1.000=0=0=0 // don't automatically add -songbackground-
;

//---------------dance-single - ----------------
#NOTES:
     dance-single:
     :
     Easy:
     6:
     0.416,0.612,0.226,0.219,0.000: // measure 1
0000
0000
0000
0000
,  // measure 2
0000
0000
0000
0000
,  // measure 3
0000
0000
0000
0000
,  // measure 4
0000
0000
0000
0000
,  // measure 5
1000
1000
0100
0000
,  // measure 6
0001
0001
0100
0000
,  // measure 7
0010
0010
1000
0000
,  // measure 8
1100
0000
1100
0000
,  // measure 9
0001
0010
0001
0000
,  // measure 10
1000
0001
1000
0000
,  // measure 11
0010
1000
0010
0000
,  // measure 12
0100
0001
0100
0010
,  // measure 13
1000
0100
1000
0000
,  // measure 14
0100
0010
0100
0000
,  // measure 15
0001
0010
0001
0000
,  // measure 16
1000
0001
1000
0010
,  // measure 17
0200
0302
0023
0032
,  // measure 18
2003
3020
0230
0301
,  // measure 19
0001
0001
1000
1000
,  // measure 20
0010
0010
0100
0100
,  // measure 21
0002
2003
3020
2030
,  // measure 22
3200
2300
3020
0230
,  // measure 23
0301
0001
0010
0010
,  // measure 24
0110
0000
1001
0000
,  // measure 25
1000
0001
1000
0010
,  // measure 26
0100
0001
0010
0001
,  // measure 27
0100
0010
1000
0010
,  // measure 28
0110
0000
1001
1001
,  // measure 29
1000
0100
0010
0001
,  // measure 30
0010
0100
1000
0001
,  // measure 31
1000
0010
0100
0001
,  // measure 32
0011
0000
1001
0000
,  // measure 33
1000
0100
1000
0010
,  // measure 34
0100
0001
0010
0001
,  // measure 35
0100
0001
0010
0100
,  // measure 36
1100
0000
1010
1010
,  // measure 37
0100
0001
0010
0001
,  // measure 38
0100
0010
1000
0100
,  // measure 39
1000
0010
0100
0010
,  // measure 40
1010
0000
0101
0000
,  // measure 41
0001
0001
0010
0010
,  // measure 42
0100
0100
0100
0000
,  // measure 43
1000
1000
0100
0100
,  // measure 44
0010
0010
0010
0000
,  // measure 45
0001
0001
0010
0010
,  // measure 46
0100
0100
0100
0000
,  // measure 47
1000
1000
0100
0100
,  // measure 48
0110
0000
0000
0000
,  // measure 49
0001
0010
0001
0000
,  // measure 50
1000
0100
1000
0000
,  // measure 51
0010
0100
0010
0000
,  // measure 52
1000
0001
1000
0001
,  // measure 53
0001
0100
0001
0000
,  // measure 54
0010
0001
0010
0000
,  // measure 55
0100
1000
0100
0000
,  // measure 56
1000
0001
1000
0010
,  // measure 57
0200
0302
0023
0032
,  // measure 58
0203
0320
2030
3100
,  // measure 59
1000
0100
1000
1000
,  // measure 60
0010
0100
0001
0010
,  // measure 61
0020
0230
0320
0032
,  // measure 62
0203
0320
2030
3100
,  // measure 63
1000
0001
0010
0100
,  // measure 64
1100
0000
1001
0000
,  // measure 65
0001
0010
0001
0100
,  // measure 66
0010
1000
0100
1000
,  // measure 67
0010
0100
0001
0010
,  // measure 68
0011
0000
0101
0101
,  // measure 69
0010
1000
0100
1000
,  // measure 70
0010
0100
0001
0010
,  // measure 71
0100
1000
0010
0100
,  // measure 72
0110
0000
1010
0000
,  // measure 73
1000
0010
0100
0010
,  // measure 74
1000
0100
0010
0001
,  // measure 75
0100
0001
0010
0001
,  // measure 76
0101
0000
1001
1001
,  // measure 77
1000
0100
0010
0001
,  // measure 78
0010
0100
1000
0010
,  // measure 79
0100
0001
0010
0001
,  // measure 80
0101
0000
1010
0000
,  // measure 81
1001
0001
0100
0001
,  // measure 82
0100
0001
0100
0001
,  // measure 83
1000
0010
1000
0010
,  // measure 84
1000
0010
1000
0010
,  // measure 85
0100
0010
0100
0010
,  // measure 86
0100
0010
0100
0010
,  // measure 87
1000
0100
1000
0100
,  // measure 88
1000
0100
1000
0100
,  // measure 89
1000
1000
0001
0001
,  // measure 90
0100
0100
0010
0010
,  // measure 91
0100
0100
0001
0001
,  // measure 92
1000
1000
0010
0010
,  // measure 93
0100
0100
0010
0010
,  // measure 94
1000
1000
0001
0001
,  // measure 95
0100
0100
0010
0010
,  // measure 96
0110
0000
1001
0000
;

//---------------dance-single - ----------------
#NOTES:
     dance-single:
     :
     Beginner:
     3:
     0.204,0.252,0.000,0.000,0.000: // measure 1
0000
0000
0000
0000
,  // measure 2
0000
0000
0000
0000
,  // measure 3
0000
0000
0000
0000
,  // measure 4
0000
0000
0000
0000
,  // measure 5
0010
0000
0000
0000
,  // measure 6
1000
0000
0000
0000
,  // measure 7
0100
0000
0000
0000
,  // measure 8
1000
0000
1000
0000
,  // measure 9
1000
0000
0001
0000
,  // measure 10
0100
0000
0001
0000
,  // measure 11
0010
0000
0001
0000
,  // measure 12
0100
0000
0010
0000
,  // measure 13
1000
0000
0100
0000
,  // measure 14
1000
0000
0010
0000
,  // measure 15
0100
0000
0010
0000
,  // measure 16
0100
0000
0001
0000
,  // measure 17
0010
0000
0001
0000
,  // measure 18
0100
0000
0010
0000
,  // measure 19
1000
0000
0001
0000
,  // measure 20
0100
0000
0001
0000
,  // measure 21
0010
0000
0100
0000
,  // measure 22
1000
0000
0010
0000
,  // measure 23
0100
0000
0010
0000
,  // measure 24
1000
0000
0001
0000
,  // measure 25
0100
0000
0001
0000
,  // measure 26
0010
0000
0001
0000
,  // measure 27
0100
0000
0010
0000
,  // measure 28
0100
0000
0010
0000
,  // measure 29
1000
0000
0100
0000
,  // measure 30
1000
0000
0010
0000
,  // measure 31
0100
0000
0001
0000
,  // measure 32
0010
0000
0010
0000
,  // measure 33
0010
0000
0001
0000
,  // measure 34
0100
0000
0010
0000
,  // measure 35
0100
0000
0010
0000
,  // measure 36
1000
0000
0100
0000
,  // measure 37
0010
0000
0100
0000
,  // measure 38
1000
0000
0001
0000
,  // measure 39
0100
0000
0001
0000
,  // measure 40
0010
0000
0010
0000
,  // measure 41
0010
0000
1000
0000
,  // measure 42
0010
0000
1000
0000
,  // measure 43
0001
0000
0100
0000
,  // measure 44
0001
0000
0100
0000
,  // measure 45
0010
0000
1000
0000
,  // measure 46
0010
0000
1000
0000
,  // measure 47
0100
0000
1000
0000
,  // measure 48
0100
0000
0100
0000
,  // measure 49
1000
0000
1000
0000
,  // measure 50
1000
0000
1000
0000
,  // measure 51
0001
0000
0001
0000
,  // measure 52
0001
0000
0001
0000
,  // measure 53
0010
0000
0010
0000
,  // measure 54
0010
0000
0010
0000
,  // measure 55
0100
0000
0100
0000
,  // measure 56
0100
0000
0100
0000
,  // measure 57
1000
0000
0001
0000
,  // measure 58
1000
0000
0010
0000
,  // measure 59
0100
0000
0001
0000
,  // measure 60
0010
0000
0001
0000
,  // measure 61
0010
0000
0100
0000
,  // measure 62
1000
0000
0010
0000
,  // measure 63
1000
0000
0010
0000
,  // measure 64
0100
0000
0001
0000
,  // measure 65
0010
0000
0001
0000
,  // measure 66
0100
0000
0010
0000
,  // measure 67
1000
0000
0100
0000
,  // measure 68
1000
0000
0010
0000
,  // measure 69
0100
0000
0010
0000
,  // measure 70
1000
0000
0100
0000
,  // measure 71
0010
0000
0001
0000
,  // measure 72
0010
0000
0001
0000
,  // measure 73
0100
0000
0001
0000
,  // measure 74
0010
0000
0100
0000
,  // measure 75
1000
0000
0010
0000
,  // measure 76
1000
0000
0100
0000
,  // measure 77
0010
0000
0001
0000
,  // measure 78
0100
0000
0001
0000
,  // measure 79
0010
0000
0001
0000
,  // measure 80
0100
0000
0100
0000
,  // measure 81
0100
0010
0000
0010
,  // measure 82
1000
0100
0000
0100
,  // measure 83
0010
0100
0000
0100
,  // measure 84
0010
0001
0000
0001
,  // measure 85
0100
0010
0000
0010
,  // measure 86
1000
0100
0000
0100
,  // measure 87
1000
0010
0000
0010
,  // measure 88
0100
0001
0000
0001
,  // measure 89
0010
0000
0010
0000
,  // measure 90
0100
0000
0100
0000
,  // measure 91
0010
0000
0010
0000
,  // measure 92
0001
0000
0001
0000
,  // measure 93
1000
0000
1000
0000
,  // measure 94
0010
0000
0010
0000
,  // measure 95
0100
0000
0100
0000
,  // measure 96
0010
0000
0010
0000
;

//---------------dance-single - ----------------
#NOTES:
     dance-single:
     :
     Medium:
     9:
     0.475,0.505,0.287,0.000,0.000: // measure 1
0000
0000
0000
0000
,  // measure 2
0000
0000
0000
0000
,  // measure 3
0000
0000
0000
0000
,  // measure 4
0000
0000
0000
0000
,  // measure 5
1000
0000
0001
0000
0100
0100
0000
0000
,  // measure 6
0010
0000
1000
0000
0001
0001
0000
0000
,  // measure 7
0010
0000
0001
0000
1000
1000
0000
0000
,  // measure 8
1001
0000
0110
0000
,  // measure 9
0001
0000
0100
0000
0010
0010
0000
0000
,  // measure 10
1000
0000
0001
0000
1000
1000
0000
0000
,  // measure 11
0100
0000
0010
0000
0001
0001
0000
0000
,  // measure 12
1000
0000
0010
0000
0100
0100
0000
0000
,  // measure 13
0010
0000
1000
0000
0100
0100
0000
0000
,  // measure 14
1000
0000
0001
0000
0010
0010
0000
0000
,  // measure 15
0001
0000
0100
0000
0010
0010
0000
0000
,  // measure 16
0100
0000
0001
0000
0010
0010
0000
0000
,  // measure 17
0100
1000
0010
0100
,  // measure 18
0001
0010
0100
0010
,  // measure 19
0001
0000
1000
1000
0010
0000
0100
0000
,  // measure 20
0001
0000
0010
0010
0100
0000
0010
0000
,  // measure 21
0001
1000
0010
0100
,  // measure 22
0010
1000
0100
0010
,  // measure 23
0001
0000
0100
0100
0001
0000
0010
0000
,  // measure 24
0100
0000
1000
0100
0010
0001
0000
0000
,  // measure 25
1000
0000
0010
0000
1000
0000
0100
0010
,  // measure 26
0000
0000
0001
0000
0100
0000
0010
1000
,  // measure 27
0000
0001
0000
1000
0000
0100
0000
0000
,  // measure 28
0010
0001
0010
0000
0101
0000
1001
0000
,  // measure 29
0010
0000
1000
0000
0001
0000
0100
0010
,  // measure 30
0000
0000
0100
0000
0001
0000
0010
0100
,  // measure 31
0000
1000
0001
0100
,  // measure 32
0110
0000
1001
0000
,  // measure 33
0010
0010
1000
0000
0100
0000
1000
0000
,  // measure 34
0010
0010
0100
0000
0001
0000
0010
0000
,  // measure 35
0001
0001
1000
0000
0100
0000
1000
0000
,  // measure 36
1010
0000
1001
1001
,  // measure 37
0010
0010
1000
0000
0100
0000
0010
0000
,  // measure 38
0001
0001
0100
0000
0001
0000
0100
0000
,  // measure 39
0001
0001
1000
0000
0010
0000
0100
0000
,  // measure 40
1010
0000
1001
0000
,  // measure 41
0001
0001
1000
1000
0010
0010
0100
0000
,  // measure 42
0110
0110
0110
0000
,  // measure 43
0010
0010
1000
1000
0001
0001
1000
0000
,  // measure 44
1001
1001
1001
0000
,  // measure 45
0010
0010
1000
1000
0100
0100
0010
0000
,  // measure 46
0011
0011
0011
0000
,  // measure 47
0001
0001
0100
0100
0010
0010
1000
0000
,  // measure 48
1010
0000
0000
0001
1000
0000
0000
0001
,  // measure 49
1000
0000
0000
1000
0100
0000
0000
0100
,  // measure 50
0010
0000
0000
0010
0001
0010
0000
0001
,  // measure 51
0100
0010
1000
0001
,  // measure 52
1000
0000
0100
0000
0010
0000
0001
0100
,  // measure 53
0010
0000
0000
0010
1000
0000
0000
1000
,  // measure 54
0001
0000
0000
0001
0010
0001
0000
0100
,  // measure 55
0010
0100
0001
0010
,  // measure 56
0100
1000
0001
0000
1000
0000
0010
0000
,  // measure 57
1000
0010
0100
0001
,  // measure 58
0010
0100
1000
0010
,  // measure 59
0100
0000
0001
1000
0001
1000
0001
1000
,  // measure 60
0000
0000
0010
0100
0010
0100
0010
0100
,  // measure 61
0001
0010
0100
1000
,  // measure 62
0010
1000
0001
0100
,  // measure 63
0010
0000
1000
0100
1000
0100
1000
0100
,  // measure 64
0000
0000
1000
0001
0100
0010
0000
0000
,  // measure 65
1000
0000
0001
0000
0100
0010
0100
0000
,  // measure 66
0001
0000
1000
0000
0100
0010
0100
0000
,  // measure 67
1000
0000
0001
0000
0100
0001
0100
0000
,  // measure 68
0101
0000
1100
1100
,  // measure 69
0010
1000
0010
0000
1000
0000
0001
0000
,  // measure 70
0100
0010
0100
0000
0001
0000
0010
0000
,  // measure 71
0100
1000
0100
0000
1000
0000
0001
0000
,  // measure 72
1001
0000
0110
0000
,  // measure 73
0001
0100
0010
0000
1000
0000
0001
0000
,  // measure 74
1000
0100
0010
0000
0001
0000
0100
0000
,  // measure 75
0010
1000
0100
0000
1000
0000
0001
0000
,  // measure 76
1000
0010
0100
0000
0101
0000
1100
0000
,  // measure 77
0001
1000
0100
0000
1000
0000
0010
0000
,  // measure 78
0100
0010
1000
0000
0100
0000
0010
0000
,  // measure 79
0001
1000
0010
0000
1000
0000
0001
0000
,  // measure 80
1001
0000
0110
0000
,  // measure 81
0001
0101
1000
1100
,  // measure 82
0001
0011
1000
1010
,  // measure 83
0001
1001
1000
1100
,  // measure 84
0010
1010
0100
0101
,  // measure 85
0010
0001
0100
0010
,  // measure 86
1000
0100
1000
0010
,  // measure 87
0100
0001
0010
1000
,  // measure 88
0010
0001
1000
0010
,  // measure 89
0100
0000
0010
0000
1000
0000
0100
1000
,  // measure 90
0000
1000
0010
0000
0100
0000
0000
0000
,  // measure 91
0001
0000
0010
0000
0100
0000
1000
0001
,  // measure 92
0000
0001
1000
0000
0100
0000
0000
0000
,  // measure 93
0010
0000
0001
0000
0100
0000
0010
1000
,  // measure 94
0000
1000
0010
0000
0100
0000
0000
0000
,  // measure 95
0001
0000
1000
0000
0100
0000
0010
0001
,  // measure 96
1000
0001
0000
1000
0001
1000
0000
0000
;

//---------------dance-single - ----------------
#NOTES:
     dance-single:
     :
     Hard:
     13:
     0.636,0.648,0.437,0.030,0.128: // measure 1
0000
0000
0000
0000
,  // measure 2
0000
0000
0000
0000
,  // measure 3
0000
0000
0000
0000
,  // measure 4
0000
0000
0000
0000
,  // measure 5
0000
0000
0000
0000
,  // measure 6
0000
0000
0000
0000
,  // measure 7
0000
0000
0000
0000
,  // measure 8
1010
0000
0000
0000
0101
0000
0000
0010
,  // measure 9
0100
0000
0001
0000
0010
0100
1000
0000
,  // measure 10
0010
0000
1000
0000
0001
0100
0010
0000
,  // measure 11
1000
0100
1000
0000
0001
0100
0001
0000
,  // measure 12
0100
0010
0100
0001
1000
0100
0000
0010
,  // measure 13
0011
0000
0001
0000
1000
0010
0100
0000
,  // measure 14
0001
0000
0010
0000
0100
1000
0001
0000
,  // measure 15
1000
0010
1000
0000
0001
0100
0001
0000
,  // measure 16
0010
0100
1000
0001
1000
0010
1000
1000
,  // measure 17
0100
0000
0000
0100
0010
0000
0000
0010
0001
0000
0000
0001
0100
0000
0000
0100
,  // measure 18
0010
0000
0000
0010
1000
0000
0000
1000
0100
0000
0000
0100
1000
0000
0000
1000
,  // measure 19
0010
0000
1000
0100
1000
0001
0100
0010
,  // measure 20
0000
0000
0100
0001
0100
0010
1000
0001
,  // measure 21
0010
0000
0000
0010
0001
0000
0000
0001
0100
0000
0000
0100
0010
0000
0000
0010
,  // measure 22
1000
0000
0000
1000
0100
0000
0000
0100
0010
0000
0000
0010
0001
0000
0000
0001
,  // measure 23
0100
0000
0010
1000
0100
1000
0001
0010
,  // measure 24
0000
0000
0001
1000
0010
0100
0000
0000
,  // measure 25
0011
0000
1010
0000
0011
0000
1000
0001
,  // measure 26
1000
0010
0100
0000
0001
0010
0001
0000
,  // measure 27
0101
0000
0010
1000
0100
0000
1000
0000
,  // measure 28
0001
0100
1000
0100
0001
1000
0001
1000
,  // measure 29
1100
0000
0101
0000
1100
0000
0001
1000
,  // measure 30
0001
0100
0010
0000
1000
0100
1000
0000
,  // measure 31
1010
0000
0100
0001
0010
0001
1000
0000
,  // measure 32
0101
0000
0000
0000
1001
1001
0000
0000
,  // measure 33
1100
0100
0010
0000
0001
0000
0100
0010
,  // measure 34
1000
0001
1000
0000
0100
0010
0001
0100
,  // measure 35
0010
0000
0100
0000
0001
0100
0010
0000
,  // measure 36
1010
0000
1001
1100
,  // measure 37
0011
0010
0100
0000
1000
0000
0010
0100
,  // measure 38
0001
1000
0001
0000
0010
0100
1000
0010
,  // measure 39
0100
0000
0010
0000
1000
0010
0100
0000
,  // measure 40
0101
0000
0000
0000
1010
1010
0000
0000
,  // measure 41
0001
1000
0010
1000
0001
0100
0010
0000
,  // measure 42
0101
0011
1100
0000
,  // measure 43
0010
1000
0001
0010
1000
0010
0001
0000
,  // measure 44
1100
0101
1001
0000
,  // measure 45
0010
0000
1000
0010
1000
0000
0100
0000
0010
0000
0001
0000
0100
0000
0000
0000
,  // measure 46
0101
1100
0101
0000
,  // measure 47
0001
0000
1000
0001
1000
0000
0010
0000
1000
0000
0100
0000
0010
0000
0000
0000
,  // measure 48
1001
0000
0110
0000
,  // measure 49
0001
0100
1000
0100
0001
0010
0000
0000
,  // measure 50
0001
0010
0100
1000
0010
0100
0000
0000
,  // measure 51
0010
1000
0100
0001
0100
1000
0000
0000
,  // measure 52
0010
1000
0100
1000
0001
0100
0000
0000
,  // measure 53
0010
0100
0001
0010
0100
1000
0001
0000
,  // measure 54
1000
0010
1000
0001
0100
0010
1000
0000
,  // measure 55
0100
0010
0001
0100
0010
0100
0001
0000
,  // measure 56
0010
0100
1000
0001
1000
0010
0100
0000
,  // measure 57
0001
0000
0000
0001
0100
0000
0000
0100
0010
0000
0000
0010
1000
0000
0000
1000
,  // measure 58
0100
0000
0000
0100
0010
0000
0000
0010
0001
0000
0000
0001
0100
0000
0000
0100
,  // measure 59
0010
0000
1000
0100
1000
0010
0100
0001
,  // measure 60
1000
0000
0001
0010
1000
0010
0001
1000
,  // measure 61
0010
0000
0000
0010
1000
0000
0000
1000
0100
0000
0000
0100
0010
0000
0000
0010
,  // measure 62
0001
0000
0000
0001
0100
0000
0000
0100
1000
0000
0000
1000
0100
0000
0000
0100
,  // measure 63
0001
0000
0010
0100
0010
0001
0100
0010
,  // measure 64
1000
0000
0100
1000
0001
0100
0000
0000
,  // measure 65
1010
0000
0101
0000
1001
0000
0010
1000
,  // measure 66
0010
0000
1000
0100
1000
0000
0001
0100
,  // measure 67
0001
1000
0000
0100
0000
0010
0000
0001
,  // measure 68
1000
0010
1000
0000
1100
0000
0110
0000
,  // measure 69
0101
0000
1010
0000
1001
0000
0100
0001
,  // measure 70
0100
0000
0001
0010
0001
0000
1000
0010
,  // measure 71
1000
0001
0100
0010
,  // measure 72
1010
0000
0000
0000
0101
0101
0000
0000
,  // measure 73
0010
1000
0100
1000
0001
0100
0010
1000
,  // measure 74
0000
0001
0010
0100
0010
0001
1000
0010
,  // measure 75
0100
0001
0000
0010
0000
0100
0000
1000
,  // measure 76
0010
1000
0001
0000
1010
0000
0101
0000
,  // measure 77
0010
0100
0001
0010
0100
1000
0001
0100
,  // measure 78
0000
0010
1000
0100
1000
0010
0100
0001
,  // measure 79
1000
0010
1000
0001
,  // measure 80
0101
0000
0000
0000
1100
1100
0000
0000
,  // measure 81
0020
0000
0130
0000
0010
1000
0100
0000
,  // measure 82
2000
0000
3100
0000
0001
1000
0100
0000
,  // measure 83
0020
0000
0031
0000
0100
0010
0001
0000
,  // measure 84
0200
0000
0301
0000
0010
1000
0001
1000
,  // measure 85
0010
0100
0010
0100
0010
0100
0010
0100
,  // measure 86
0001
0100
0001
0100
0001
0100
0001
0100
,  // measure 87
0010
1000
0010
1000
0010
1000
0010
1000
,  // measure 88
0001
1000
0001
1000
0100
0010
0100
0000
,  // measure 89
1001
0000
0010
1000
0100
1000
0001
0000
,  // measure 90
0101
0000
0010
0100
0001
0010
0001
0000
,  // measure 91
0110
0000
0001
0010
0100
1000
0010
0000
,  // measure 92
1010
0000
0001
1000
0010
1000
0001
0000
,  // measure 93
1010
1000
0100
1000
0010
0100
0001
0000
,  // measure 94
0011
0001
0100
0010
1000
0001
0010
0000
,  // measure 95
1001
1000
0010
1000
0001
0100
0010
0000
,  // measure 96
0101
0000
1001
0000
;
