#TITLE:River Flows In You;
#SUBTITLE:;
#ARTIST:Jasper Forks;
#TITLETRANSLIT:;
#SUBTITLETRANSLIT:;
#ARTISTTRANSLIT:;
#CREDIT:;
#BANNER:River Flows In You-bn.png;
#BACKGROUND:River Flows In You-bg.png;
#LYRICSPATH:;
#CDTITLE:;
#MUSIC:River Flows In You.mp3;
#OFFSET:-0.060;
#SAMPLESTART:29.140;
#SAMPLELENGTH:16.140;
#SELECTABLE:YES;
#BPMS:0.000=132.000;
#STOPS:;
#BGCHANGES:0.000=River Flows In You.avi=1.000=1=0=0,
99999=-nosongbg-=1.000=0=0=0 // don't automatically add -songbackground-
;

//---------------dance-single - ----------------
#NOTES:
     dance-single:
     :
     Beginner:
     1:
     0.104,0.153,0.027,0.000,0.000:
0000
0000
0000
0000
,
0000
0000
0000
0000
,
0000
0000
0000
0000
,
0000
0000
0000
0000
,
1000
0000
0000
0000
,
0100
0000
0000
0000
,
0010
0000
0000
0000
,
0100
0000
0000
0000
,
1000
0000
0000
0000
,
0001
0000
0000
0000
,
0100
0000
0100
0000
,
0100
0000
0000
0000
,
0010
0000
0000
0000
,
1000
0000
0000
0000
,
0001
0000
0000
0000
,
1000
0000
0000
0000
,
0100
0000
0000
0000
,
1000
0000
0000
0000
,
0010
0000
0010
0000
,
0010
0000
0000
0000
,
0100
0000
0000
0000
,
0001
0000
0000
0000
,
1000
0000
0000
0000
,
0010
0000
0000
0000
,
1001
0000
0000
0000
,
0100
0000
0000
0000
,
1000
1000
1000
1000
,
1000
0000
0000
0000
,
0010
0000
0000
0010
,
0010
0000
0000
0100
,
0100
0000
0000
0001
,
0001
0000
0000
0000
,
0010
0000
0010
0000
,
0001
0000
0001
0000
,
1000
0000
1000
0000
,
0100
0000
0100
0000
,
1000
0000
0010
0000
,
0100
0000
0001
0000
,
1000
1000
1000
1000
,
0000
0000
0000
0000
,
1001
0000
0000
0000
,
0100
0000
0100
0000
,
0010
0000
0000
0000
,
0001
0000
0001
0000
,
0100
0000
0000
0000
,
0010
0000
0010
0000
,
1000
0000
0000
0000
,
0100
0000
0100
0000
,
0010
0000
0000
0000
,
1000
0000
0100
0100
,
0000
0000
0000
0000
,
1000
0000
0001
0001
,
0000
0000
0000
0000
,
0010
0000
0001
0001
,
0000
0000
0000
0000
,
0100
0000
0010
0000
,
1001
0000
0000
0000
;

//---------------dance-single - ----------------
#NOTES:
     dance-single:
     :
     Medium:
     8:
     0.362,0.447,0.200,0.191,0.000:
0000
0000
0000
0000
,
0000
0000
0000
0000
,
0000
0000
0000
0000
,
0000
0000
0000
0000
0000
0000
0100
0010
,
0100
0000
0000
0000
0000
0001
0100
0001
,
0100
0000
0000
0000
0000
0000
1000
0100
,
1000
0000
0000
0000
0000
0010
1000
0010
,
1000
0000
0000
0000
,
1010
0100
0001
0010
,
0100
1000
0001
0100
,
0110
0110
1001
1001
,
0110
0000
1000
0000
0100
1000
0100
1000
,
0100
0000
0010
0000
0001
0000
1000
0001
,
1000
0000
0010
0000
1000
0000
0001
0100
,
0001
0000
0010
0000
0001
0100
0001
0100
,
0001
0000
1000
0000
,
1001
0001
1000
0100
,
1000
0010
0100
0010
,
1000
1100
0001
0101
,
1001
0000
0010
0000
1000
0000
0100
0010
,
0001
0000
0100
0000
0010
0000
1000
0100
,
0010
0000
0001
0000
1000
0000
0001
0100
,
0010
0000
1000
0000
0001
0000
0010
0100
,
0010
0000
0001
1000
,
2100
3100
0102
0103
,
2010
3010
0012
0013
,
1000
0100
1000
0100
0010
0001
0010
0001
,
0100
0000
0000
0000
0010
0100
0001
0100
,
0010
0000
1000
0000
0001
0000
0010
0100
,
1000
0000
0001
0000
1000
0000
0010
1000
,
0100
0000
1000
0000
0100
0000
0010
0001
,
0100
0000
0000
0000
,
0020
0030
0200
0300
,
0002
0003
2000
3000
,
0200
0300
2000
3000
,
0020
0030
2000
3000
,
0200
0310
0002
0103
,
2000
3010
0002
0013
,
0100
0010
0100
0010
0100
0010
0100
0010
,
0002
0000
1003
0000
,
1100
0001
0101
1000
,
0010
1000
0100
1000
0010
0000
0100
0000
,
0101
0010
0011
1000
,
0010
0100
0010
1000
0010
0000
0100
0000
,
0110
1000
1100
0001
,
0010
0001
0100
0001
0010
0000
0100
0000
,
0110
1000
1100
0010
,
0100
0001
0100
0010
1000
0000
0000
0000
,
0001
0000
1000
0000
0100
1000
0001
0000
,
0100
0000
0010
0000
0100
0001
0010
0000
,
0100
0000
0010
0000
0001
1000
0100
0000
,
1000
0100
1000
0100
0010
0000
0000
0000
,
0001
0000
1000
0000
0010
1000
0100
0000
,
1000
0000
0001
0000
0100
0001
0010
0000
,
0001
0000
1000
0000
0010
0100
0001
0000
,
0010
0100
0010
0100
0010
0000
0000
0000
,
0002
0103
0200
0310
,
0020
1030
2000
3100
;

//---------------dance-single - ----------------
#NOTES:
     dance-single:
     :
     Hard:
     11:
     0.535,0.555,0.319,0.273,0.123: // measure 1
0000
0000
0000
0000
,  // measure 2
0000
0000
0000
0000
,  // measure 3
0000
0000
0000
0000
,  // measure 4
0000
0000
0000
0000
0000
0000
0100
0001
,  // measure 5
1000
0000
1100
0000
0010
1000
0010
0100
,  // measure 6
0001
0000
0101
0000
0010
0000
0100
0010
,  // measure 7
0001
0000
0101
0000
0010
1000
0100
0010
,  // measure 8
0001
1000
0000
0010
0000
0100
0000
0001
,  // measure 9
1001
0000
0100
1000
0000
0000
0010
0100
,  // measure 10
0000
0001
0010
0001
0000
1000
0100
1000
,  // measure 11
0020
0230
0301
0101
,  // measure 12
1100
0000
0000
0100
0100
0010
0010
0001
,  // measure 13
1000
0000
0100
0000
1000
0010
0100
0001
,  // measure 14
1000
0000
0010
0000
1000
0000
0100
0010
,  // measure 15
0001
0000
0100
0000
0001
0010
1000
0010
,  // measure 16
0001
1000
0000
0100
0000
0010
0000
0001
,  // measure 17
0101
0100
0010
1000
0100
1000
0001
0010
,  // measure 18
1000
0010
0100
1000
0010
0100
0001
0010
,  // measure 19
0011
1100
0010
0110
,  // measure 20
1001
0000
0100
1000
0010
0100
0001
0000
,  // measure 21
0010
0001
0100
0010
1000
0100
1000
0010
,  // measure 22
0100
0001
0010
1000
0010
0100
1000
0100
,  // measure 23
0010
0001
0100
0010
1000
0100
1000
0010
,  // measure 24
0100
0001
0000
1000
0000
0100
0000
0001
,  // measure 25
0100
0000
0000
0100
0001
0000
0000
0001
1000
0000
0000
1000
0100
0000
0000
0100
,  // measure 26
1000
0000
0000
1000
0010
0000
0000
0010
0100
0000
0000
0100
0001
0000
0100
0000
,  // measure 27
0010
1000
0100
1000
0010
0100
0001
0010
,  // measure 28
0100
0000
0000
0100
1000
0000
0000
1000
0010
0000
1000
0000
0001
0000
0010
0000
,  // measure 29
0100
0000
0000
0100
0010
0000
0000
0010
0001
0000
0000
0001
0100
0000
0010
0000
,  // measure 30
1000
0000
0000
1000
0100
0000
0000
0100
1000
0000
0000
1000
0001
0000
0010
0000
,  // measure 31
0100
0000
0000
0100
0010
0000
0000
0010
0001
0000
0000
0001
1000
0000
0100
0000
,  // measure 32
1000
0010
0000
0100
0000
0001
1000
0001
,  // measure 33
0200
0010
0300
0010
0200
0001
0300
0001
,  // measure 34
0200
0010
0300
0010
0200
1000
0300
1000
,  // measure 35
0200
0010
0300
0010
0200
0001
0300
0001
,  // measure 36
0200
0010
0300
1000
0200
0001
0300
0010
,  // measure 37
0200
0010
0301
0010
0200
0000
1300
0100
,  // measure 38
0020
0000
0031
1000
0020
0000
1030
0100
,  // measure 39
1000
0001
1000
0001
1000
0001
1000
0001
,  // measure 40
0100
0000
0000
0100
0000
0000
0100
0000
0100
0000
0000
0000
0000
0000
0000
0000
,  // measure 41
2002
0003
3100
1000
1100
0000
0001
0100
,  // measure 42
0101
0000
0000
0101
0000
0000
0101
0000
2000
0000
0000
0000
3001
0000
0000
0000
,  // measure 43
0220
0300
1030
0010
1010
0000
0001
1000
,  // measure 44
1001
0000
0000
1001
0000
0000
1001
0000
0200
0000
0000
0000
1300
0000
0000
0000
,  // measure 45
0022
0030
1003
0100
1100
0000
0010
0100
,  // measure 46
0110
0000
0000
0110
0000
0000
0110
0000
2000
0000
0000
0000
3001
0000
0000
0000
,  // measure 47
0022
0030
0103
0010
0110
0000
1000
0001
,  // measure 48
1001
0000
0000
1100
0000
0000
0110
0000
0002
0000
0000
0000
0013
0000
0000
0000
,  // measure 49
0100
0001
0010
1000
0010
0001
1000
0100
,  // measure 50
1000
0000
0000
1010
0000
0000
0100
0000
0001
0000
0010
0000
1000
0000
0010
0000
,  // measure 51
0100
1000
0100
0010
0001
0100
0010
0100
,  // measure 52
0001
0000
0000
0101
0000
0000
1000
0000
0001
0000
1000
0000
1000
0000
0100
0000
,  // measure 53
0010
0001
1000
0010
0100
0001
0010
1000
,  // measure 54
0010
0000
0000
1001
0000
0000
1000
0000
0100
0000
0010
0000
0001
0000
0100
0000
,  // measure 55
0010
0100
0001
0010
0100
0010
0001
1000
,  // measure 56
0100
0000
0000
1010
0000
0000
0001
0000
0100
0000
0010
0000
1000
0000
0100
0000
,  // measure 57
0020
0001
0032
0100
,  // measure 58
0203
0010
0320
1000
,  // measure 59
1030
0000
0000
0000
;

//---------------dance-single - ----------------
#NOTES:
     dance-single:
     :
     Easy:
     3:
     0.219,0.289,0.082,0.282,0.000:
0000
0000
0000
0000
,
0000
0000
0000
0000
,
0000
0000
0000
0000
,
0000
0000
0000
0000
,
0100
0000
0001
1000
,
0100
0000
1000
0100
,
0010
0000
0001
1000
,
0010
0000
0000
0000
,
0110
0000
0001
0000
,
0100
0000
0001
0000
,
0010
0010
0100
1000
,
0001
0000
1000
0000
,
0010
0000
0100
0010
,
1000
0000
0100
1000
,
0001
0000
0100
0001
,
0010
0000
0000
0000
,
0011
0000
0100
0000
,
0001
0000
1000
0000
,
0010
0010
0100
0100
,
0010
0000
1000
0000
,
0100
0100
0000
0000
,
1000
1000
0000
0000
,
0001
0001
0000
0000
,
0010
0000
0000
0000
,
0110
0000
0100
0000
,
0100
0000
1000
0000
,
1000
1000
0010
0010
,
0100
0000
0001
0010
,
0100
0000
0000
0010
,
0001
0000
0000
1000
,
0100
0000
0000
1000
,
0010
0000
0000
0000
,
0200
0300
0010
0000
,
0200
0300
0010
0000
,
0020
0030
0100
0000
,
0020
0030
0100
0000
,
0002
0103
0000
0100
,
2000
3100
0000
0100
,
0010
0100
0010
0100
,
2000
0100
3100
0000
,
2002
3003
0010
0000
,
0100
0010
0100
0000
,
0220
0330
1000
0000
,
0100
1000
0100
0000
,
2200
3300
0001
0000
,
0010
0001
0010
0000
,
0022
0033
1000
0000
,
0001
1000
0001
0000
,
0220
0330
2000
3000
,
0200
0300
0010
0010
,
0002
0003
2000
3000
,
0020
0030
1000
1000
,
0200
0300
0020
0030
,
0001
0001
2000
3000
,
0020
0030
2000
3000
,
0100
0100
0020
0030
,
2002
0000
0000
3003
,
0200
0000
0000
0300
;
