#TITLE:Rehab;
#SUBTITLE:;
#ARTIST:Ami Lorenn;
#TITLETRANSLIT:;
#SUBTITLETRANSLIT:;
#ARTISTTRANSLIT:;
#CREDIT:;
#BANNER:Rehab-bn.png;
#BACKGROUND:Rehab-bg.png;
#LYRICSPATH:;
#CDTITLE:;
#MUSIC:Rehab.mp3;
#OFFSET:-0.320;
#SAMPLESTART:52.720;
#SAMPLELENGTH:16.140;
#DISPLAYBPM:145;
#SELECTABLE:YES;
#BPMS:0.000=145.220,31.000=144.820,32.000=145.740,46.000=145.120,63.000=151.360,64.000=145.360,67.000=145.600,81.000=145.820,84.000=145.380,111.000=144.720,112.000=145.380,119.000=146.620,120.000=145.300,141.500=151.020,143.500=145.160,151.500=145.580,157.500=146.680,160.000=145.160,179.000=145.980;
#STOPS:;
#BGCHANGES:;

//---------------dance-single - ----------------
#NOTES:
     dance-single:
     :
     Beginner:
     1:
     0.115,0.147,0.000,0.000,0.000: // measure 1
0000
0000
0000
0000
,  // measure 2
0000
0000
0000
0000
,  // measure 3
0000
0000
0000
0000
,  // measure 4
0000
0000
0000
0000
,  // measure 5
0100
0000
0000
0000
,  // measure 6
0100
0000
0000
0000
,  // measure 7
0001
0000
0001
0000
,  // measure 8
0001
0000
0000
0000
,  // measure 9
1000
0000
0000
0000
,  // measure 10
0100
0000
0000
0000
,  // measure 11
1000
0000
0000
0000
,  // measure 12
0010
0000
0010
0000
,  // measure 13
0010
0000
0000
0000
,  // measure 14
1000
0000
0000
0000
,  // measure 15
0001
0000
0000
0000
,  // measure 16
0100
0000
0100
0000
,  // measure 17
0100
0000
0000
0000
,  // measure 18
0001
0000
0000
0000
,  // measure 19
1000
0000
0000
0000
,  // measure 20
0010
0000
1000
0000
,  // measure 21
0010
0000
0000
0000
,  // measure 22
1000
0000
0000
0000
,  // measure 23
0100
0000
0000
0000
,  // measure 24
0010
0000
0001
0000
,  // measure 25
1000
0000
0000
0000
,  // measure 26
0100
0000
0100
0000
,  // measure 27
1000
0000
0000
0000
,  // measure 28
0001
0000
0001
0000
,  // measure 29
0100
0000
0100
0000
,  // measure 30
0100
0000
0001
0000
,  // measure 31
0010
0000
0010
0000
,  // measure 32
0010
0000
0100
0000
,  // measure 33
1000
0000
0000
0000
,  // measure 34
0010
0010
0000
0000
,  // measure 35
0100
0000
0100
0000
,  // measure 36
0100
0000
0000
0000
,  // measure 37
0001
0001
0000
0000
,  // measure 38
1000
1000
0000
0000
,  // measure 39
0010
0000
0010
0000
,  // measure 40
0010
0000
0000
0000
,  // measure 41
0100
0000
0100
0000
,  // measure 42
0001
0000
0000
0000
,  // measure 43
1000
1000
1000
0000
,  // measure 44
0000
0000
0000
0000
,  // measure 45
0100
0000
0000
0000
,  // measure 46
1000
0000
0010
0000
,  // measure 47
0100
0000
0100
0100
;

//---------------dance-single - ----------------
#NOTES:
     dance-single:
     :
     Medium:
     6:
     0.363,0.443,0.176,0.302,0.000: // measure 1
0000
0000
0000
0000
,  // measure 2
0000
0000
0000
0000
,  // measure 3
0000
0000
0000
0000
,  // measure 4
0000
0000
0000
0000
,  // measure 5
1000
0100
0110
0001
,  // measure 6
0100
0010
0110
1000
,  // measure 7
0200
0000
2300
0000
,  // measure 8
3001
0000
0000
0000
,  // measure 9
0001
0100
0010
0010
,  // measure 10
1000
0100
0010
0001
,  // measure 11
1000
0100
0100
1000
,  // measure 12
0001
0000
0000
0000
0001
0010
0100
1000
,  // measure 13
0001
1000
0010
0010
,  // measure 14
1000
0100
1000
0001
,  // measure 15
0100
0100
0001
0000
,  // measure 16
0010
0001
0100
0001
0010
0000
0100
0000
,  // measure 17
1100
0000
0010
1000
,  // measure 18
0100
0100
1000
0001
,  // measure 19
0010
0001
1000
0010
,  // measure 20
0000
0100
0001
0100
0000
0001
1000
0001
,  // measure 21
1000
0100
1000
0010
,  // measure 22
0100
0001
0010
0100
,  // measure 23
0110
0001
1000
0100
,  // measure 24
1100
0010
1000
0001
,  // measure 25
0210
0000
0000
0000
,  // measure 26
0310
1000
0100
0000
1000
0001
0100
0000
,  // measure 27
0102
0000
0000
0000
,  // measure 28
0013
0001
1000
0000
0100
1000
0010
0000
,  // measure 29
2000
3100
0200
0310
,  // measure 30
0020
0031
0002
0103
,  // measure 31
0200
0310
0020
1030
,  // measure 32
2000
3100
0200
0310
,  // measure 33
2002
0000
0000
0000
,  // measure 34
0000
0000
3003
0000
0001
0010
0100
1000
,  // measure 35
0020
0130
0020
0130
,  // measure 36
0020
0000
0100
0130
0000
0000
0000
0000
,  // measure 37
0001
1000
0001
1000
0001
0000
0000
0000
,  // measure 38
1000
0001
1000
0001
1000
0000
0000
0000
,  // measure 39
0200
0310
0200
0310
,  // measure 40
0200
0000
0010
0310
0000
0000
0000
0000
,  // measure 41
0011
1001
0100
1000
,  // measure 42
1010
0000
1001
0000
0100
0010
0100
0010
,  // measure 43
1000
0100
1000
0001
,  // measure 44
0100
0100
0001
0000
,  // measure 45
0220
0000
0000
0330
,  // measure 46
2002
0000
0000
3003
,  // measure 47
1000
0100
0010
0001
1000
0100
0010
0001
;

//---------------dance-single - ----------------
#NOTES:
     dance-single:
     :
     Hard:
     10:
     0.545,0.532,0.151,0.302,0.000: // measure 1
0000
0000
0000
0000
,  // measure 2
0000
0000
0000
0000
,  // measure 3
0000
0000
0000
0000
,  // measure 4
0000
0000
0000
0000
,  // measure 5
1000
0100
1000
0100
0020
0000
0031
0000
,  // measure 6
0001
0100
0001
0100
0020
0000
1030
0000
,  // measure 7
1010
0000
0100
0000
0110
0000
0001
1000
,  // measure 8
0002
0000
0103
0000
0010
1000
0100
0000
,  // measure 9
0011
0000
0100
1000
0001
0000
1000
0000
,  // measure 10
1010
0000
0100
0010
0100
0001
0100
0010
,  // measure 11
2000
0000
3200
0000
0310
0001
1000
0000
,  // measure 12
0001
0100
1000
0000
0100
0010
1000
0100
,  // measure 13
0010
0000
0001
1000
0001
0000
0010
0000
,  // measure 14
1000
0000
0010
0001
0100
1000
0100
0010
,  // measure 15
1000
0100
2000
0000
3020
0000
2030
0000
,  // measure 16
3001
0100
1000
0000
0100
0010
1000
0000
,  // measure 17
1200
0000
0310
0000
1000
0100
0010
0000
,  // measure 18
0001
1000
0001
0000
0010
0100
0010
0001
,  // measure 19
1000
0100
2000
0000
3020
0000
0230
0000
,  // measure 20
0301
0010
1000
0010
0001
0000
1000
0100
,  // measure 21
0010
0001
0100
0000
0002
0000
0013
0000
,  // measure 22
0001
0000
1000
0100
0010
0000
0001
0000
,  // measure 23
1000
0010
1000
0010
0001
0010
0200
0000
,  // measure 24
0310
0000
1000
0100
0010
0001
1000
0000
,  // measure 25
0210
0000
0001
0001
0310
1000
0001
0000
,  // measure 26
0102
0000
0010
0010
0103
0001
0100
0000
,  // measure 27
2010
0000
0100
0100
3010
1000
0001
0000
,  // measure 28
0012
0000
0100
0100
0013
0001
1000
0000
,  // measure 29
0001
0100
1000
0100
0010
1000
0100
0010
,  // measure 30
0001
1000
0010
1000
0001
0010
0100
0000
,  // measure 31
0010
0001
1000
0010
0001
0010
0100
0001
,  // measure 32
0010
0100
1000
0010
0100
0001
1000
0000
,  // measure 33
0001
0100
0001
0100
0010
1000
0010
0100
,  // measure 34
0000
1001
0000
0100
1000
0100
0010
0000
,  // measure 35
0002
0000
1003
0000
0200
0000
0310
0002
,  // measure 36
0100
0000
1000
1003
0000
0000
0000
0110
,  // measure 37
0000
0010
0001
0010
0001
0000
0001
0100
,  // measure 38
0000
0010
1000
0010
1000
0000
0100
1000
,  // measure 39
0020
0000
0130
0000
0200
0000
0301
2000
,  // measure 40
0100
0000
0001
3001
0000
0000
0000
0000
,  // measure 41
0010
1000
0100
1000
0010
0100
0001
0010
,  // measure 42
0100
0010
0001
1000
0100
0010
0001
0000
,  // measure 43
1000
0100
1000
0010
0100
0001
0010
1000
,  // measure 44
0010
0001
1000
0100
0010
0001
1000
0000
,  // measure 45
0001
0100
1000
0001
0010
1000
0100
0010
,  // measure 46
0001
0010
1000
0010
0100
1000
0010
0001
,  // measure 47
1000
0100
0001
0010
1000
0010
0001
1000
,  // measure 48
1100
0000
0000
0000
;

//---------------dance-single - ----------------
#NOTES:
     dance-single:
     :
     Easy:
     3:
     0.225,0.266,0.038,0.227,0.000: // measure 1
0000
0000
0000
0000
,  // measure 2
0000
0000
0000
0000
,  // measure 3
0000
0000
0000
0000
,  // measure 4
0000
0000
0000
0000
,  // measure 5
0100
0010
0100
0000
,  // measure 6
0001
0100
0001
0000
,  // measure 7
2000
0000
3200
0000
,  // measure 8
1300
0000
0000
0000
,  // measure 9
0010
0000
1000
0100
,  // measure 10
1000
0000
0010
0000
,  // measure 11
0100
0000
0000
0000
,  // measure 12
0001
0010
0001
1000
,  // measure 13
0100
0000
1000
0000
,  // measure 14
0010
1000
0100
1000
,  // measure 15
0100
0000
0010
0000
,  // measure 16
0001
0000
0100
0001
,  // measure 17
1000
1000
0000
0000
,  // measure 18
0100
1000
0010
0100
,  // measure 19
0010
0010
0000
0000
,  // measure 20
0100
0010
1000
0000
,  // measure 21
0001
0000
1000
0000
,  // measure 22
0100
1000
0010
0100
,  // measure 23
0010
0000
1000
0000
,  // measure 24
0010
1000
0100
0000
,  // measure 25
2002
0000
0000
3003
,  // measure 26
0100
0000
0010
0000
,  // measure 27
0220
0000
0000
0330
,  // measure 28
0001
0000
0010
0000
,  // measure 29
0002
0000
0203
0000
,  // measure 30
0010
0000
0010
0000
,  // measure 31
0302
0000
0023
0000
,  // measure 32
0100
0000
0130
0000
,  // measure 33
2002
0000
0000
0000
,  // measure 34
0000
0000
0000
3003
,  // measure 35
0020
0030
0020
0030
,  // measure 36
0010
0000
0000
0000
,  // measure 37
1000
0100
0010
0010
,  // measure 38
0001
0100
0010
0010
,  // measure 39
2000
3000
2000
3000
,  // measure 40
1000
0000
0000
0000
,  // measure 41
0001
0001
1000
0001
,  // measure 42
0010
0000
0000
0000
,  // measure 43
0100
0100
1000
0010
,  // measure 44
0100
0000
0000
0000
,  // measure 45
0001
0100
0010
1000
,  // measure 46
0100
0100
0010
0001
,  // measure 47
2000
3001
2000
3001
,  // measure 48
1000
0000
0000
0000
;
