#TITLE:Ready For The Weekend;
#SUBTITLE:;
#ARTIST:CALVIN HARRIS;
#TITLETRANSLIT:;
#SUBTITLETRANSLIT:;
#ARTISTTRANSLIT:;
#CREDIT:;
#BANNER:Ready For The Weekend-bn.png;
#BACKGROUND:Ready For The Weekend-bg.png;
#LYRICSPATH:;
#CDTITLE:;
#MUSIC:Ready For The Weekend.mp3;
#OFFSET:1.720;
#SAMPLESTART:69.585;
#SAMPLELENGTH:11.940;
#SELECTABLE:YES;
#BPMS:0.000=138.010;
#STOPS:;
#BGCHANGES:3.000=Ready For The Weekend.avi=1.000=1=0=1,
263.500=Ready For The Weekend-bg.PNG=1.000=1=0=1,
99999=-nosongbg-=1.000=0=0=0 // don't automatically add -songbackground-
;

//---------------dance-single - ----------------
#NOTES:
     dance-single:
     :
     Beginner:
     1:
     0.123,0.164,0.045,0.000,0.000:
0000
0000
0000
0000
,
0000
0000
0000
0000
,
0000
0000
0000
0000
,
0000
0000
0000
0000
,
0000
0000
0000
0000
,
1000
0000
0000
0000
,
0001
0000
0000
0000
,
0100
0000
0000
0000
,
0010
0000
0000
0000
,
1000
0000
1000
0000
,
1000
0000
0000
0000
,
0001
0000
0001
0000
,
0001
0000
0000
0000
,
0010
0000
0010
0000
,
0010
0000
0000
0000
,
0100
0000
0100
0000
,
0100
0000
0000
0000
,
1000
0000
1000
0000
,
1000
0000
0000
0000
,
0001
0000
0001
0000
,
0001
0000
0000
0000
,
0010
0000
0010
0000
,
0010
0000
0000
0000
,
0100
0000
0100
0000
,
0100
0000
0000
0000
,
1001
0000
0000
0000
,
0010
0000
0000
0000
,
1001
0000
0000
0000
,
0100
0000
0000
0000
,
0110
0000
0000
0000
,
1000
0000
0000
0000
,
0110
0000
0000
0000
,
0001
0000
0000
0000
,
0100
0000
0100
0000
,
0010
0000
0000
0000
,
1000
0000
1000
0000
,
0001
0000
0000
0000
,
0010
0000
0010
0000
,
0100
0000
0000
0000
,
0001
0000
0001
0000
,
1000
0000
0000
0000
,
0010
0000
1000
1000
,
1000
0000
0001
0000
,
0100
0000
0000
0000
,
0010
0000
0000
0000
,
1000
0000
0001
0001
,
0001
0000
0010
0000
,
0100
0000
0000
0000
,
0010
0000
0000
0000
,
1000
0000
0010
0010
,
0010
0000
0100
0100
,
0100
0000
0000
0000
,
0001
0000
0000
0000
,
0010
0000
0100
0100
,
0100
0000
1000
1000
,
1000
0000
0010
0000
,
0100
0000
0001
0000
,
1000
0000
0001
0001
,
0001
0000
0010
0010
,
0010
0000
0100
0000
,
1000
0000
0001
0000
,
1001
0000
0000
0000
;

//---------------dance-single - ----------------
#NOTES:
     dance-single:
     :
     Medium:
     7:
     0.368,0.435,0.135,0.143,0.000:
0000
0000
0000
0000
,
0000
0000
0000
0000
,
0000
0000
0000
0000
,
0000
0000
0000
0000
,
0000
0000
0000
0000
,
1000
0000
0010
0100
0010
0000
1000
0000
,
0010
0100
0010
0000
1000
0000
0001
0000
,
0100
0000
0001
0010
0001
0000
0100
0000
,
0001
0010
0001
0000
0100
0000
0001
0000
,
1000
1000
0000
0010
0000
0010
0000
0100
,
0000
0100
0000
0001
0001
0000
1000
0001
,
1000
1000
0000
0010
0000
1000
0000
0100
,
0000
0010
0000
0001
0100
0010
1000
0001
,
0100
0100
0000
0010
0000
1000
0000
0100
,
0000
0010
0000
0001
0001
0000
1000
0001
,
0100
0100
0000
0010
0000
1000
0000
0100
,
0000
0010
0000
0001
0100
0010
1000
0001
,
0010
0100
1000
0010
,
0100
0001
0010
0001
,
0100
0100
0010
1000
0000
0100
0000
1000
,
0000
0010
0000
0100
0001
0010
0100
1000
,
0010
1000
0001
0100
,
1000
0010
1000
0100
,
0010
0010
0001
0100
0000
0010
0000
1000
,
0000
0001
0000
0100
0010
0100
0001
1000
,
0200
0000
0000
1300
0000
0000
0000
0000
,
0010
0200
0000
0301
0000
0000
0000
0000
,
0002
0000
0000
1003
0000
0000
0000
0000
,
0010
2000
0000
3100
0000
0000
1001
0000
,
0100
0000
0010
1000
0100
0000
1000
0000
,
0010
1000
0001
0100
0000
0000
0000
0000
,
0010
0000
0100
0001
1000
0000
0010
0000
,
1000
0001
0010
0100
0000
1000
0010
0000
,
0001
0000
1000
0100
1000
0000
0010
0000
,
0100
0000
0001
1000
0000
0000
0000
0000
,
0010
0000
0100
0001
0100
0000
0010
0000
,
1000
0001
0000
0010
0000
0100
0100
0000
,
0010
0000
0001
1000
0001
0000
0100
0000
,
0010
1000
0000
0100
0000
0000
0000
0000
,
1000
0000
0010
0100
0010
0000
1000
0000
,
2002
0000
0000
3003
,
0220
0330
0001
0100
,
0010
0000
1000
0000
0100
0000
1000
0001
,
2000
3010
0001
0100
,
0010
1000
0100
0010
,
0202
0303
0010
1000
,
0100
0000
0010
0000
0001
1000
0001
0000
,
0200
0310
0001
0010
,
0100
1000
0010
0100
,
0010
1000
0000
0100
0000
0010
0000
0001
,
0000
1000
0000
0010
0000
0100
0000
0001
,
0000
1000
0000
0010
0000
1000
0000
0100
,
0000
0010
0000
0001
0000
0100
0010
1000
,
0000
0001
0000
1000
0000
0100
0000
0010
,
0000
0001
0000
1000
0000
0010
0000
0100
,
0000
0001
0000
0010
0000
0100
0000
0010
,
0000
0001
0000
0100
0000
0010
1000
0100
,
2000
3100
0001
0100
,
0020
0130
0001
0010
,
1100
1100
0101
0101
,
1100
1100
0101
0101
,
2002
0000
3003
0000
,
0000
0000
0000
0000
,
1000
0000
0000
0001
0000
0100
0000
0010
,
0000
1000
0000
0000
1001
0000
0110
0000
;

//---------------dance-single - ----------------
#NOTES:
     dance-single:
     :
     Hard:
     10:
     0.497,0.524,0.233,0.260,0.000: // measure 1
0000
0000
0000
0000
,  // measure 2
0000
0000
0000
0000
,  // measure 3
0000
0000
0000
0000
,  // measure 4
0000
0000
0000
0000
,  // measure 5
0000
0000
0000
0000
,  // measure 6
1000
1000
0100
1000
1000
0000
0001
0001
,  // measure 7
0010
0001
0001
0000
0100
0100
0100
0100
,  // measure 8
0010
0010
1000
0010
0010
0000
0100
0100
,  // measure 9
0001
0100
0100
0000
1000
0100
0010
0001
,  // measure 10
0000
0100
0010
0100
0000
0001
0100
0001
,  // measure 11
0000
1000
0010
1000
0000
0100
1000
0010
,  // measure 12
0100
0001
1000
0000
0010
1000
0001
0100
,  // measure 13
0000
0010
0100
0000
0001
1000
0010
0100
,  // measure 14
0000
0001
0010
0001
0000
1000
0100
1000
,  // measure 15
0000
0010
0100
0010
0000
1000
0100
1000
,  // measure 16
0010
0100
0001
0000
1000
0010
1000
0001
,  // measure 17
0000
0100
0010
0100
0001
1000
0001
0010
,  // measure 18
0001
0100
0010
1000
0000
0100
0000
1100
,  // measure 19
0000
0101
0000
0010
0000
1000
0000
0000
,  // measure 20
0100
1000
0010
0100
0001
0001
1000
0010
,  // measure 21
0000
1000
0001
0000
1000
0010
0100
0001
,  // measure 22
1000
1000
0010
0100
0000
0001
0010
0001
,  // measure 23
0000
1100
0000
0101
0000
1010
0000
0001
,  // measure 24
1000
0010
1000
0001
0100
0100
0010
1000
,  // measure 25
0000
0100
0010
0001
1000
1000
0010
0100
,  // measure 26
0101
0000
0000
1001
0000
0000
0000
0000
,  // measure 27
0010
1000
0000
1001
0000
0000
0000
0000
,  // measure 28
0101
0000
0000
0011
0000
0000
0000
0000
,  // measure 29
0010
0100
0000
1010
0000
0100
0100
0000
,  // measure 30
0001
1000
0010
1000
0002
0000
0203
0000
,  // measure 31
0310
1000
0100
0010
0000
0000
0000
0000
,  // measure 32
0001
1000
0010
1000
0200
0000
0320
0000
,  // measure 33
0031
0100
0010
0100
0000
0001
1000
0000
,  // measure 34
1010
1000
0000
0101
0000
0010
0100
0000
,  // measure 35
0001
0010
0100
1000
0000
0010
1000
0000
,  // measure 36
1001
0001
0000
1010
0000
0001
1000
0000
,  // measure 37
0010
0100
0001
1000
0000
0100
0010
0000
,  // measure 38
0001
0100
1000
0010
0000
1000
0001
0000
,  // measure 39
0010
0100
1000
0010
0000
1000
0001
0000
,  // measure 40
0100
0010
0100
0001
0000
0010
0100
0000
,  // measure 41
1000
0001
0100
0010
0100
0001
1000
0100
,  // measure 42
0220
0000
0330
0001
0010
0100
2000
0000
,  // measure 43
3002
0000
1003
0010
1000
0001
0100
0010
,  // measure 44
2000
3100
0001
0100
,  // measure 45
0010
1000
0100
0010
,  // measure 46
2002
0000
3003
0010
1000
0100
0020
0000
,  // measure 47
0032
0000
0103
0010
1000
0100
1000
0001
,  // measure 48
0200
0310
0001
0100
,  // measure 49
0010
1000
0001
1000
,  // measure 50
0102
0000
0013
1000
0100
1000
0001
0100
,  // measure 51
0000
0010
1000
0010
1000
0100
0010
0001
,  // measure 52
0000
0100
0001
1000
0000
0010
1000
0001
,  // measure 53
0000
0010
0100
1000
0000
0001
0100
1000
,  // measure 54
2002
0000
3003
0110
,  // measure 55
1001
0000
0100
0010
1000
0100
0010
0000
,  // measure 56
0002
0103
2000
3100
,  // measure 57
0002
0013
2000
3010
,  // measure 58
0202
0000
0303
0010
1000
0100
0020
0000
,  // measure 59
0032
0000
0103
0010
0100
0001
1000
0100
,  // measure 60
2100
3010
0102
0013
,  // measure 61
2010
3100
0012
0103
,  // measure 62
0010
0010
0000
1000
0000
0001
0000
0100
,  // measure 63
0000
0010
0000
1000
0100
0000
1000
0001
,  // measure 64
0100
0010
0000
1000
0000
0001
0000
0010
,  // measure 65
0000
0100
0000
1000
0001
0100
1000
0010
;

//---------------dance-single - ----------------
#NOTES:
     dance-single:
     :
     Easy:
     3:
     0.264,0.289,0.135,0.108,0.000:
0000
0000
0000
0000
,
0000
0000
0000
0000
,
0000
0000
0000
0000
,
0000
0000
0000
0000
,
0000
0000
0000
0000
,
1000
0001
0100
1000
,
0001
0100
1000
0001
,
0010
0100
1000
0010
,
0100
1000
0010
0100
,
1000
0001
0100
0000
,
0010
0100
0001
0000
,
0010
0100
1000
0000
,
0010
1000
1001
0101
,
0010
0100
0001
0000
,
0010
0100
1000
0000
,
0010
1000
0001
0000
,
1000
0001
0101
1100
,
0010
1000
0100
0000
,
1000
0001
0100
0000
,
0010
0100
1000
0000
,
0010
0100
0101
1001
,
0100
0010
0001
0000
,
1000
0010
0100
0000
,
0001
0100
1000
0000
,
0010
1000
1100
1001
,
0010
0000
0000
0100
0000
0000
0000
0000
,
0001
0000
0000
1000
0000
0000
0000
0000
,
0100
0000
0000
1000
0000
0000
0000
0000
,
0010
0000
0000
0100
0000
0000
0000
0000
,
0001
0000
0000
0010
0000
0000
0000
0000
,
1000
0000
0000
0010
0000
0000
0000
0000
,
0100
0000
0000
0001
0000
0000
0000
0000
,
1000
0000
0000
0001
0000
0000
0000
0000
,
0100
0010
1000
0000
,
0001
1000
0100
0000
,
0010
0001
0100
0000
,
0010
1000
0001
0000
,
1100
0000
0000
1100
0000
0000
0000
0000
,
0101
0000
0000
0101
0000
0000
0000
0000
,
0110
0000
0000
0110
0000
0000
0000
0000
,
2002
0000
0000
3003
,
0010
1000
0100
0010
,
0001
1000
0010
0100
,
0002
2000
0000
3003
,
0020
0000
0000
0030
,
1000
0001
0100
0010
,
0100
0001
0010
0100
,
2000
0020
0000
3030
,
0200
0000
0000
0300
,
0001
0010
0100
1000
,
0010
1000
0001
0100
,
0010
0100
0001
0010
,
0100
0000
1000
0000
0010
0000
1000
0100
,
1000
0010
0100
0001
,
1000
0010
0100
1000
,
0010
0100
0001
0010
,
0100
0000
1000
0000
0010
0000
0100
0001
,
0200
0000
0010
0001
,
0320
0000
1000
0100
,
2030
0000
0100
0001
,
3020
0000
0100
0001
,
0130
0000
1000
0000
,
0010
0000
0001
0000
,
0100
0000
1000
0000
,
0010
0000
0001
0000
;
