#TITLE:Primadonna;
#SUBTITLE:;
#ARTIST:MARINA AND THE DIAMONDS;
#TITLETRANSLIT:;
#SUBTITLETRANSLIT:;
#ARTISTTRANSLIT:;
#CREDIT:;
#BANNER:Primadonna-bn.png;
#BACKGROUND:Primadonna-bg.png;
#LYRICSPATH:;
#CDTITLE:;
#MUSIC:Primadonna.mp3;
#OFFSET:-0.080;
#SAMPLESTART:75.040;
#SAMPLELENGTH:16.120;
#SELECTABLE:YES;
#BPMS:0.000=128.000;
#STOPS:160.000=0.390
;
#BGCHANGES:0.000=Primadonna.avi=1.000=1=1=0,
99999=-nosongbg-=1.000=0=0=0 // don't automatically add -songbackground-
;

//---------------dance-single - ----------------
#NOTES:
     dance-single:
     :
     Beginner:
     1:
     0.114,0.154,0.009,0.000,0.000: // measure 1
0000
0000
0000
0000
,  // measure 2
0000
0000
0000
0000
,  // measure 3
0000
0000
0000
0000
,  // measure 4
0000
0000
0000
0000
,  // measure 5
0000
0000
1000
0000
,  // measure 6
0000
0000
0100
0000
,  // measure 7
0000
0000
1000
0000
,  // measure 8
0000
0000
0001
0000
,  // measure 9
0000
0000
0010
0000
,  // measure 10
0010
0000
0010
0000
,  // measure 11
0000
0000
0100
0000
,  // measure 12
0100
0000
0100
0000
,  // measure 13
0000
0000
1000
0000
,  // measure 14
1000
0000
1000
0000
,  // measure 15
0000
0000
0001
0000
,  // measure 16
0001
0000
0001
0000
,  // measure 17
0000
0000
1001
0000
,  // measure 18
0000
0000
0100
0000
,  // measure 19
0000
0000
1000
0000
,  // measure 20
0000
0000
0010
0000
,  // measure 21
0000
1000
1000
0000
,  // measure 22
0000
0000
0100
0000
,  // measure 23
0000
0000
0010
0010
,  // measure 24
0010
0000
0010
0000
,  // measure 25
0001
0000
1000
0000
,  // measure 26
0000
0000
0001
0000
,  // measure 27
0000
0000
1000
0000
,  // measure 28
0000
0000
0100
0000
,  // measure 29
0000
0010
0010
0000
,  // measure 30
0000
0000
0001
0000
,  // measure 31
0000
0000
1000
1000
,  // measure 32
1000
0000
1000
0000
,  // measure 33
0100
0000
0010
0000
,  // measure 34
0000
0000
0001
0001
,  // measure 35
0000
0000
0100
0000
,  // measure 36
0000
0000
0001
0001
,  // measure 37
0000
0000
1000
0000
,  // measure 38
0000
0000
0010
0010
,  // measure 39
0000
0000
1000
0000
,  // measure 40
0001
0000
1000
0000
,  // measure 41
0000
0000
0100
0000
,  // measure 42
0100
0000
0100
0000
,  // measure 43
0000
1000
0000
0001
,  // measure 44
0000
1000
0000
0000
,  // measure 45
0000
0000
0010
0000
,  // measure 46
0010
0000
0010
0000
,  // measure 47
0000
0100
0000
0001
,  // measure 48
0000
0100
0000
0000
,  // measure 49
0000
0001
0001
0001
,  // measure 50
0001
0001
0000
0000
,  // measure 51
0000
0100
0100
0100
,  // measure 52
0100
0100
0000
0000
,  // measure 53
0000
0010
0010
0010
,  // measure 54
0010
0010
0000
0000
,  // measure 55
0000
0100
0100
0100
,  // measure 56
0100
0100
0000
0000
,  // measure 57
0001
0001
0000
0000
;

//---------------dance-single - ----------------
#NOTES:
     dance-single:
     :
     Medium:
     6:
     0.323,0.334,0.119,0.329,0.000:
0000
0000
0000
0000
,
0000
0000
0000
0000
,
1000
0100
0010
0010
,
0001
0100
0100
0000
,
0001
1000
0002
0000
,
0103
0010
0200
0000
,
0310
1000
0100
0100
,
1000
0001
0100
0000
,
0001
1000
0200
0300
,
2000
3000
0002
0003
,
0000
0000
0020
0030
,
0002
0003
2000
3000
,
0000
0000
0200
0300
,
2000
3000
0020
0030
,
0000
0000
0200
0300
,
0002
0003
2000
3000
,
0010
0110
0001
0100
,
0001
0000
1000
0100
1000
0000
0010
0000
,
0100
0000
0010
1000
,
0100
0000
1000
0001
1000
0000
0010
0000
,
0100
0000
0010
1000
,
0001
0000
0010
0100
0010
0000
0001
0000
,
1000
0000
0100
1000
,
0001
0100
0001
0000
0010
0000
0100
0000
,
0110
1001
0000
1100
,
0010
0000
1000
0100
0010
0000
0001
0000
,
1000
0000
0010
0101
,
0010
0000
0001
0010
0100
0000
1000
0000
,
0001
0000
0100
1010
,
0100
0000
0001
1000
0100
0000
0010
0000
,
0001
0000
0000
0000
0100
0001
0100
0000
,
0010
0000
1000
0000
0100
1000
0100
0000
,
1100
1001
0020
0030
,
0100
0001
1000
0100
,
1000
0100
0010
0000
0002
0000
0003
0000
,
0010
0000
0001
1000
0100
0000
1000
0000
,
0010
0100
0010
0000
2000
0000
3000
0000
,
0100
1000
0010
1000
,
0100
0010
0001
0000
0110
0000
0001
0000
,
0100
0010
1000
0000
1100
0000
0101
0000
,
0000
2010
0000
3100
,
1000
0001
0200
0000
0300
0000
0010
0100
,
0010
2000
3001
2000
,
3001
0000
0200
0000
0300
0000
0001
1000
,
0001
0102
0000
0013
,
0001
1000
0020
0000
0030
0000
0100
0010
,
0100
0002
1003
0002
,
1003
0000
0020
0000
0030
0000
1000
0001
,
1000
0001
2000
0000
3100
0020
0000
0000
,
0031
0200
0000
0000
0000
0000
0310
0000
,
1000
0000
0001
0000
0010
0002
0000
0000
,
1003
0200
0000
0000
0000
0000
1300
0000
,
0010
0000
0100
0000
0010
2000
0000
0000
,
3001
0200
0000
0000
0000
0000
0310
0000
,
0100
0000
0001
0000
0010
0200
0000
0000
,
1300
0002
0000
0000
0000
0000
0103
0010
,
1000
0100
0010
0000
0000
0000
0000
0000
;

//---------------dance-single - ----------------
#NOTES:
     dance-single:
     :
     Hard:
     9:
     0.482,0.438,0.183,0.466,0.014:
0000
0000
0000
0000
,
0000
0000
0000
0000
,
0100
0001
1000
1000
,
0010
1000
0100
0000
0020
0000
0030
0000
,
0001
1000
0100
0000
2000
0000
0000
0000
,
3010
0000
0100
0002
0000
0000
0003
0000
,
1000
0010
0100
0100
,
0001
0010
0100
0000
2000
0000
3000
0000
,
0010
1000
0001
0000
0200
0000
0320
0000
,
2030
0001
3001
0000
,
0100
0001
0010
0000
0200
0000
0320
0000
,
0032
0100
0103
0000
,
0010
0100
0001
0000
2000
0000
3002
0000
,
0023
0100
0130
0000
,
0001
0010
0100
0000
2000
0000
3002
0000
,
2003
0010
3010
0000
,
0100
0010
1001
0000
0100
0000
1000
0100
,
1000
0000
0010
1000
0010
0000
1000
0001
,
1000
0000
2100
0000
3010
0000
0001
0100
,
0001
0000
0010
0100
0010
0000
0100
1000
,
0100
0000
0120
0000
0031
0000
0010
0001
,
0100
0000
0001
1000
0100
0000
1000
0010
,
0100
0000
1001
0000
1000
0010
1000
0010
,
0200
0000
0320
0000
1030
0100
0010
0000
,
0011
0000
1100
0000
0001
0100
0010
0100
,
0001
0000
0010
0100
0010
0000
0100
1000
,
0100
0000
2010
0000
3001
0010
0100
0010
,
0001
0000
1000
0100
1000
0000
0001
0100
,
0001
0000
0210
0000
1300
0100
0001
0100
,
1000
0000
0100
0010
0100
0000
1000
0010
,
1000
0000
1100
0000
0010
0001
1000
0001
,
1000
0001
0100
0000
0010
1000
0001
1000
,
0001
1000
0100
0000
0220
0000
0330
0000
,
0002
0000
0000
0000
0103
0000
0010
1000
0010
0000
0000
0000
1000
0000
0100
0000
,
0010
0001
1000
0100
2002
0000
3003
0000
,
0200
0000
0000
0000
0310
0000
1000
0010
1000
0000
0000
0000
0001
0000
0100
0000
,
0010
1000
0100
0010
0202
0000
0303
0000
,
2000
0000
0000
0000
3001
0000
0100
0010
0100
0000
0000
0000
0001
0000
1000
0000
,
0100
0010
0001
1000
0010
1000
1000
0001
,
0001
0010
0010
0001
1000
0100
0100
1000
,
0000
1010
0101
1001
,
1100
1000
0100
1000
0001
0000
0010
0001
,
1000
0010
0200
0000
0320
0000
2030
0000
,
3001
1000
0002
0000
0003
0000
0100
0010
,
1000
0100
1100
0000
0011
0000
1001
0000
,
0110
0010
1000
0000
0001
1000
0100
0010
,
0001
0100
0020
0000
0230
0000
0302
0000
,
1003
0100
2000
0000
3000
0000
0010
1000
,
0100
1000
0020
0000
0130
0001
0200
0000
,
0310
1000
0002
0000
0013
0001
1000
0100
,
1000
0001
0200
0000
0310
1000
0002
0000
,
0013
0100
2000
0000
3100
1000
0010
0100
,
0001
0010
0002
0000
0103
0010
2000
0000
,
3100
0010
0002
0000
0013
1000
0010
0001
,
1000
0100
2000
0000
3010
0100
0002
0000
,
0013
0001
0200
0000
0310
1000
0100
1000
,
0001
0010
0001
1000
0000
0000
0000
0000
;

//---------------dance-single - ----------------
#NOTES:
     dance-single:
     :
     Easy:
     3:
     0.193,0.256,0.101,0.110,0.000: // measure 1
0000
0000
0000
0000
,  // measure 2
0000
0000
0000
0000
,  // measure 3
0100
0000
0010
0000
,  // measure 4
1000
0000
0100
0000
,  // measure 5
1000
0000
0001
0000
,  // measure 6
0010
0000
0001
0000
,  // measure 7
1000
0000
0010
0000
,  // measure 8
1000
0000
0100
0000
,  // measure 9
0010
0000
0001
0001
,  // measure 10
0001
0000
0001
0000
,  // measure 11
0100
0000
0010
0010
,  // measure 12
0010
0000
0010
0000
,  // measure 13
0100
0000
0001
0000
,  // measure 14
1000
0000
0100
0000
,  // measure 15
1000
0000
0010
0000
,  // measure 16
1000
0000
0100
0000
,  // measure 17
0110
1001
0110
0000
,  // measure 18
1000
1000
0100
0000
,  // measure 19
1000
0000
0001
0000
,  // measure 20
0100
0100
0010
0000
,  // measure 21
0100
0000
0001
0000
,  // measure 22
0010
0010
0100
0000
,  // measure 23
0010
0000
0001
0001
,  // measure 24
0001
0000
1000
1000
,  // measure 25
1000
0000
0110
0000
,  // measure 26
1000
0000
0100
0100
,  // measure 27
1000
0000
0001
0000
,  // measure 28
1000
0000
0001
0001
,  // measure 29
0100
0000
0001
0000
,  // measure 30
1000
0000
0010
0010
,  // measure 31
1000
0000
0100
0100
,  // measure 32
0100
0000
1000
1000
,  // measure 33
1000
0000
2002
3003
,  // measure 34
0010
0000
0100
0000
,  // measure 35
0001
0000
2002
3003
,  // measure 36
0010
0000
0100
0000
,  // measure 37
1000
0000
0220
0330
,  // measure 38
1000
0000
0001
0000
,  // measure 39
0010
0000
0001
0001
,  // measure 40
0100
0000
0010
0010
,  // measure 41
0000
2002
0000
3003
,  // measure 42
0000
0200
0300
0000
,  // measure 43
0000
1000
1000
0100
,  // measure 44
0010
0010
0000
0000
,  // measure 45
0000
2002
0000
3003
,  // measure 46
0000
0020
0030
0000
,  // measure 47
0000
0001
0001
0010
,  // measure 48
0100
0100
0000
0000
,  // measure 49
0000
0001
0000
1000
,  // measure 50
0000
0100
0000
1000
,  // measure 51
1000
0010
0000
1000
,  // measure 52
0000
0001
0000
0100
,  // measure 53
0100
0001
0000
0010
,  // measure 54
0000
0001
0000
1000
,  // measure 55
1000
0010
0000
1000
,  // measure 56
0000
0100
0000
0110
,  // measure 57
1001
0000
0000
0000
;
