#TITLE:POUND THE ALARM;
#SUBTITLE:;
#ARTIST:NICKI MINAJ;
#TITLETRANSLIT:;
#SUBTITLETRANSLIT:;
#ARTISTTRANSLIT:;
#CREDIT:;
#BANNER:Pound The Alarm-bn.png;
#BACKGROUND:Pound The Alarm-bg.png;
#LYRICSPATH:;
#CDTITLE:;
#MUSIC:Pound The Alarm.mp3;
#OFFSET:0.080;
#SAMPLESTART:67.140;
#SAMPLELENGTH:16.120;
#SELECTABLE:YES;
#BPMS:0.000=124.960;
#STOPS:;
#BGCHANGES:1.000=Pound The Alarm.avi=1.000=1=0=0,
99999=-nosongbg-=1.000=0=0=0 // don't automatically add -songbackground-
;

//---------------dance-single - ----------------
#NOTES:
     dance-single:
     :
     Beginner:
     2:
     0.154,0.199,0.041,0.000,0.000:
0000
0000
0000
0000
,
0000
0000
0000
0000
,
0000
0000
0000
0000
,
0000
0000
0000
0000
,
0000
0000
0000
0000
,
1000
0000
0000
0000
,
0010
0000
0000
0000
,
0100
0100
0000
0000
,
0001
0001
0000
0000
,
0100
0000
0000
0000
,
1001
0000
0100
0000
,
1000
0000
0010
0010
,
0010
0000
1000
0000
,
0001
0000
1000
1000
,
1000
0000
0100
0000
,
0010
0000
0100
0100
,
0100
0000
1000
0000
,
0001
0000
0100
0100
,
0100
0000
0001
0000
,
1000
1000
1000
0000
,
0010
0000
1000
0000
,
0100
0100
0100
0000
,
1001
0000
0010
0010
,
0010
0000
0100
0100
,
0100
0000
0001
0001
,
0001
0000
1000
1000
,
1000
0000
0000
0000
,
0100
0000
0010
0000
,
0100
0000
0000
0000
,
1000
0000
0001
0000
,
0100
0000
0000
0000
,
0001
0000
0010
0000
,
0100
0000
0000
0000
,
1000
0000
0010
0000
,
0100
0000
0000
0000
,
1001
0000
0000
0000
,
0010
0010
0010
0000
,
1000
1000
1000
0000
,
0001
0001
0001
0000
,
0100
0100
0100
0000
,
0001
0001
0001
0000
,
1000
1000
1000
0000
,
0010
0010
0010
0000
,
0100
0100
0100
0000
,
1001
0000
0100
0000
,
1000
1000
1000
1000
,
1000
0000
0001
0000
,
0010
0010
0010
0010
,
0010
0000
0000
0000
;

//---------------dance-single - ----------------
#NOTES:
     dance-single:
     :
     Medium:
     9:
     0.348,0.378,0.083,0.156,0.124:
0000
0000
0000
0000
,
0000
0000
0000
0000
,
0000
0000
0000
0000
,
0000
0000
0000
0000
,
0000
0000
0000
0000
,
1000
0000
0000
0100
0000
0000
2200
0000
0000
0000
0000
0000
3300
0000
0000
0000
,
0010
1000
0001
0100
,
0001
0100
0001
0100
0001
0100
0000
0000
,
1000
0100
1000
0100
1000
0000
0000
0000
,
0220
0000
0000
0330
,
0001
0000
0000
0000
1000
0000
0000
0100
0000
0000
0100
0000
0000
0000
0000
0000
,
1000
0000
0000
0000
0001
0000
0000
0100
0000
0000
0100
0000
0000
0000
0001
0000
,
0001
0000
0000
0000
1000
0000
0000
0010
0000
0000
0010
0000
0000
0000
0000
0000
,
0100
0000
0000
0000
0001
0000
0000
1000
0000
0000
1000
0000
0000
0000
0100
0000
,
0100
0000
0000
0000
0010
0000
0000
0001
0000
0000
0001
0000
0000
0000
0000
0000
,
0010
0000
0000
0000
0001
0000
0000
1000
0000
0000
1000
0000
0000
0000
0010
0000
,
0010
0000
0000
0000
1000
0000
0000
0100
0000
0000
0100
0000
0000
0000
0000
0000
,
1000
0000
0000
0000
0001
0000
0000
1000
0000
0000
1000
0000
0000
0000
0010
0000
,
0010
0000
1000
0000
0100
1000
0001
0000
,
2000
0000
3100
0010
0001
0000
0101
0000
,
0010
0000
1000
0000
0001
1000
0010
0000
,
0200
0000
0301
0010
0100
0000
1001
0000
,
0020
0000
0000
0000
1030
0100
1000
0100
,
2000
0000
0000
0000
3001
0100
0001
0100
,
0002
0000
0000
0000
0013
0100
0010
0100
,
0010
0001
1000
0100
1000
0010
0100
0000
,
1010
0100
0001
1000
,
0100
0000
0000
0100
0000
0000
0100
0000
1000
0000
0000
0000
0001
0000
0000
0000
,
0010
0001
1000
0010
,
1000
0000
0000
1000
0000
0000
1000
0000
0100
0000
0000
0000
0010
0000
0000
0000
,
0001
1000
0010
0100
,
0001
0000
0000
0001
0000
0000
0001
0000
0010
0000
0000
0000
0001
0000
0000
0000
,
0100
0010
1000
0001
,
1000
0000
0000
1000
0000
0000
1000
0000
0100
0000
0000
0000
0010
0000
0000
0000
,
0220
0000
0000
0330
,
2002
0000
0000
3003
,
0010
0000
0000
0010
0000
0000
1000
0000
0100
0000
1000
0000
0001
0000
0000
0000
,
1000
0000
0000
1000
0000
0000
0100
0000
0010
0000
0001
0000
1000
0000
0000
0000
,
0001
0000
0000
0001
0000
0000
0100
0000
0010
0000
0100
0000
0001
0000
0000
0000
,
1000
0100
0010
0001
0100
0010
1000
0000
,
0001
0000
0000
0100
0000
0000
0010
0000
0100
0000
0001
0000
1000
0000
0000
0000
,
0100
0000
0000
1000
0000
0000
0010
0000
1000
0000
0100
0000
0010
0000
0000
0000
,
0001
0000
0000
0010
0000
0000
0100
0000
0010
0000
0001
0000
1000
0000
0000
0000
,
0001
0000
0000
0100
0000
0000
1000
0000
0100
0000
0010
0000
1000
0000
0000
0000
,
0100
0000
0000
1000
0000
0000
0010
0000
1000
0000
0100
0000
0010
0000
0001
0000
,
1000
0000
0000
0001
0000
0000
0100
0000
0010
0000
0100
0000
0001
0000
0010
0000
,
0100
0000
0000
1000
0000
0000
0100
0000
1000
0000
0010
0000
0100
0000
0001
0000
,
1000
0000
0000
0010
0000
0000
0100
0000
0001
0000
0010
0000
0100
0000
0000
0000
,
2002
0000
0000
0000
0000
3003
0000
0000
;

//---------------dance-single - ----------------
#NOTES:
     dance-single:
     :
     Hard:
     13:
     0.529,0.555,0.135,0.135,0.311: // measure 1
0000
0000
0000
0000
,  // measure 2
0000
0000
0000
0000
,  // measure 3
0000
0000
0000
0000
,  // measure 4
0000
0000
0000
0000
,  // measure 5
0000
0100
0001
0100
0010
1000
0100
0000
,  // measure 6
1100
1001
1001
0000
,  // measure 7
0100
0000
0010
1000
0100
1000
0001
0000
,  // measure 8
1000
0100
0001
1000
0010
0001
1000
0000
,  // measure 9
0001
0100
1000
0001
0010
1000
0001
0000
,  // measure 10
2200
0000
0000
0000
3300
0000
0000
0000
0010
0000
0001
1000
0100
0000
1000
0000
,  // measure 11
0010
0000
0000
0000
0100
0000
0001
1000
0000
1000
0001
0000
0000
0000
0100
0000
,  // measure 12
0010
0000
0000
0000
1000
0000
0100
0010
0000
0010
0001
0000
1000
0000
0010
0000
,  // measure 13
0100
0000
0000
0000
0001
0000
1000
0100
0000
0100
1000
0000
0000
0000
0010
0000
,  // measure 14
0100
0000
0000
0000
0001
0000
1000
0100
0000
0100
1000
0000
0010
0000
0100
0000
,  // measure 15
0001
0000
0000
0000
1000
0000
0100
0010
0000
0001
1000
0000
0000
0000
0010
0000
,  // measure 16
1000
0000
0000
0000
0001
0000
0100
0010
0000
1000
0100
0000
0010
0000
0001
0000
,  // measure 17
1000
0000
0000
0000
0010
0000
1000
0100
0000
0010
0001
0000
0000
0000
0100
0000
,  // measure 18
0001
0000
0000
0000
0010
0000
1000
0010
0000
0001
1000
0000
0100
0000
1000
0000
,  // measure 19
0010
0100
0000
0000
1001
0000
0000
0000
0010
1000
0000
0000
0100
1000
0000
0000
,  // measure 20
0001
0100
0001
0000
0010
0000
0100
0000
1000
0001
0000
0000
0110
0000
0000
0000
,  // measure 21
1000
0100
0000
0000
0101
0000
0000
0000
0010
0100
0000
0000
1000
0100
0000
0000
,  // measure 22
0010
0001
0010
0000
0100
0000
1000
0000
0001
0100
0000
0000
1010
0000
0000
0000
,  // measure 23
1100
0000
0000
0010
0001
0000
1000
0000
0010
0000
0100
0000
0010
0000
0100
0000
,  // measure 24
0001
0000
0000
1000
0100
0000
0010
0000
0001
0000
1000
0000
0001
0000
1000
0000
,  // measure 25
0010
0000
0000
0100
0001
0000
0010
0000
0100
0000
1000
0000
0100
0000
1000
0000
,  // measure 26
0010
0100
0010
0100
0010
1000
0010
1000
0100
1000
0100
1000
0001
0000
0000
0000
,  // measure 27
0100
0010
1000
0100
0010
0001
0100
1000
,  // measure 28
0100
0000
0000
0001
0000
0000
0010
0000
0002
0000
0000
0000
2003
0000
0000
0000
,  // measure 29
3010
1000
0100
0010
0001
0100
0010
1000
,  // measure 30
0001
0000
0000
0010
0000
0000
1000
0000
0020
0000
0000
0000
0230
0000
0000
0000
,  // measure 31
1300
0100
0010
0001
0100
0010
1000
0001
,  // measure 32
0100
0000
0000
0010
0000
0000
1000
0000
0200
0000
0000
0000
2300
0000
0000
0000
,  // measure 33
3010
1000
0001
0010
0100
0010
0001
1000
,  // measure 34
0010
0100
0001
0010
1000
0010
0100
1000
,  // measure 35
0020
0000
0000
0030
,  // measure 36
2002
0000
0000
3003
,  // measure 37
0010
0000
0010
1000
0000
1000
0100
0000
0010
0000
0001
0000
1000
0000
0010
0000
,  // measure 38
0100
0000
0100
0001
0000
0001
0010
0000
1000
0000
0010
0000
0100
0000
1000
0000
,  // measure 39
0010
0000
0010
1000
0000
0100
0001
0000
0100
0000
0010
0000
1000
0000
0001
0000
,  // measure 40
0010
0000
0100
0000
1000
0000
0010
0000
0100
0000
0001
1000
0001
0000
0000
0000
,  // measure 41
1010
0000
1000
0100
1000
0000
0010
0000
0100
0000
0001
0000
0010
0000
0100
0000
,  // measure 42
1000
0000
0001
0100
0001
0000
0010
0000
0100
0000
1000
0000
0010
0000
0100
0000
,  // measure 43
0001
0000
1000
0100
1000
0000
0010
0000
1000
0000
0001
0000
0010
0000
0100
0000
,  // measure 44
1000
0000
0001
0100
0001
0000
0010
0000
1001
0000
0010
0100
0010
0000
0000
0000
,  // measure 45
1000
0000
0100
0010
0001
0010
0100
0000
1000
0000
1000
0000
0001
0000
0001
0000
,  // measure 46
0100
0000
0010
1000
0100
1000
0010
0000
0100
0000
0100
0000
0001
0000
0001
0000
,  // measure 47
0010
0000
1000
0010
0001
0010
1000
0000
0010
0000
0010
0000
0001
0000
0001
0000
,  // measure 48
1000
0000
0100
1000
0010
1000
0100
0000
1000
0000
0010
0100
0001
0000
0000
0000
,  // measure 49
2200
0000
0000
0000
0000
3300
0000
0000
;

//---------------dance-single - ----------------
#NOTES:
     dance-single:
     :
     Easy:
     5:
     0.288,0.328,0.197,0.187,0.000:
0000
0000
0000
0000
,
0000
0000
0000
0000
,
0000
0000
0000
0000
,
0000
0000
0000
0000
,
0000
0000
0000
0000
,
0100
0001
1000
0000
,
0100
1000
0010
0000
,
0100
0010
0100
0000
,
0001
1000
0001
0000
,
0200
0000
0000
0300
,
0010
1000
0100
0100
,
1000
0001
0100
1010
,
0100
0001
0010
0010
,
0001
1000
0100
0011
,
1000
0001
0100
0100
,
0010
1000
0001
1100
,
0010
0001
1000
1000
,
0100
1000
0001
0101
,
0010
0000
0010
0000
0100
0010
0100
0000
,
1000
1000
0001
0000
,
1000
0000
1000
0000
0001
0100
0001
0000
,
0010
0010
0100
0000
,
1000
0000
1000
0000
0100
1000
0100
0000
,
0010
0000
0010
0000
0001
0010
0001
0000
,
0100
0000
0100
0000
0010
0100
0010
0000
,
1000
0100
0010
0001
,
2001
0000
3020
0000
,
0230
0000
0010
0010
,
0302
0000
2003
0000
,
3020
0000
1000
1000
,
0230
0000
0302
0000
,
0023
0000
0100
0100
,
0032
0000
2003
0000
,
3200
0000
1000
1300
,
0002
0000
0000
0003
,
2002
0000
0000
3003
,
0010
1000
1100
1001
,
0100
0001
0101
1010
,
0100
0001
0011
1100
,
0010
0000
1000
0000
0100
0100
0100
0000
,
1000
0001
1001
0110
,
0001
1000
1100
1001
,
0010
0001
0101
1010
,
0100
0000
0001
0000
0010
0010
0010
0000
,
0100
0000
1000
0000
0100
1000
0100
0000
,
1000
0000
0001
0000
0100
0001
0100
0000
,
0010
0000
1000
0000
0010
1000
0010
0000
,
1000
0000
0001
0000
0100
0001
0100
0000
,
2020
0000
0000
0000
0000
3030
0000
0000
;
