#TITLE:POP MUZIK;
#SUBTITLE:;
#ARTIST:M;
#TITLETRANSLIT:;
#SUBTITLETRANSLIT:;
#ARTISTTRANSLIT:;
#CREDIT:;
#BANNER:Pop Muzik-bn.png;
#BACKGROUND:Pop Muzik-bg.png;
#LYRICSPATH:;
#CDTITLE:;
#MUSIC:Pop Muzik.mp3;
#OFFSET:-0.040;
#SAMPLESTART:44.120;
#SAMPLELENGTH:16.140;
#SELECTABLE:YES;
#BPMS:0.000=108.890;
#STOPS:;
#BGCHANGES:0.500=Pop Muzik.avi=1.000=1=0=0,
99999=-nosongbg-=1.000=0=0=0 // don't automatically add -songbackground-
;

//---------------dance-single - ----------------
#NOTES:
     dance-single:
     :
     Beginner:
     1:
     0.108,0.132,0.048,0.000,0.000:
0000
0000
0000
0000
,
0000
0000
0000
0000
,
1000
0000
0000
0000
,
1000
0000
0000
0000
,
0010
0000
0000
0000
,
0100
0000
0000
0000
,
0001
0000
0000
0000
,
0001
0000
0000
0000
,
1001
0000
0100
0000
,
1000
0000
1000
0000
,
0010
0000
1000
0000
,
0100
0000
0100
0000
,
0010
0000
0001
0000
,
0010
0000
0100
0000
,
1000
0000
0000
0000
,
0010
0000
0000
0000
,
0100
0100
0000
0000
,
0001
0001
0000
0000
,
1000
1000
0000
0000
,
0010
0010
0000
0000
,
1001
0000
0000
0000
,
0000
0000
0000
0000
,
0000
0100
0000
0100
,
0000
1000
0000
1000
,
0000
0010
0000
0010
,
0000
0100
0000
0000
,
1001
0000
0100
0000
,
0010
0000
0100
0000
,
1000
0000
0010
0000
,
1000
0000
0001
0000
,
0001
0000
0001
0000
,
1000
0000
0010
0000
,
0100
0000
0000
0000
,
0001
0000
0000
0000
,
1000
1000
0000
0000
,
0100
0100
0000
0000
,
0010
0010
0000
0000
,
0001
0001
0000
0000
,
1001
0000
0000
0000
,
0000
0000
0000
0000
,
0000
0100
0000
0100
,
0000
0001
0000
0001
,
0000
1000
0000
0001
,
0000
0100
0000
0000
,
1001
0000
0100
0000
,
0100
0000
0000
0000
,
0010
0000
0010
0000
,
1000
0000
0000
0000
,
1000
0000
1000
0000
,
0100
0100
0100
0000
,
1000
0000
1000
0000
,
0010
0010
0010
0000
,
0100
0000
0000
0001
,
0001
0000
0000
1000
,
1000
0000
0000
0000
,
0110
0000
0000
0000
;

//---------------dance-single - ----------------
#NOTES:
     dance-single:
     :
     Medium:
     5:
     0.282,0.311,0.136,0.248,0.000:
0000
0000
0000
0000
,
0000
0000
0000
0000
,
0000
0100
0000
0100
0000
0100
0010
0000
,
0000
1000
0000
1000
0000
1000
0001
0000
,
0020
0000
0032
2003
,
3200
0000
2300
3020
,
0030
0100
0000
0100
0000
0100
0010
0000
,
0000
1000
0000
1000
0000
1000
0001
0000
,
1100
0010
1000
0001
,
0011
0001
0100
0010
,
0110
1000
0001
0010
,
1100
0010
1000
0000
,
0001
0100
0001
0000
1000
0100
1000
0000
,
0001
0010
0001
0000
1000
0010
1000
0000
,
1001
0000
0000
0000
0000
0100
0010
0000
,
0110
0000
0000
0000
0000
0001
0010
0000
,
0200
0000
0000
0000
0310
0010
0010
0000
,
0002
0000
0000
0000
0103
0100
0100
0000
,
0020
0000
0000
0000
1030
1000
1000
0000
,
0200
0000
0000
0000
0310
0010
0010
0000
,
2002
0000
0000
0000
,
0000
0000
0000
0000
3003
0010
0010
0010
,
0200
0310
1000
0001
,
2000
3100
0010
0001
,
0000
0100
0000
0100
0000
0100
0001
0000
,
0000
1000
0000
1000
0000
1000
0010
0000
,
0110
1000
0100
0010
,
0011
1000
0001
0100
,
1010
0100
0001
0010
,
0110
0010
0001
0000
,
1000
0100
1000
0000
0010
1000
0010
0000
,
0100
0010
0100
0000
0001
1000
0001
0000
,
1100
0000
0000
0000
0000
0010
0010
0000
,
0101
0000
0000
0000
0000
1000
1000
0000
,
0020
0000
0000
0000
1030
0100
0010
0000
,
0002
0000
0000
0000
0103
0001
1000
0000
,
0200
0000
0000
0000
0310
0001
1000
0000
,
0020
0000
0000
0000
1030
0001
0100
0000
,
2020
0000
0000
0000
,
0000
0000
3030
0000
,
0010
0000
0100
0010
0000
0000
0000
0000
,
1000
0000
0100
1000
0000
0000
0000
0000
,
0000
0001
0000
0001
0000
0001
0100
0000
,
0000
1000
0000
1000
0000
1000
0100
0000
,
0020
0000
0230
2300
,
3002
0000
2003
3020
,
0230
0000
0320
0000
,
2030
0100
3002
0100
,
1003
0000
0100
0000
0010
0001
0100
0000
,
0010
0000
1000
0001
0100
0000
0000
0000
,
0001
0000
0010
0000
0100
1000
0010
0000
,
0100
0000
0010
1000
0100
0000
0000
0000
,
1001
0010
1000
0010
,
0101
0010
0100
1000
,
0011
1000
0010
0100
,
0020
0000
0030
0000
;

//---------------dance-single - ----------------
#NOTES:
     dance-single:
     :
     Hard:
     8:
     0.357,0.356,0.056,0.296,0.004: // measure 1
0000
0000
0000
0000
,  // measure 2
0000
0000
0000
0000
,  // measure 3
0000
0001
0000
1000
0000
0001
0100
1000
,  // measure 4
0000
0001
0000
1000
0000
0001
0100
1000
,  // measure 5
0020
0000
0230
0302
,  // measure 6
2003
0000
3200
2300
,  // measure 7
3000
0001
0000
1000
0000
0001
0100
1000
,  // measure 8
0000
0001
0000
1000
0000
0001
0100
1000
,  // measure 9
0020
0000
0130
0000
0001
0000
1000
0001
,  // measure 10
0200
0000
0310
0000
0100
0000
0001
0010
,  // measure 11
2000
0000
3010
0000
0001
0000
1000
0100
,  // measure 12
0020
0000
0000
0000
0130
0000
0000
0000
1000
0001
1000
0000
0000
0000
0000
0000
,  // measure 13
0001
0100
0001
0100
0010
1000
0010
0000
,  // measure 14
1000
0100
1000
0100
0010
0001
0010
0000
,  // measure 15
2000
0002
0000
3003
0000
0100
0010
0000
,  // measure 16
0002
2000
0000
3003
0000
0010
0100
0010
,  // measure 17
0001
1000
0001
0000
0100
0100
0100
0000
,  // measure 18
0010
1000
0010
0000
1000
1000
1000
0000
,  // measure 19
0001
1000
0001
0000
0010
0010
0010
0000
,  // measure 20
0100
1000
0100
0000
0001
0001
0001
0000
,  // measure 21
1000
1000
1000
1000
,  // measure 22
1000
0000
1000
0000
1000
0010
0110
0001
,  // measure 23
0000
0110
0000
0000
0001
0100
0010
1000
,  // measure 24
0000
1100
0000
0000
0000
0010
0001
0100
,  // measure 25
0000
0001
0000
1000
0000
0001
0010
1000
,  // measure 26
0000
0001
0000
1000
0000
0001
0010
1000
,  // measure 27
0200
0000
1300
0000
0100
1000
0100
0000
,  // measure 28
0020
0000
0031
0000
0010
0001
0010
0000
,  // measure 29
0200
0000
0310
0000
0100
0010
0100
0000
,  // measure 30
0002
0000
1003
0000
0001
1000
0001
0000
,  // measure 31
1000
0010
1000
0010
0100
0010
0100
0000
,  // measure 32
0001
1000
0001
1000
0100
0010
0100
0000
,  // measure 33
2000
0002
0000
3003
0000
0100
0010
0100
,  // measure 34
0002
2000
0000
3003
0000
0100
0010
0100
,  // measure 35
1000
0010
1000
0000
0001
0001
0001
0000
,  // measure 36
0010
0100
0010
0000
0100
0100
0100
0000
,  // measure 37
1000
0001
1000
0000
0001
0001
0001
0000
,  // measure 38
0100
0001
0100
0000
1000
1000
1000
0000
,  // measure 39
0001
0001
0001
0001
,  // measure 40
0001
0000
0001
0000
0001
0100
0110
1000
,  // measure 41
0000
1001
0000
0000
0100
0010
0100
0001
,  // measure 42
0000
1001
0000
0000
0010
0100
0010
0001
,  // measure 43
0000
1000
0000
0001
0000
1000
0100
0001
,  // measure 44
0000
1000
0000
0001
0000
1000
0010
0001
,  // measure 45
0100
0100
0010
0010
,  // measure 46
1000
1000
0001
0001
,  // measure 47
0010
0001
0010
0000
0100
1000
0100
0000
,  // measure 48
1000
0001
1000
0000
0010
0100
0010
0000
,  // measure 49
2000
3200
0320
0032
,  // measure 50
0203
0320
2000
3030
,  // measure 51
0002
2003
3020
0230
,  // measure 52
0302
0023
0200
0330
,  // measure 53
1001
0100
1000
1000
,  // measure 54
0010
0000
0100
0000
0001
0001
0001
0000
,  // measure 55
0010
0001
1000
0100
,  // measure 56
0020
0000
0030
0000
;

//---------------dance-single - ----------------
#NOTES:
     dance-single:
     :
     Easy:
     3:
     0.213,0.245,0.080,0.120,0.000:
0000
0000
0000
0000
,
0000
0000
0000
0000
,
0100
0100
0100
0000
,
0010
0010
0010
0000
,
1000
0000
0100
0010
,
0001
0000
0100
0010
,
1000
1000
1000
0000
,
0001
0001
0001
0000
,
0011
0001
0010
0001
,
1000
0100
1000
0100
,
0010
0100
0010
0100
,
1000
0010
1000
0000
,
0101
0100
0001
0100
,
0010
0100
0010
0100
,
2000
3000
0000
0100
,
0020
0030
0000
0001
,
0200
0000
0301
1000
,
0200
0000
0310
0100
,
2000
0000
3001
1000
,
0020
0000
1030
0100
,
2002
0000
0000
0000
,
0000
0000
0000
3003
,
0010
1000
0100
0100
,
1000
0001
0100
0100
,
0000
0010
0000
1000
,
0000
0100
0000
0010
,
0011
0001
0010
0001
,
1000
0100
1000
0100
,
0010
0100
0010
0100
,
1000
0001
1000
0000
,
1010
1000
0010
1000
,
0010
0100
0010
0100
,
0001
1000
0001
1000
,
0100
0010
0100
0000
,
2000
0000
3100
1000
,
0020
0000
0130
0001
,
2000
0000
3100
0010
,
0002
0000
0103
0010
,
0220
0000
0000
0000
,
0000
0000
0000
0330
,
1000
0100
0010
0010
,
0001
0100
0010
0010
,
0000
0100
0000
0001
,
0000
1000
0000
0100
,
1000
0000
0100
0000
,
1000
0000
0010
0000
,
1000
0001
0100
0010
,
1000
0001
0100
0010
,
1000
1000
1000
1100
,
0001
0001
0001
0101
,
0010
0010
0010
0110
,
1000
1000
1000
1001
,
0100
0000
1000
0000
,
0001
0000
0100
0000
,
0010
0000
1000
0100
,
0200
0000
0300
0000
;

//---------------dance-single - ----------------
#NOTES:
     dance-single:
     :
     Challenge:
     13:
     0.614,0.578,0.489,0.128,0.401:
0000
0000
0000
0000
,
0000
0000
0000
0000
,
1000
0010
1000
0010
1000
0001
0001
0001
,
0010
0100
0010
0100
0010
0001
0001
0001
,
0200
0000
0302
2003
,
3020
0000
2030
3200
,
0310
0001
0010
0001
0010
0100
0100
0100
,
1000
0010
1000
0010
1000
0001
0001
0001
,
0100
0010
0100
0000
0001
0100
0001
0000
1000
0000
1000
0000
0100
0000
0100
0000
,
1000
0010
1000
0010
0100
0000
0100
0000
0001
0000
0001
0000
1000
0000
1000
0000
,
0001
0010
0001
0010
0100
0000
0100
0000
0010
0000
0010
0000
0001
0000
0001
1000
,
0100
1000
0010
1000
0100
0000
0100
0000
1000
0001
1000
0000
0110
0000
0000
0000
,
1000
0000
0100
1000
0100
0000
1000
0001
1000
0001
0100
0100
0010
0000
1000
0000
,
0100
1000
1100
0101
0010
0001
0011
1100
,
0001
1000
0100
0000
0000
0000
0000
0000
0000
0000
0011
0000
0110
0000
1100
0000
,
1000
0100
0001
0000
0000
0000
0000
0000
0000
0000
1100
0000
0110
0000
0011
0000
,
1000
0100
1000
0100
0010
0001
0000
0000
0100
0010
0100
0010
0100
0000
0001
0000
,
0101
0000
1100
0000
0001
1000
0000
0000
0010
0100
0001
0100
0010
0000
1000
0000
,
0100
1000
0100
1000
0100
1000
0000
0000
0010
0000
1000
0000
0001
0000
0100
0000
,
0101
0000
1100
0000
0010
0100
0000
0000
0001
0000
1000
0000
0100
0000
1000
0000
,
0011
0100
0011
0100
0011
0100
0011
0100
,
0010
1000
0100
0010
0001
0100
0010
0000
1000
0000
1100
0000
0001
1000
0001
0000
,
0100
0010
1000
0000
0100
0000
1000
0000
0001
0000
1001
0000
0110
0000
1001
0000
,
1000
0100
0010
0000
0001
0000
1000
0000
0001
0000
0011
0000
1100
0000
0011
0000
,
0100
0110
0000
1001
0000
1100
0001
0110
,
0000
0101
0000
0011
0000
1100
1000
0110
,
0001
0100
0010
1000
0100
0000
0010
0000
0001
0000
0001
0000
1000
0000
1000
0000
,
0010
1000
0100
1000
0001
0000
0001
0000
0100
0000
0100
0000
0010
0000
0010
0000
,
1000
0000
0100
0010
0001
0010
0100
0000
1000
0000
1000
0000
0001
0000
0001
0000
,
0100
0010
0100
0010
1000
0000
1000
0000
0001
0000
0001
0000
1001
0000
0000
0000
,
0100
0010
0100
0010
1000
0000
1000
0000
0001
0000
0001
1000
0100
0000
0100
0000
,
0010
0001
0010
0001
1000
0100
1000
0000
0001
0100
0001
0100
0010
1000
0010
0000
,
0100
0001
1000
0000
0000
0000
0000
0000
0000
0000
0110
0000
1010
0000
1001
0000
,
0010
0100
1000
0000
0000
0000
0000
0000
0000
0000
1100
0000
0011
0000
1001
0000
,
0010
0100
0010
0100
0001
1000
0000
0000
0010
0100
0000
0100
0010
1000
0000
0000
,
1100
0000
1001
0000
0010
0001
0000
0000
0100
0000
0010
0000
1000
0000
0001
0000
,
0010
0100
0010
0100
1000
0001
0000
0000
1000
0100
0000
1000
0001
1000
0000
0000
,
0110
0000
1001
0000
0010
0001
0000
0000
0100
0010
0100
0010
1000
0001
0000
0000
,
0110
1000
0110
1000
0110
1000
0110
1000
,
0110
0000
1000
0000
0110
0000
1000
0000
0100
0010
0001
1000
0100
0000
0000
0000
,
0010
0001
0100
0000
0010
1000
0100
0000
0010
0000
0110
0000
1001
0000
0110
0000
,
1000
0100
0010
0000
0001
0100
0010
0000
1000
0000
1010
0000
1001
0000
0110
0000
,
0000
0001
0000
1000
0000
0001
1000
0001
,
0000
0010
0000
0100
0000
0010
0100
0010
,
0012
0000
2003
3020
,
2030
0000
3200
0320
,
0031
0000
1000
0100
1000
0000
0000
0000
0010
0000
0100
0001
0100
0000
0000
0000
,
0001
0000
0010
0100
0010
0000
0001
1000
0001
1000
0001
1000
0001
0000
1000
0100
,
0010
0000
0010
0000
0001
0100
0010
0100
0001
0000
0001
0000
0010
0100
0010
0001
,
1000
0000
1000
0000
0100
1000
0010
1000
0001
0000
0001
0000
0010
0100
0010
0001
,
0100
0000
0100
0000
0010
1000
0100
1000
0001
0000
0001
0000
0010
0001
0100
0010
,
1000
0000
1000
0000
0100
1000
0010
0100
0001
0000
0001
0000
0010
0100
0010
0000
,
1100
0000
1000
0000
0010
0100
0001
0000
0010
0000
0010
0000
0001
0000
0001
0000
,
0101
0000
0100
0000
0010
1000
0100
0000
0010
0000
0010
0000
0001
0000
0001
0000
,
0201
0000
0320
2030
,
3200
0000
0300
0000
;
