#TITLE:PARADISE;
#SUBTITLE:;
#ARTIST:COLDPLAY;
#TITLETRANSLIT:;
#SUBTITLETRANSLIT:;
#ARTISTTRANSLIT:;
#CREDIT:;
#BANNER:Paradise-bn.png;
#BACKGROUND:Paradise-bg.png;
#LYRICSPATH:;
#CDTITLE:;
#MUSIC:Paradise.mp3;
#OFFSET:0.000;
#SAMPLESTART:92.860;
#SAMPLELENGTH:16.080;
#SELECTABLE:YES;
#DISPLAYBPM:139.000;
#BPMS:0.000=139.650,158.000=137.790,160.000=139.550,212.000=137.310,216.000=139.670,238.000=143.390,240.000=139.670,254.000=140.750,256.000=139.690,262.000=141.330,264.000=139.710,279.000=141.950,280.000=139.730,287.000=142.550,288.000=139.690,303.000=141.730,304.000=139.710;
#STOPS:;
#BGCHANGES:0.000=Paradise.avi=1.000=1=0=0,
99999=-nosongbg-=1.000=0=0=0 // don't automatically add -songbackground-
;

//---------------dance-single - ----------------
#NOTES:
     dance-single:
     :
     Beginner:
     1:
     0.131,0.222,0.093,0.000,0.000:
0000
0000
0000
0000
,
0000
0000
0000
0000
,
0000
0000
0000
0000
,
0000
0000
0000
0000
,
0100
0000
0010
0000
,
0100
0000
0000
0000
,
0001
0000
0100
0000
,
0001
0000
0000
0000
,
1000
0000
0000
1000
,
0000
0000
0000
0000
,
0010
0000
0000
0010
,
0000
0000
0000
0000
,
0100
0000
0000
0100
,
0000
0000
0000
0000
,
0001
0000
0000
0001
,
0000
0000
0000
0000
,
1000
0000
1000
0000
,
0100
0000
0100
0000
,
1000
0000
1000
0000
,
0001
0000
0001
0000
,
0010
0000
0010
0000
,
0001
0000
0001
0000
,
0100
0000
0100
0000
,
0010
0000
0010
0000
,
1000
0000
0000
0000
,
0000
0000
0000
0000
,
0010
0000
0000
0000
,
0000
0000
0000
0000
,
1001
0000
0000
0000
,
0000
0000
0000
0000
,
0100
0000
0000
0000
,
0000
0000
0000
0000
,
0001
0000
0001
0000
,
0000
0000
0000
0000
,
0100
0000
0100
0000
,
0000
0000
0000
0000
,
0010
0000
0010
0000
,
0000
0000
0000
0000
,
1000
0000
1000
0000
,
0000
0000
0000
0000
,
0100
0100
0100
0000
,
1000
0000
0010
0000
,
1000
1000
1000
0000
,
0001
0000
0000
0000
,
0010
0010
0010
0000
,
0001
0000
1000
0000
,
0100
0000
0100
0000
,
1000
0000
0010
0010
,
0010
0000
0000
0000
,
0000
0000
0000
0000
,
1000
0000
0001
0000
,
1000
0000
0010
0010
,
0010
0000
0000
0000
,
0000
0000
0000
0000
,
1001
0000
1001
0000
,
0000
0100
0100
0000
,
0110
0000
0110
0000
,
0000
0010
0010
0000
,
1001
0000
1001
0000
,
0000
1000
1000
0000
,
0100
0000
0000
0000
,
1000
0000
0000
0000
,
1001
0000
1001
0000
,
0000
0010
0010
0000
,
0110
0000
0110
0000
,
0000
0100
0100
0000
,
1001
0000
1001
0000
,
0000
0010
0010
0000
,
0001
0000
0000
0000
,
1000
0000
0000
0000
,
0100
0000
0100
0000
,
1000
0000
0010
0000
,
0100
0000
0100
0000
,
0001
0000
1000
0000
,
0001
0000
0001
0000
,
0010
0000
0001
0000
,
0100
0100
0100
0100
,
0100
0100
0100
0000
;

//---------------dance-single - ----------------
#NOTES:
     dance-single:
     :
     Medium:
     6:
     0.361,0.446,0.100,0.551,0.000:
0000
0000
0000
0000
,
0000
0000
0000
0000
,
0000
0000
0000
0000
,
0000
0000
0000
0000
,
0100
0001
1000
0200
,
0000
0010
0310
0000
,
0001
0010
0001
2000
,
0000
0010
3010
0000
,
0200
0000
0310
0000
0100
0001
2000
0000
,
0000
0100
3100
0000
,
0002
0000
1003
0000
0010
1000
0020
0000
,
0000
0100
0130
0000
,
0002
0000
0013
0000
0100
0010
0200
0000
,
0000
1000
1300
0000
,
0020
0000
1030
0000
0100
0010
0002
0000
,
0000
1000
1003
0000
,
0010
0200
0000
0300
0010
0200
0000
0300
,
0000
0000
0010
0100
0010
0000
0000
0000
,
1000
0002
0000
0003
1000
0002
0000
0003
,
0000
0000
1000
0001
1000
0000
0000
0000
,
0100
2000
0000
3000
0100
2000
0000
3000
,
0000
0000
0100
1000
0100
0000
0000
0000
,
2000
3100
0020
0031
,
0200
0010
0310
0000
,
2100
0000
0000
3020
,
0000
0100
0130
0000
,
0102
0000
0000
0023
,
0000
0100
0130
0000
,
1002
0000
0000
2003
,
0000
0100
3100
0000
,
2100
0000
0000
3002
,
0000
0010
0013
0000
,
2000
0000
3100
0000
0010
1000
0200
0000
,
0000
0010
0310
0000
,
0002
0000
0103
0000
0001
0010
0200
0000
,
0000
0010
0310
0000
,
0200
0000
0310
0000
1000
0100
2000
0000
,
0000
0010
3010
0000
,
0020
0000
1030
0000
0001
0010
0200
0000
,
0000
0010
0310
0000
,
0002
0000
0103
0000
0020
0000
1030
0100
,
0000
1000
0000
0001
0000
0100
0000
0000
,
0020
1030
0200
0310
,
0001
1000
0001
0000
2002
0000
3003
0000
,
0020
0000
2030
0000
3002
0000
0103
0010
,
0000
0000
1000
0100
0000
0000
1000
0000
,
1001
0000
0100
0000
1000
0100
0010
0000
,
0001
1000
0002
2003
,
3020
0000
0000
0000
,
0000
0030
0000
0010
,
0101
0000
1000
0000
0100
1000
0010
0000
,
1000
0001
0020
0032
,
2003
0000
0000
0000
,
0000
0000
3000
0000
,
0210
0010
0001
0310
,
0100
0000
0001
1000
0001
0000
0010
0000
,
2100
0100
0010
3100
,
1000
0000
0001
0100
0010
0000
0100
0000
,
0102
0010
0100
0010
,
1003
0000
0100
0010
0100
0000
1000
0000
,
0020
2030
3002
0103
,
0020
0230
0302
0013
,
2100
0010
0100
0001
,
3010
0000
1000
0100
0010
0000
0001
0000
,
0201
0010
1000
0001
,
0310
0000
0100
0001
1000
0000
0100
0000
,
1020
0100
0001
1000
,
1000
0030
0100
0010
1000
0000
0100
0000
,
0020
0032
2003
3100
,
2000
3020
0230
0310
,
1000
0001
1000
0000
1000
0001
1000
0000
,
0200
1000
1300
0000
,
0001
1000
0001
0000
0001
1000
0001
0000
,
0002
0010
0013
0000
,
0100
0010
0100
0000
0100
0010
0100
0000
,
0200
0001
0301
0000
,
0020
0032
2003
3010
,
2000
3002
0203
0300
,
1001
0000
0000
0000
;

//---------------dance-single - ----------------
#NOTES:
     dance-single:
     :
     Hard:
     10:
     0.445,0.474,0.279,0.679,0.000:
0000
0000
0000
0000
,
0000
0000
0000
0000
,
0000
0000
0000
0000
,
0000
0000
0000
0000
,
0100
0001
2000
0000
3010
1000
0200
0000
,
0000
0000
0310
0001
0010
0000
0000
0000
,
0001
0010
0200
0000
1300
0001
0020
0000
,
0000
0000
0031
0100
0001
0000
0000
0000
,
2010
0000
3010
0102
,
0000
0010
0103
0000
,
2001
0000
3010
0210
,
0000
0000
1000
0000
0301
0000
0010
0100
,
0120
0000
0031
2100
,
0000
0000
0010
0000
3100
0000
0001
0100
,
0102
0000
0013
2100
,
0000
0000
0010
0000
3100
0000
1000
0001
,
2002
0000
3003
0000
2010
0000
3001
0100
,
0000
1000
0200
0000
0302
0000
1003
0200
,
0010
0300
0000
0001
0010
0002
1000
0000
,
0003
0000
0100
1000
0010
0000
1000
0100
,
2200
0000
3300
0000
0210
0000
0301
0100
,
0000
0100
0010
0000
0100
0002
1000
0003
,
0100
0000
1000
0010
0100
0002
0200
0000
,
0303
0011
1100
1001
,
0200
0000
0010
0302
,
0000
0010
2003
0000
,
3200
2300
3020
0230
,
0000
0001
0320
0030
,
2001
0100
3020
0230
,
0000
0001
0320
0000
,
2030
3002
2003
3200
,
0000
0010
1300
0000
,
1000
0100
0001
0000
0001
0100
2000
0000
,
0000
0100
3010
0000
,
0001
0010
1000
0000
1000
0010
0002
0000
,
0000
0000
0100
0000
1003
0000
0010
0100
,
0010
1000
0100
0020
,
0100
0001
0031
0000
,
0100
0001
1000
0000
0100
0000
2000
0000
,
0010
0100
3100
0000
,
2100
0000
3020
0000
0230
0000
0301
1000
,
0000
0001
0000
0011
0000
1100
0000
0000
,
0020
0000
0032
0000
0203
0000
0310
1000
,
0000
0001
1000
0000
0220
0000
0330
0000
,
0002
0000
0203
0000
0320
0000
1030
0100
,
0000
1000
0001
0000
0100
0000
0010
0100
,
0020
0000
0030
1000
0100
0010
0002
0000
,
0000
0103
1010
1001
,
0120
0000
0000
0000
0130
0000
0001
1000
,
0100
0000
1010
0000
0101
0000
0010
0100
,
0020
0000
0000
0031
0010
0100
2000
0000
,
0000
0100
0010
3001
,
0220
0000
0000
0000
,
0000
0000
0330
0000
,
0001
0020
0100
0000
0031
0020
0100
0000
,
0001
0000
0031
0010
0011
0000
0000
0000
,
0100
2000
0001
0000
3100
2000
0001
0000
,
0010
0000
3100
1000
1100
0000
0000
0000
,
0010
0200
0001
0000
0310
0200
0001
0000
,
1000
0000
0310
0100
0110
0000
0000
0000
,
0002
0000
0203
0000
0320
0000
1030
0100
,
0010
0001
2000
0000
3002
0000
0003
0000
,
0010
0002
0100
0000
0013
0002
1000
0000
,
0010
0000
0103
0001
0101
0000
0000
0000
,
0010
2000
0100
0000
3010
2000
0001
0000
,
0010
0000
3100
1000
1100
0000
0000
0000
,
0001
0200
1000
0000
0301
0200
0010
0000
,
0001
0000
0310
0100
0110
0000
0000
0000
,
0002
0000
0203
0000
0310
1000
0100
0010
,
0002
2003
3200
0300
,
0012
0000
0010
0000
1000
1000
2000
0000
,
3000
0100
0103
0110
,
2010
0000
0100
0000
0001
0001
0002
0000
,
0003
0000
0010
0000
3010
0000
0001
0100
,
0201
0000
0010
0000
1000
1000
2000
0000
,
3000
0010
0310
1100
,
1002
0000
0203
0000
0301
0010
0100
2000
,
0100
0010
0002
3003
,
0110
0000
0000
0000
;

//---------------dance-single - ----------------
#NOTES:
     dance-single:
     :
     Easy:
     4:
     0.271,0.363,0.100,0.608,0.000:
0000
0000
0000
0000
,
0000
0000
0000
0000
,
0000
0000
0000
0000
,
0000
0000
0000
0000
,
0100
0000
0001
1000
,
0000
1000
0001
0000
,
0010
0000
0100
1000
,
0000
1000
0100
0000
,
2000
0000
0000
3200
,
0000
0000
0300
0000
,
0020
0000
0000
0032
,
0000
0000
0003
0000
,
0200
0000
0000
0302
,
0000
0000
0003
0000
,
2000
0000
0000
3020
,
0000
0000
0030
0000
,
2000
3000
2000
3000
,
0100
1000
0010
0000
,
0200
0300
0200
0300
,
0010
1000
0001
0000
,
0020
0030
0020
0030
,
0100
1000
0010
0000
,
2000
3000
2000
3000
,
0002
0003
0002
0003
,
0220
0330
0000
0000
,
0010
1000
0100
0100
,
0100
0000
0000
1000
,
0001
0100
0100
0000
,
2002
3003
0000
0000
,
0010
1000
0100
0100
,
1000
0000
0000
0010
,
1000
0001
0001
0000
,
0020
0030
0002
0003
,
2000
3000
0200
0300
,
2000
3000
0020
0030
,
0200
0300
0200
0300
,
0002
0003
2000
3000
,
0020
0030
2000
3000
,
0200
0300
2000
3000
,
0020
0030
0020
0030
,
2000
3000
0100
1000
,
0010
0100
0100
0000
,
0002
0003
0100
0001
,
1000
0010
0010
0000
,
2000
3000
0010
1000
,
0001
0100
0100
0000
,
0002
0003
1000
0100
,
2000
3000
0010
0100
,
0020
0000
0000
0000
,
0030
0000
0000
0000
,
0200
0300
0001
1000
,
0020
0030
1000
0100
,
2000
0000
0000
0000
,
3000
0000
0000
0000
,
2002
3003
0220
0330
,
0000
0001
0002
0003
,
0220
0330
2002
3003
,
0000
1000
2000
3000
,
2002
3003
0220
0330
,
0000
0010
0020
0030
,
1000
0100
1000
0010
,
1000
0100
1000
0000
,
0220
0330
2002
3003
,
0000
0100
0200
0300
,
2002
3003
0220
0330
,
0000
0010
0020
0030
,
2002
3003
0220
0330
,
0000
0001
0002
0003
,
0100
0001
0100
0010
,
0100
0001
0100
0000
,
0020
0030
0100
0010
,
1000
0100
0100
0000
,
2000
3000
0100
1000
,
0001
0010
0010
0000
,
0002
0003
0100
0001
,
1000
0010
0020
0030
,
2000
0000
3200
0000
,
0320
0000
0032
0000
,
0103
0000
0000
0000
;

//---------------dance-single - ----------------
#NOTES:
     dance-single:
     :
     Challenge:
     12:
     0.582,0.586,0.300,0.572,0.000: // measure 1
0000
0000
0000
0000
,  // measure 2
0000
0000
0000
0000
,  // measure 3
0000
0000
0000
0000
,  // measure 4
0000
0000
0000
0000
,  // measure 5
0001
1000
0200
1000
1300
0100
0020
0000
,  // measure 6
0001
0130
2001
0100
,  // measure 7
3010
1000
0002
0010
0013
0001
0200
0000
,  // measure 8
0010
1300
0102
0100
,  // measure 9
0013
0100
1000
1000
0100
0010
0002
0000
,  // measure 10
0100
1000
1003
0000
1100
0000
1000
0100
,  // measure 11
0010
0001
0001
0010
0100
1000
0020
0000
,  // measure 12
0100
1000
1030
0000
0101
0000
0010
0001
,  // measure 13
0010
0100
1000
0100
0010
0001
0200
0000
,  // measure 14
0010
0001
0301
0000
1100
0000
0010
1000
,  // measure 15
0100
1000
0010
0100
0001
0010
2000
0000
,  // measure 16
0010
0001
3002
0000
0203
0000
2300
0000
,  // measure 17
3010
0200
0001
0000
0310
2000
0001
0000
,  // measure 18
3100
0010
0001
1000
1001
0000
0100
0010
,  // measure 19
1000
0200
0001
0000
0310
0002
1000
0000
,  // measure 20
0103
0010
1000
0100
1100
0000
0010
0001
,  // measure 21
0100
0201
0010
0300
1000
2100
0010
3000
,  // measure 22
0100
0001
1000
0010
1010
0000
0100
0001
,  // measure 23
2001
0000
3020
0000
0130
0001
1000
0100
,  // measure 24
1000
0001
0100
1000
0200
0000
0301
0000
,  // measure 25
2001
0000
3100
0000
0010
1000
0200
0000
,  // measure 26
0010
0000
1300
0001
0200
0000
0010
0000
,  // measure 27
0301
0100
0010
1000
0100
1000
0020
0000
,  // measure 28
1000
0000
0130
0010
2000
0000
3100
0000
,  // measure 29
0001
0010
0100
0010
0001
1000
0200
0000
,  // measure 30
0010
0000
1300
0100
0020
0000
0031
0100
,  // measure 31
0020
0000
2030
0000
3001
1000
0200
0000
,  // measure 32
0310
0001
1000
0100
2000
0000
3010
0000
,  // measure 33
0101
0100
0010
0100
0001
0010
0200
0000
,  // measure 34
0310
0001
1000
0100
2000
0000
3100
0000
,  // measure 35
1010
1000
0010
0100
0001
0010
0200
0000
,  // measure 36
0310
0001
1000
0010
0002
0000
0013
1000
,  // measure 37
0100
1000
0010
0100
0001
0010
0200
0000
,  // measure 38
0310
0001
1000
0100
0020
0000
0031
1000
,  // measure 39
0010
1000
0100
1000
0001
0010
0200
0000
,  // measure 40
0310
0001
1000
0100
2000
0000
3010
0000
,  // measure 41
1001
0000
0110
0000
1001
0000
1000
0100
,  // measure 42
0001
0100
1000
0010
0100
0010
0100
0000
,  // measure 43
0101
0000
1100
0000
0001
1000
0100
0010
,  // measure 44
0001
0100
0001
0100
0002
0000
0003
0000
,  // measure 45
0011
0000
1001
0000
0100
1000
0010
0100
,  // measure 46
0010
0100
0001
1000
0001
0000
0010
0100
,  // measure 47
2000
0000
3100
0010
0001
0100
0020
0000
,  // measure 48
0130
0000
0001
1000
1001
0000
0110
0000
,  // measure 49
2001
0010
0100
0010
,  // measure 50
0010
0010
0010
0000
3100
0000
0010
1000
,  // measure 51
0002
0000
0013
0001
1000
0010
0200
0000
,  // measure 52
0310
0000
0001
1000
1010
0000
0101
0000
,  // measure 53
0022
0000
0030
0200
0000
0300
2000
0000
,  // measure 54
3000
0020
0000
0030
2000
0000
3003
0000
,  // measure 55
0110
0010
0001
1000
0100
0010
2001
0000
,  // measure 56
0100
0000
3001
0010
0010
0000
0000
0000
,  // measure 57
0011
0010
0100
1000
0010
0100
1020
0000
,  // measure 58
0100
0000
1030
0001
0001
0000
1000
0100
,  // measure 59
0110
0010
0001
1000
0010
0100
1002
0000
,  // measure 60
0100
0000
1003
0010
0010
0000
0100
0000
,  // measure 61
2010
3000
0200
1300
0020
0130
0002
0103
,  // measure 62
2000
3020
0230
0301
,  // measure 63
0110
0100
1000
0001
0010
0100
0012
0000
,  // measure 64
0100
0000
1003
0100
0100
0000
0000
0000
,  // measure 65
0011
0001
1000
0001
0100
0010
2010
0000
,  // measure 66
0001
0000
3010
0100
0100
0000
0001
1000
,  // measure 67
1001
0100
1000
0001
0100
0010
1200
0000
,  // measure 68
0010
0000
0301
0100
0100
0000
1000
0000
,  // measure 69
0102
0003
0020
0031
0200
0310
2000
3010
,  // measure 70
0002
0000
0203
0310
0020
0000
0030
0000
,  // measure 71
1000
0100
0001
0100
1000
0100
0001
0020
,  // measure 72
0000
0130
1000
0010
2000
0000
3100
1000
,  // measure 73
0010
0001
0010
1000
0010
0001
0010
0200
,  // measure 74
0000
0301
0010
0100
2000
0000
3100
0010
,  // measure 75
0001
0100
1000
0100
0001
0010
1000
0020
,  // measure 76
0000
0031
1000
0100
2000
0000
3010
0100
,  // measure 77
0001
0010
1000
0001
0100
1000
0010
0001
,  // measure 78
1000
0100
0010
1000
0200
0000
0310
0000
,  // measure 79
1001
0000
0000
0000
;
