#TITLE:ONE THING;
#SUBTITLE:;
#ARTIST:ONE DIRECTION;
#TITLETRANSLIT:;
#SUBTITLETRANSLIT:;
#ARTISTTRANSLIT:;
#CREDIT:;
#BANNER:One Thing-bn.png;
#BACKGROUND:One Thing-bg.png;
#LYRICSPATH:;
#CDTITLE:;
#MUSIC:One Thing.mp3;
#OFFSET:-0.240;
#SAMPLESTART:83.380;
#SAMPLELENGTH:16.160;
#SELECTABLE:YES;
#BPMS:0.000=127.020;
#STOPS:243.000=0.240
,244.000=0.240
;
#BGCHANGES:-0.500=One Thing.avi=1.000=1=0=0,
99999=-nosongbg-=1.000=0=0=0 // don't automatically add -songbackground-
;

//---------------dance-single - ----------------
#NOTES:
     dance-single:
     :
     Beginner:
     1:
     0.107,0.153,0.017,0.000,0.000:
0000
0000
0000
0000
,
0000
0000
0000
0000
,
0000
0000
0000
0000
,
0000
0000
0000
0000
,
0100
0000
0001
0000
,
1000
0000
0100
0000
,
1000
0000
0000
0000
,
0010
0000
0000
0000
,
1000
0000
0100
0000
,
0010
0000
0000
0000
,
0001
0000
1000
0000
,
0100
0000
0000
0000
,
1000
0000
0010
0000
,
0100
0000
0000
0000
,
0010
0000
0000
0000
,
0000
0000
0000
0000
,
1000
0000
1000
0000
,
1000
0000
0000
0000
,
0010
0000
0010
0000
,
0010
0000
0000
0000
,
0100
0000
0100
0000
,
0100
0000
0000
0000
,
0001
0000
0001
0000
,
0001
0000
0000
0000
,
1000
0000
1000
0000
,
1000
0000
0000
0000
,
0010
0000
0000
0000
,
0110
0000
0000
0000
,
0100
0000
0001
0000
,
1000
0000
0000
0000
,
0100
0000
1000
0000
,
0010
0000
0000
0000
,
0100
0000
0001
0000
,
0010
0000
0000
0000
,
0100
0000
1000
0000
,
0001
0000
0000
0000
,
0100
0000
0010
0000
,
0100
0000
0010
0000
,
1000
0000
0100
0000
,
1000
0000
0000
0000
,
0001
0000
0010
0000
,
0001
0000
0010
0000
,
0100
0000
0000
0000
,
0000
0000
0000
0000
,
1000
0000
1000
0000
,
0100
0100
0100
0000
,
1000
0000
1000
0000
,
0001
0000
0000
0000
,
0010
0000
0010
0000
,
0100
0100
0100
0000
,
0010
0000
0010
0000
,
0001
0000
0000
0000
,
1001
0000
0000
0000
,
0100
0100
0000
0000
,
0010
0000
0000
0000
,
1000
1000
0000
0000
,
0001
0000
0000
0000
,
0100
0100
0000
0000
,
0010
0000
0010
0000
,
0010
0000
0000
0000
,
1000
0000
0100
0000
;

//---------------dance-single - ----------------
#NOTES:
     dance-single:
     :
     Medium:
     6:
     0.308,0.362,0.093,0.387,0.000:
0000
0000
0000
0000
,
0000
0000
0000
0000
,
0000
0000
0000
0000
,
0000
0000
0000
0000
,
1000
0010
0100
0001
,
0010
0100
1000
0010
,
0200
0000
0000
0301
0000
0000
0010
0000
,
0200
0000
0000
1300
0000
0000
0000
0000
,
0010
0000
1000
0000
0001
0000
0000
0100
,
0100
0010
1000
0001
,
0010
0000
0100
0000
1000
0000
0000
0010
,
0010
1000
0001
0100
,
0010
0000
0100
0000
0001
0000
0000
1000
,
1000
0100
1000
0010
,
0200
0000
0000
0320
0000
0000
2030
0000
,
0000
3002
0000
0000
0100
0000
0103
0000
,
0010
0100
0000
0010
0100
0000
0000
0000
,
0001
0000
0100
0001
0000
0000
0000
0000
,
1000
0100
0000
1000
0100
0000
0100
0000
,
2000
0000
0000
3010
0000
0000
0000
0000
,
0100
0010
0000
0100
0010
0000
0000
0000
,
0100
0000
0001
0100
0000
0000
0000
0000
,
0002
0000
0000
0203
0000
0000
0310
0000
,
2002
0000
3003
2200
0000
3300
0000
0000
,
0020
0000
0000
0230
0000
0000
1300
0000
,
0000
2200
0000
3300
2002
0000
3003
0000
,
0010
0000
0100
0000
0010
0100
0010
0000
,
2000
0000
0000
3010
0000
0000
0000
0000
,
0100
0000
0001
0000
0010
0100
1000
0000
,
0200
0000
0300
0000
,
1000
0000
0001
0000
1000
0001
0100
0000
,
0020
0000
0030
0000
,
0100
0000
0001
0000
0010
0100
1000
0000
,
0020
0000
0030
0000
,
2000
0000
0000
3010
0000
0000
0100
0000
,
0002
0000
0000
0013
0000
0000
0000
0000
,
0110
0000
1000
0000
0001
0000
0000
0100
,
0100
0000
0001
0000
0010
0100
1000
0000
,
0001
0000
1000
0000
0010
0000
0000
0100
,
0100
0000
0010
0000
1000
0001
0100
0000
,
0010
0000
1000
0000
0001
0000
0000
0010
,
0010
0000
0001
0000
0100
0010
0100
0000
,
0002
0000
0000
0203
0000
0000
0320
0000
,
0000
2030
0000
0000
0100
0100
3100
0000
,
1000
0100
0000
1000
0100
0000
0000
0000
,
0010
0000
0001
0100
0000
0000
0000
0000
,
0010
0100
0000
0001
0100
0000
0010
0000
,
1000
0000
0100
1000
0000
0000
0000
0000
,
0100
0010
0000
0100
0010
0000
0001
0000
,
0100
0000
0010
0100
0000
0000
0000
0000
,
0002
0000
0000
0203
0000
0000
0310
0000
,
2200
0000
3300
0022
0000
0033
0000
0000
,
0100
0010
0000
1000
0100
0000
0010
0000
,
0100
0000
1000
0001
0000
0000
0000
0000
,
1000
0010
0000
0100
0010
0000
1000
0000
,
0002
0000
0000
0103
0000
0000
0000
0000
,
0010
0100
0000
0001
1000
0000
0100
0000
,
0010
0000
0100
1000
0000
0000
0000
0000
,
0020
0000
0000
2030
0000
0000
3100
0000
,
0220
0000
0330
2002
0000
3003
0000
0000
,
0020
0000
0000
0032
0000
0003
0100
0000
,
0110
2002
3003
0000
;

//---------------dance-single - ----------------
#NOTES:
     dance-single:
     :
     Hard:
     10:
     0.430,0.415,0.345,0.185,0.000: // measure 1
0000
0000
0000
0000
,  // measure 2
0000
0000
0000
0000
,  // measure 3
0000
0000
0000
0000
,  // measure 4
0000
0000
0000
0000
,  // measure 5
1000
0000
0100
0000
0001
0010
1000
0000
,  // measure 6
0001
1000
0010
0100
,  // measure 7
0001
0000
0100
0000
1000
0010
0001
0000
,  // measure 8
0220
0000
0330
2002
0000
3003
0100
1000
,  // measure 9
0001
0000
0101
0000
1000
0000
0100
0010
,  // measure 10
0001
0000
0100
0000
0010
1000
0001
0000
,  // measure 11
1000
0000
1100
0000
0001
0000
0100
0010
,  // measure 12
1000
0000
0001
0000
1000
0100
0010
0000
,  // measure 13
0001
1000
0001
1000
0100
0100
2000
0000
,  // measure 14
3010
0000
1000
0000
0100
0010
0002
0000
,  // measure 15
0103
0000
0000
0001
0000
0000
1001
0000
,  // measure 16
0000
1100
0000
0000
0110
0100
0100
0000
,  // measure 17
0001
0010
1000
0010
0001
0000
1001
0000
,  // measure 18
0100
1000
0100
1000
0000
0000
0110
0000
,  // measure 19
0001
0100
0000
1000
0100
0000
1000
0000
,  // measure 20
0100
1000
0001
0100
0000
0000
0110
0000
,  // measure 21
1000
0100
0001
0100
1000
0000
1001
0000
,  // measure 22
0010
0100
0010
0100
0000
0000
1010
0000
,  // measure 23
0001
0100
0010
1000
0100
1000
0001
0000
,  // measure 24
0210
0000
0000
0302
0000
0000
0003
0000
,  // measure 25
1000
0000
0000
0001
0000
0000
0110
0000
,  // measure 26
0000
0101
0000
0000
1100
0100
0010
0000
,  // measure 27
1000
0000
1000
0000
0010
0100
0010
0000
,  // measure 28
2000
0000
0000
0002
0000
0000
3003
0000
,  // measure 29
0110
0000
0101
0000
1000
0100
0001
0000
,  // measure 30
2100
0000
0010
0000
3001
0000
0100
0010
,  // measure 31
1000
0000
1100
0000
0010
1000
0001
0000
,  // measure 32
0210
0000
0001
0000
0310
1000
0001
1000
,  // measure 33
0100
0000
0010
0000
0001
0100
1000
0000
,  // measure 34
0010
1000
0100
0000
1000
0100
0001
0000
,  // measure 35
0010
0001
0100
0010
0100
0001
1000
0000
,  // measure 36
0120
0000
0000
0032
0000
0100
0103
0000
,  // measure 37
0110
0000
1001
0000
0100
1000
0001
0000
,  // measure 38
1000
0001
0100
0010
1000
0001
1000
0000
,  // measure 39
1100
0000
0101
0000
0010
0001
0100
0000
,  // measure 40
0010
1000
0100
1000
0010
0100
0001
0000
,  // measure 41
1100
0000
0011
0000
1000
0001
0100
0000
,  // measure 42
0010
0100
0001
0100
0010
1000
0001
0100
,  // measure 43
0010
0000
0000
1000
0001
0000
0100
0000
,  // measure 44
1000
1010
0000
0000
1001
0001
0100
0000
,  // measure 45
1000
0100
0001
0100
1000
0000
1001
0000
,  // measure 46
0010
0001
0010
0001
0000
0000
0110
0000
,  // measure 47
1000
0010
0000
0001
0100
0000
0001
0000
,  // measure 48
0010
0001
1000
0010
0000
0000
0110
0000
,  // measure 49
0001
0010
1000
0010
0001
0000
1001
0000
,  // measure 50
0100
0010
0100
0010
0000
0000
0101
0000
,  // measure 51
1000
0010
0100
0001
0010
0001
1000
0000
,  // measure 52
0120
0000
0000
2030
0000
0100
3100
0000
,  // measure 53
0001
0100
0010
0100
0001
1000
0100
0000
,  // measure 54
1000
0100
0002
2000
0000
3003
0000
0000
,  // measure 55
0001
1000
0010
1000
0001
0100
0010
0000
,  // measure 56
0001
0100
2000
0020
0000
3030
0000
0000
,  // measure 57
1000
0100
1000
0100
0010
0001
0100
0000
,  // measure 58
0010
0100
0001
0100
0010
1000
0001
0000
,  // measure 59
1100
0000
0000
0110
0000
0000
1001
0000
,  // measure 60
0010
1000
0100
1000
0001
0100
0010
0000
,  // measure 61
0001
0000
0000
1000
0000
0000
0010
0000
,  // measure 62
0110
0000
2002
0000
0000
3003
0000
0000
;

//---------------dance-single - ----------------
#NOTES:
     dance-single:
     :
     Easy:
     3:
     0.204,0.232,0.042,0.202,0.000:
0000
0000
0000
0000
,
0000
0000
0000
0000
,
0000
0000
0000
0000
,
0000
0000
0000
0000
,
1000
0010
0100
0001
,
0200
0000
0300
0000
,
0010
0000
1000
0000
,
0001
0000
1000
0000
,
0100
0000
1000
0100
,
0100
0000
1000
0000
,
0010
0000
1000
0001
,
0001
0000
0010
0000
,
0001
0000
0100
0010
,
0010
0000
0100
0000
,
0002
0000
0000
0000
,
2003
0000
0000
0000
,
3100
0000
1000
0000
,
0010
0100
0010
0000
,
1000
0000
0010
0000
,
0100
0001
0100
0000
,
0001
0000
0010
0000
,
0100
1000
0100
0000
,
1000
0000
0010
0000
,
0100
0000
0010
0000
,
1000
0000
0001
0000
,
0100
0000
0010
0000
,
2000
3000
2000
3000
,
0002
0003
0002
0003
,
0100
0010
0100
0002
,
2000
0000
3003
0000
,
0100
1000
0010
0200
,
0020
0000
0330
0000
,
0100
0001
0010
0200
,
2000
0000
3300
0000
,
0020
0030
1000
0000
,
0200
0300
0010
0000
,
0001
1000
0100
1000
,
2000
0000
3000
0000
,
0100
1000
0010
0100
,
0200
0000
0300
0000
,
0010
1000
0001
0010
,
0020
0000
0030
0000
,
0001
0000
1000
0000
,
1001
0000
0110
0000
,
0100
0010
1000
0000
,
0100
0100
0100
0000
,
1000
0100
0010
0000
,
0001
0001
0001
0000
,
0100
0001
1000
0000
,
0100
0100
0100
0000
,
2000
3000
0100
0010
,
0002
0003
0100
0000
,
0110
0000
1000
0000
,
0100
1000
0001
0000
,
0110
0000
0001
0000
,
0010
0001
1000
0000
,
0100
1000
0010
0100
,
0100
0010
1000
0000
,
0200
0000
0010
0310
,
0002
0000
0103
0000
,
0020
0000
2030
3100
,
0100
1001
0000
0000
;
