#TITLE:NaHaNaHa VS Gattchoon Battle;
#SUBTITLE:;
#ARTIST:DJ Senda & Tiny-k;
#TITLETRANSLIT:;
#SUBTITLETRANSLIT:;
#ARTISTTRANSLIT:;
#CREDIT:;
#BANNER:Nahanaha VS Gatchoon Battle-bn.png;
#BACKGROUND:Nahanaha VS Gattchoon Battle-bg.png;
#LYRICSPATH:;
#CDTITLE:;
#MUSIC:Nahanaha VS Gattchoon Battle.mp3;
#OFFSET:-0.320;
#SAMPLESTART:54.520;
#SAMPLELENGTH:16.160;
#SELECTABLE:YES;
#BPMS:0.000=124.000,112.000=132.000,116.000=152.000,120.000=163.000;
#STOPS:;
#BGCHANGES:-0.400=Nahanaha VS Gattchoon Battle.avi=1.000=1=1=0,
99999=-nosongbg-=1.000=0=0=0 // don't automatically add -songbackground-
;

//---------------dance-single - ----------------
#NOTES:
     dance-single:
     :
     Beginner:
     2:
     0.155,0.222,0.075,0.000,0.000: // measure 1
0000
0000
0000
0000
,  // measure 2
0000
0000
0000
0000
,  // measure 3
0000
0000
0000
0000
,  // measure 4
0000
0000
0000
0000
,  // measure 5
0000
0000
0000
0000
,  // measure 6
1001
0000
0000
0000
,  // measure 7
0100
0000
0100
0000
,  // measure 8
1000
0000
0001
0000
,  // measure 9
1000
0000
0010
0000
,  // measure 10
0010
0000
0000
0000
,  // measure 11
0110
0000
0010
0000
,  // measure 12
1000
0000
0100
0100
,  // measure 13
0100
0000
1000
0000
,  // measure 14
0001
0000
0000
0000
,  // measure 15
1001
0000
0010
0000
,  // measure 16
1000
0000
0100
0100
,  // measure 17
0000
0000
1000
1000
,  // measure 18
0000
0000
0010
0000
,  // measure 19
0100
0000
0100
0000
,  // measure 20
0100
0100
0100
0100
,  // measure 21
0100
0000
0001
0000
,  // measure 22
1000
1000
1000
0000
,  // measure 23
0010
0000
1000
0000
,  // measure 24
0001
0001
0001
0000
,  // measure 25
0010
0000
0001
0000
,  // measure 26
1000
1000
1000
0000
,  // measure 27
0100
0000
1000
0000
,  // measure 28
0010
0000
1000
0000
,  // measure 29
0100
0000
0100
0000
,  // measure 30
1000
1000
1000
1000
,  // measure 31
1000
0000
0000
0010
,  // measure 32
0010
0000
0000
1000
,  // measure 33
1000
0000
0100
0000
,  // measure 34
0010
0000
0001
0000
,  // measure 35
0100
0000
0001
0001
,  // measure 36
0001
0000
0000
0000
,  // measure 37
1000
0000
0010
0000
,  // measure 38
1000
1000
1000
0000
,  // measure 39
0100
0000
0100
0000
,  // measure 40
0010
0000
0010
0000
,  // measure 41
0001
0000
1000
0000
,  // measure 42
0100
0100
0100
0000
,  // measure 43
1000
0000
0010
0000
,  // measure 44
1000
1000
1000
0000
,  // measure 45
0000
0000
0000
0000
,  // measure 46
0000
0000
0000
0000
,  // measure 47
1001
0000
0010
0000
,  // measure 48
1001
0000
0100
0000
,  // measure 49
1000
1000
1000
0000
,  // measure 50
0001
0001
0001
0000
,  // measure 51
0110
0000
1000
0000
,  // measure 52
0110
0000
0001
0000
,  // measure 53
0010
0010
0010
0000
,  // measure 54
0100
0100
0100
0000
,  // measure 55
0000
0000
0000
0000
,  // measure 56
0000
0000
0000
0000
,  // measure 57
0000
0000
0000
0000
,  // measure 58
0000
0000
0000
0000
,  // measure 59
0000
0000
0000
0000
,  // measure 60
0110
0000
0000
0000
;

//---------------dance-single - ----------------
#NOTES:
     dance-single:
     :
     Medium:
     8:
     0.343,0.445,0.085,0.283,0.000: // measure 1
0000
0000
0000
0000
,  // measure 2
0000
0000
0000
0000
,  // measure 3
0000
0000
0000
0000
,  // measure 4
0000
0000
0000
0000
,  // measure 5
0000
0000
0000
0000
,  // measure 6
1001
0000
0000
0000
,  // measure 7
0020
0130
0001
1000
,  // measure 8
0200
0000
1300
0000
0100
1000
0001
0000
,  // measure 9
0200
0301
1000
0010
,  // measure 10
2000
3100
0000
0000
,  // measure 11
1100
0101
2000
3001
,  // measure 12
0010
0001
0100
0000
0020
0000
0031
0000
,  // measure 13
2000
0000
3100
0000
1000
0010
0100
0000
,  // measure 14
0002
0100
1003
0000
,  // measure 15
1010
0000
1100
0000
1000
0100
0010
0000
,  // measure 16
0001
1000
0001
0000
0100
0100
0100
0000
,  // measure 17
0010
1000
0100
0000
1000
0100
0010
0000
,  // measure 18
0002
2003
3000
0000
,  // measure 19
0100
1000
0100
1000
0100
1000
0100
1000
,  // measure 20
0001
0100
0001
0100
0001
0100
0001
0000
,  // measure 21
0020
0030
0002
0003
,  // measure 22
2000
3200
0320
0032
,  // measure 23
0103
0100
0000
0000
0010
0010
0000
0000
,  // measure 24
1000
1000
0001
0001
1000
1000
0000
0000
,  // measure 25
0200
1300
0200
1300
,  // measure 26
0010
1000
0100
1000
0010
1000
0100
0000
,  // measure 27
0010
0000
0000
0000
0001
1000
0001
0000
,  // measure 28
0100
0010
1100
0101
,  // measure 29
2000
0000
3200
0000
,  // measure 30
0320
0032
0203
0320
,  // measure 31
1030
0100
0000
0100
0000
0100
0000
0000
,  // measure 32
1000
0001
0000
0001
0000
0001
0000
0000
,  // measure 33
0010
0000
0010
0100
0000
0100
1000
0000
,  // measure 34
1000
0010
0000
0010
0100
0000
0000
0000
,  // measure 35
0010
0000
1000
0000
0100
1000
0100
1000
,  // measure 36
0010
0000
1000
0000
0000
0000
0000
0010
,  // measure 37
0100
0000
0100
0001
0000
0001
1000
0000
,  // measure 38
1000
0100
0000
0100
1000
0000
0000
0000
,  // measure 39
0010
1000
0010
1000
,  // measure 40
0001
0100
0001
0100
,  // measure 41
0020
0000
1030
1000
0200
0000
0310
0010
,  // measure 42
0001
1000
0100
1000
,  // measure 43
0002
0000
0103
0100
0020
0000
1030
1000
,  // measure 44
0200
0320
0031
0000
,  // measure 45
0000
0000
0000
0000
,  // measure 46
0000
0000
0000
0000
,  // measure 47
1000
0100
1000
0000
0001
0100
0001
0000
,  // measure 48
1000
0100
1000
0100
0010
0001
0010
0000
,  // measure 49
0100
0100
0010
0010
,  // measure 50
0100
0010
0100
0000
1000
0001
1000
0000
,  // measure 51
0010
1000
0010
0000
0100
0001
0100
0000
,  // measure 52
0010
1000
0010
1000
0100
1000
0100
0000
,  // measure 53
0010
0000
1000
0000
0100
0010
0001
0000
,  // measure 54
1000
1001
0110
0000
,  // measure 55
0000
0000
0000
0000
,  // measure 56
0000
0000
0000
0000
,  // measure 57
0000
0000
0000
0000
,  // measure 58
0000
0000
0000
0000
,  // measure 59
0000
0000
0000
0000
0000
0000
0000
0100
,  // measure 60
0010
0000
0000
0000
;

//---------------dance-single - ----------------
#NOTES:
     dance-single:
     :
     Hard:
     12:
     0.483,0.584,0.254,0.104,0.264: // measure 1
0000
0000
0000
0000
,  // measure 2
0000
0000
0000
0000
,  // measure 3
0000
0000
0000
0000
,  // measure 4
0000
0000
0000
0000
,  // measure 5
0000
0000
0000
0000
,  // measure 6
1001
0000
0000
0000
,  // measure 7
0001
0000
0001
0000
0100
0010
0100
0001
,  // measure 8
1000
0000
0100
0000
1000
0100
0010
0000
,  // measure 9
1000
0000
1000
0000
0100
1000
0010
1000
,  // measure 10
0001
0000
0100
0010
0100
0000
0000
0000
0000
0000
0000
0000
0100
0001
0100
0001
,  // measure 11
0100
0000
0000
0100
0010
0000
1000
0000
0100
0000
1000
0000
0001
0000
0010
0000
,  // measure 12
0100
0000
0000
0100
0010
0000
0001
0000
1000
0000
0010
0000
0102
0000
0000
0000
,  // measure 13
0013
0000
0000
0010
0100
0000
1000
0000
0010
0000
1000
0000
0001
0000
0000
0000
,  // measure 14
0001
0000
0000
0000
0000
0000
1000
0100
0010
0000
0000
0000
1001
0000
0000
0000
,  // measure 15
0101
0000
0100
0000
0010
0000
0100
0000
0001
0000
1000
0000
0100
1000
0100
0000
,  // measure 16
1000
0000
0010
0000
0100
0000
0001
0000
1000
0000
0100
0000
0010
0100
0010
0000
,  // measure 17
0001
0000
0100
0000
0010
0000
1000
0000
0100
0000
1000
0001
1000
0000
0100
0001
,  // measure 18
0100
0000
0010
0000
0100
0000
0001
0000
1000
0100
1000
0000
0000
0000
0000
0000
,  // measure 19
0001
0100
1000
0100
0001
0100
1000
0100
,  // measure 20
0001
0010
1000
0010
0001
0010
1000
0010
,  // measure 21
0001
0000
0000
0000
0000
0000
0000
0000
0100
0010
0000
0000
0000
0000
0000
0000
,  // measure 22
1000
0000
0000
0000
0100
0010
0000
0000
0001
1000
0000
0100
0010
0000
0000
0000
,  // measure 23
0100
1000
0000
0000
0000
0000
0000
0000
0010
0100
0000
0000
0000
0000
0000
0000
,  // measure 24
0001
1000
0001
1000
0010
0100
0010
0100
0001
1000
0000
0000
0000
0000
0000
0000
,  // measure 25
0200
0000
0000
0000
1300
0100
0000
0000
0020
0000
0000
0000
0031
0010
0000
0000
,  // measure 26
0100
0000
1000
0000
0010
0000
0100
0001
0010
0000
0001
0000
0100
0010
0000
0000
,  // measure 27
1000
0100
0000
0000
0000
0000
0010
0000
0000
0100
0001
0000
1000
0000
0000
0000
,  // measure 28
0100
1000
0000
0000
0000
0000
0001
0100
0000
0010
1000
0000
0100
0000
0000
0000
,  // measure 29
0020
0100
0001
0130
,  // measure 30
0002
1000
0100
0013
,  // measure 31
0100
1010
0000
1001
0000
0101
0000
1000
,  // measure 32
0100
1100
0000
1010
0000
1001
0100
0000
,  // measure 33
0011
0000
0100
1001
0000
0100
1010
0000
,  // measure 34
0100
0101
0000
0001
1010
0200
0000
0000
,  // measure 35
0301
0010
0000
0010
0001
0000
1000
0100
0000
0100
1000
0000
0010
0000
0010
0000
,  // measure 36
0100
0001
0000
0001
0100
0000
0000
0000
0010
0000
1000
0000
0100
0000
0000
0000
,  // measure 37
1010
0000
0100
1001
0000
0010
1100
0000
,  // measure 38
0010
0101
1000
0100
0011
2002
0000
0003
,  // measure 39
3100
0100
0100
0100
,  // measure 40
1000
0100
0001
0100
1000
0100
0001
0100
,  // measure 41
2000
0000
3100
1000
0010
0100
0001
0010
,  // measure 42
1000
0010
0001
1000
0100
1000
1010
0000
,  // measure 43
0001
0100
0101
0000
0010
1000
0110
0000
,  // measure 44
0001
1000
1100
0000
0220
0000
0000
0000
,  // measure 45
0000
0000
0000
0000
,  // measure 46
0000
0000
0000
0330
,  // measure 47
0001
0000
1000
0100
1000
0000
0000
0000
0010
0000
0100
0010
0100
0000
0000
0000
,  // measure 48
0001
0000
1000
0000
0001
0000
1000
0000
0001
0000
0100
0010
0100
0000
0000
0000
,  // measure 49
0001
0000
1000
0000
0100
1000
0000
0000
0010
0000
0100
0000
0001
1000
0000
0000
,  // measure 50
1000
0100
1000
0000
0010
0100
0010
0000
0001
0100
0010
0000
1000
0100
1000
0000
,  // measure 51
0001
0000
0100
0000
0010
0000
0010
0000
1000
0001
1000
0100
0010
0000
0010
0000
,  // measure 52
0001
0000
1000
0000
0100
0000
1000
0000
0100
0010
0100
0000
1010
0000
0000
0000
,  // measure 53
0100
0000
0000
0100
0001
0000
1000
0000
0010
0100
0010
0100
0010
0000
0000
0000
,  // measure 54
1000
0100
1000
0000
0001
0010
0001
0000
0100
0010
0000
0000
0000
0000
0000
0000
,  // measure 55
0000
0000
0000
0000
,  // measure 56
0000
0000
0000
0000
,  // measure 57
0000
0000
0000
0000
,  // measure 58
0000
0000
0000
0000
,  // measure 59
0000
0000
0000
0000
0000
0000
0000
0100
,  // measure 60
0010
0000
0000
0000
;

//---------------dance-single - ----------------
#NOTES:
     dance-single:
     :
     Easy:
     5:
     0.210,0.278,0.123,0.019,0.000: // measure 1
0000
0000
0000
0000
,  // measure 2
0000
0000
0000
0000
,  // measure 3
0000
0000
0000
0000
,  // measure 4
0000
0000
0000
0000
,  // measure 5
0000
0000
0000
0000
,  // measure 6
1001
0000
0000
0000
,  // measure 7
0010
0000
1000
0100
,  // measure 8
0010
0000
0001
1000
,  // measure 9
0010
0000
0100
0001
,  // measure 10
1000
0000
0000
0000
,  // measure 11
0100
0100
1000
0010
,  // measure 12
1000
0001
0000
2002
,  // measure 13
3003
0100
0001
1000
,  // measure 14
0100
0100
0000
0000
,  // measure 15
1000
0100
0010
0000
,  // measure 16
0001
1000
0010
0000
,  // measure 17
0100
0001
1000
0100
,  // measure 18
1000
1000
0010
0000
,  // measure 19
1001
0000
0100
0000
,  // measure 20
1001
0000
0010
0000
,  // measure 21
0001
0000
0001
0000
,  // measure 22
0100
0010
0100
0010
,  // measure 23
1000
0000
0100
0000
,  // measure 24
1000
0100
1000
0000
,  // measure 25
0010
0010
0010
0010
,  // measure 26
1000
0100
0010
0001
,  // measure 27
0100
0000
0001
0000
,  // measure 28
1000
1000
0001
0001
,  // measure 29
0100
0000
0010
0000
,  // measure 30
0100
0100
0100
0100
,  // measure 31
0100
0000
0010
0000
,  // measure 32
1000
0000
0001
0000
,  // measure 33
1000
0100
1000
0100
,  // measure 34
0010
0001
0010
0000
,  // measure 35
0001
0000
1000
0000
,  // measure 36
0010
0000
0000
0000
,  // measure 37
0100
0001
0100
0001
,  // measure 38
1000
0100
1000
0000
,  // measure 39
1001
0000
0000
0000
,  // measure 40
0010
0000
0000
0000
,  // measure 41
0100
0010
1000
0100
,  // measure 42
1000
0001
0100
0001
,  // measure 43
1000
0100
0010
0001
,  // measure 44
1000
1001
1001
0000
,  // measure 45
0000
0000
0000
0000
,  // measure 46
0000
0000
0000
0000
,  // measure 47
0010
1000
0100
1000
,  // measure 48
0001
0100
0010
0110
,  // measure 49
1000
0010
1000
0001
,  // measure 50
0010
0100
1000
1100
,  // measure 51
0010
1000
0001
0100
,  // measure 52
0010
1000
0010
0101
,  // measure 53
0010
0001
1000
0100
,  // measure 54
0010
0110
1001
0000
,  // measure 55
0000
0000
0000
0000
,  // measure 56
0000
0000
0000
0000
,  // measure 57
0000
0000
0000
0000
,  // measure 58
0000
0000
0000
0000
,  // measure 59
0000
0000
0000
0000
,  // measure 60
0110
0000
0000
0000
;
