#TITLE:Moonlight;
#SUBTITLE:;
#ARTIST:she;
#TITLETRANSLIT:;
#SUBTITLETRANSLIT:;
#ARTISTTRANSLIT:;
#CREDIT:;
#BANNER:Moonlight-bn.png;
#BACKGROUND:Moonlight-bg.png;
#LYRICSPATH:;
#CDTITLE:;
#MUSIC:Moonlight.mp3;
#OFFSET:-0.540;
#SAMPLESTART:50.520;
#SAMPLELENGTH:16.160;
#SELECTABLE:YES;
#BPMS:0.000=120.010;
#STOPS:;
#BGCHANGES:;

//---------------dance-single - ----------------
#NOTES:
     dance-single:
     :
     Beginner:
     1:
     0.121,0.166,0.024,0.000,0.000: // measure 1
0000
0000
0000
0000
,  // measure 2
0000
0000
0000
0000
,  // measure 3
0000
0000
0000
0000
,  // measure 4
0000
0000
0000
0000
,  // measure 5
0000
0000
0000
0000
,  // measure 6
1000
0000
0000
0000
,  // measure 7
1000
0000
0000
0000
,  // measure 8
0100
0000
0000
0000
,  // measure 9
0100
0000
0000
0000
,  // measure 10
0010
0000
0001
0000
,  // measure 11
0100
0000
0100
0000
,  // measure 12
0010
0000
1000
0000
,  // measure 13
0100
0000
0100
0000
,  // measure 14
1000
0000
0010
0000
,  // measure 15
1000
0000
1000
0000
,  // measure 16
0100
0000
0010
0000
,  // measure 17
0001
0000
0001
0000
,  // measure 18
0100
0000
0000
0000
,  // measure 19
0000
0000
0000
0000
,  // measure 20
1001
0000
0100
0000
,  // measure 21
0100
0000
0010
0000
,  // measure 22
0010
0000
1000
0000
,  // measure 23
1000
0000
0001
0000
,  // measure 24
0001
0000
0010
0000
,  // measure 25
0010
0000
0001
0000
,  // measure 26
0001
0000
0100
0000
,  // measure 27
0100
0000
0010
0000
,  // measure 28
0010
0000
1000
0000
,  // measure 29
0100
0000
1000
0000
,  // measure 30
0100
0000
0010
0000
,  // measure 31
0001
0000
0100
0000
,  // measure 32
0001
0000
1000
0000
,  // measure 33
0010
0010
0010
0000
,  // measure 34
1001
0000
0000
0000
,  // measure 35
1000
0000
0000
0000
,  // measure 36
0100
0000
0000
0000
,  // measure 37
0010
0000
0000
0000
,  // measure 38
0110
0000
0001
0001
,  // measure 39
0000
0000
1000
1000
,  // measure 40
0000
0000
0100
0100
,  // measure 41
0000
0000
0100
0100
,  // measure 42
0000
0000
0010
0010
,  // measure 43
0000
0000
0001
0001
,  // measure 44
0000
0000
1000
1000
,  // measure 45
0000
0000
0100
0100
,  // measure 46
0000
0000
0010
0010
,  // measure 47
0000
0000
1000
1000
,  // measure 48
0000
0000
0001
0001
,  // measure 49
0000
0000
0100
0100
,  // measure 50
0100
0000
1000
0000
,  // measure 51
0001
0000
1000
0000
,  // measure 52
0100
0000
1000
0000
,  // measure 53
0010
0000
0100
0000
,  // measure 54
0001
0000
1000
0000
,  // measure 55
0001
0000
0001
0000
,  // measure 56
0100
0000
0100
0000
,  // measure 57
0010
0000
1000
0000
,  // measure 58
0100
0000
1000
0000
,  // measure 59
0001
0001
0001
0000
,  // measure 60
0100
0000
0010
0010
,  // measure 61
0010
0000
0000
0000
;

//---------------dance-single - ----------------
#NOTES:
     dance-single:
     :
     Medium:
     6:
     0.320,0.314,0.135,0.309,0.000:
0000
0000
0000
0000
,
0000
0000
0000
0000
,
0000
0000
0000
0000
,
0000
0000
0000
0000
,
0000
0000
0000
0000
,
0200
0310
0200
0310
,
0200
0000
0310
0000
1000
0001
0100
0000
,
2000
3100
2000
3100
,
2000
3100
0010
0110
,
1001
0100
1000
0010
,
0100
0000
0001
0000
1000
0100
0010
0000
,
0001
1000
0010
1000
,
0100
0000
0010
0000
0001
0010
0100
0000
,
1001
0100
0010
1000
,
0001
0000
1000
0000
0100
0010
0100
0000
,
1000
0001
0100
0010
,
1000
0100
1000
0100
2000
0000
3002
0000
,
0003
0100
0010
0000
,
0000
0000
0100
0000
0001
1000
0001
0000
,
1100
0010
0001
1000
,
0100
1000
0010
0000
0100
0100
0100
0000
,
0010
1000
0001
0010
,
0001
0000
1000
0100
0010
0100
1000
0000
,
0010
1000
0001
0100
,
0010
0010
0110
1001
,
0100
1000
0001
0000
0020
0000
0130
0000
,
0200
1300
2000
3001
,
0010
0001
0100
0020
,
0130
0000
0200
0000
0301
1000
0001
0000
,
0010
0100
1000
0000
0200
0000
0310
0000
,
0200
1300
0002
0103
,
0010
1001
0110
0010
,
0001
0010
0001
0010
0100
1000
0100
1000
,
0000
0010
0000
1000
,
0000
0001
0000
1000
,
0100
0110
1000
1100
,
0101
1001
1100
0000
,
0002
0000
0000
0000
1000
1003
0000
0000
,
0200
0000
0000
0000
0010
0310
0000
0000
,
2000
0000
0000
0000
0100
3100
0000
0000
,
0001
1000
0002
0000
2003
0000
3000
0000
,
0020
0000
0000
0000
0100
0130
0000
0000
,
0002
0000
0000
0000
1000
1003
0000
0000
,
2000
0000
0000
0000
0010
3010
0000
0000
,
0200
0320
2030
3000
,
1100
0010
0002
0103
,
0010
1000
0200
0310
,
1000
0001
2000
3100
,
0010
0001
2000
0000
3020
0000
0030
0000
,
0101
0010
0200
0301
,
0010
0001
2000
3100
,
1000
0001
0200
0310
,
1000
0100
2000
0000
3002
0000
0003
0000
,
0010
0000
0010
0000
0010
1000
0100
0000
,
0010
0000
0010
0000
0010
1000
0100
0000
,
0001
0000
0001
0000
0001
1000
0100
0000
,
0001
0000
0001
0000
0001
1000
0100
0000
,
0110
0000
1000
0001
,
0100
0000
0000
0000
0010
1000
0010
0100
,
0001
0000
0010
0001
,
2002
0000
0000
0000
0000
0000
0000
3003
;

//---------------dance-single - ----------------
#NOTES:
     dance-single:
     :
     Hard:
     10:
     0.403,0.410,0.269,0.190,0.024:
0000
0000
0000
0000
,
0000
0000
0000
0000
,
0000
0000
0000
0000
,
0000
0000
0000
0000
,
0000
0000
0000
0000
,
0100
1010
0100
0011
,
1000
0000
0001
1000
0001
1000
0200
0000
,
0310
1100
0010
0101
,
1000
0000
0100
0000
0010
0000
0000
0000
0101
0000
0000
1000
0000
0000
0001
0000
,
0100
0010
1000
0100
1000
0000
0010
0000
,
1000
0100
1000
0001
0010
0001
0001
0000
,
0100
0001
0010
0100
0010
0000
0001
0000
,
1000
0010
0100
0001
1000
0001
0001
0000
,
1010
1000
0100
0010
0001
0000
1000
0000
,
0001
0100
0010
0100
0001
0010
0010
0000
,
0001
1000
0100
0010
0001
0000
1000
0000
,
0010
0100
0010
0100
0010
0100
0002
0000
,
0003
0110
1001
0000
,
0000
0010
0000
0001
0100
0001
1000
0000
,
0110
0000
1000
0100
0010
0001
0000
0100
,
0000
0001
0100
0010
1000
0100
0010
0000
,
0110
0011
2001
3100
,
1000
0010
0000
0010
1000
0100
1000
0010
,
0100
0000
0001
0010
0100
0010
0001
1000
,
0000
0010
0100
0010
0100
0010
0100
0000
,
0102
1000
0013
1100
,
0010
0000
1001
0000
0100
0001
0101
0000
,
0010
1000
0100
1000
0001
0010
1000
0010
,
0100
1000
0010
0100
0001
0001
0001
0000
,
2010
0001
3100
0011
,
0100
0000
1001
0000
0010
1000
1010
0000
,
0100
0001
0010
0001
1000
0100
0001
0100
,
0010
0001
0010
0001
0010
0001
0010
0000
,
0002
0103
0200
1300
,
2000
3010
0020
0031
,
0002
0103
0110
1001
,
0000
2000
0000
0000
0000
0000
0000
0000
0000
0000
0000
0000
0000
0000
0000
0000
0000
0000
0000
0000
0000
0000
0000
0000
0000
0000
0000
0000
0000
0000
0000
0000
0000
0000
0000
0000
0000
0000
0000
0000
0000
0000
0000
0000
0000
0000
0000
0000
3010
0000
0000
0000
0000
0000
0000
0000
0000
0000
0000
0000
0000
0000
0000
0000
0000
0000
0000
0000
0000
0000
0000
0000
0000
0000
0000
0000
0000
0000
0000
0000
0000
0000
0000
0000
0000
0000
0000
0000
0000
0000
0000
0000
0000
0000
0000
0000
0110
0000
0000
0000
0000
0000
0000
0000
0000
0000
0000
0000
0000
0000
0000
0000
0000
0000
0000
0000
0000
0000
0000
0000
0000
0000
0000
0000
0000
0000
0000
0000
0000
0000
0000
0000
1000
0000
0000
0000
0000
0000
0000
0000
0000
0000
0000
0000
0000
0000
0000
0000
0000
0000
0000
0000
0000
0000
0000
0000
0000
0000
0000
0000
0000
0000
0000
0000
0000
0000
0000
0000
0010
0000
0000
0000
0000
0000
0000
0000
0000
0000
0000
0000
0000
0000
0000
0000
0000
0000
0000
0000
0000
0000
0000
0000
,
0200
0000
0010
0000
0301
1000
0001
0000
,
0020
0000
0001
0000
0130
1000
0100
0000
,
2000
0000
0010
0000
3001
0100
0001
0000
,
0010
0100
0110
0000
1001
1000
0100
0000
,
0021
0000
0100
0000
1000
1000
1030
0000
,
0210
0000
1000
0000
0010
0010
0310
0000
,
2100
0000
0010
0000
0001
0001
3001
0000
,
0100
0001
0101
0000
1010
1000
0001
0000
,
1100
0000
0000
0000
0010
0000
0000
0000
0100
0000
0001
1000
0000
0000
0010
0000
,
0010
0000
0000
0000
0100
0000
0000
0000
0001
0000
0010
0001
0000
0000
1000
0000
,
1000
0000
0000
0000
0100
0000
0000
0000
1000
0000
0010
1000
0000
0000
0100
0000
,
0100
0010
0010
0000
0001
1000
0001
0000
,
1100
0000
0010
0001
0100
0001
0100
0000
,
0010
0000
0100
0010
1000
0100
1000
0001
,
0100
0000
1000
0100
0010
0001
1000
0000
,
0001
0000
0010
1000
0010
0001
1000
0000
,
0210
1000
0000
0010
,
0000
0001
0000
0010
,
0320
0001
0000
1000
,
0000
1000
0000
0130
,
2002
0000
3003
0000
1000
0000
0100
0010
,
0001
1000
0000
0000
0001
0100
0001
1000
,
1000
0000
0200
0000
0310
0001
0100
2000
,
0002
0000
0000
0000
0000
0000
0000
3003
;

//---------------dance-single - ----------------
#NOTES:
     dance-single:
     :
     Easy:
     3:
     0.188,0.241,0.063,0.095,0.000:
0000
0000
0000
0000
,
0000
0000
0000
0000
,
0000
0000
0000
0000
,
0000
0000
0000
0000
,
0000
0000
0000
0000
,
2000
3000
2000
3000
,
0002
0003
0002
0003
,
0020
0030
0020
0030
,
0200
0300
1001
1001
,
0100
0000
1000
0100
,
0010
0000
0001
1000
,
0010
0000
0100
0010
,
1000
0000
0001
0001
,
1000
0000
0100
1000
,
0010
0000
1000
0001
,
0100
0000
0010
0100
,
0001
0001
0001
0001
,
0000
0000
0000
0000
,
0000
0000
0000
0000
,
1001
0100
1000
0000
,
0100
1000
0010
0000
,
1000
0001
0100
0000
,
0010
0100
0001
0000
,
0010
0010
0100
0000
,
1000
1000
0001
0000
,
0100
0001
1000
0100
,
1000
1000
1000
0000
,
0100
1000
0010
0100
,
0001
0001
0001
0000
,
0010
0001
1000
0010
,
0100
0100
0100
0000
,
0010
1000
0100
1000
,
0010
0010
0010
0000
,
1001
0000
0100
0000
,
1000
0000
0010
0000
,
0100
0000
0001
0000
,
1001
1001
0100
0100
,
0110
0000
1000
0000
,
0100
0000
2000
0000
,
3100
0000
1000
0000
,
0010
0000
0200
0000
,
0301
0000
1000
0000
,
0100
0000
0002
0000
,
0103
0000
0010
0000
,
1000
0000
0200
0000
,
0310
0001
0000
1000
,
0000
0100
1000
0010
,
0000
1000
0000
0010
,
0000
1000
0001
0100
,
0000
0001
0000
1000
,
0000
0100
1000
0010
,
0000
1000
0000
0001
,
0000
0010
0010
0010
,
0000
0001
1000
0001
,
1000
0001
1000
0001
,
0000
0100
0100
0000
,
0000
0010
0010
0000
,
1100
0000
0100
0000
,
0100
0000
1000
0000
,
0001
0000
0100
0010
,
0200
0000
0000
0300
;
