#TITLE:MISERY;
#SUBTITLE:;
#ARTIST:MAROON 5;
#TITLETRANSLIT:;
#SUBTITLETRANSLIT:;
#ARTISTTRANSLIT:;
#CREDIT:;
#BANNER:Misery-bn.png;
#BACKGROUND:Misery-bg.png;
#LYRICSPATH:;
#CDTITLE:;
#MUSIC:Misery.mp3;
#OFFSET:-0.960;
#SAMPLESTART:84.840;
#SAMPLELENGTH:16.160;
#SELECTABLE:YES;
#BPMS:0.000=103.010;
#STOPS:;
#BGCHANGES:-1.600=Misery.avi=1.000=1=1=0,
99999=-nosongbg-=1.000=0=0=0 // don't automatically add -songbackground-
;

//---------------dance-single - ----------------
#NOTES:
     dance-single:
     :
     Beginner:
     1:
     0.102,0.141,0.054,0.031,0.000:
0000
0000
0000
0000
,
0000
0000
0000
0000
,
0010
0000
0000
0000
,
0010
0000
0000
0000
,
1000
0000
0100
0000
,
1000
0000
0000
0000
,
0010
0000
1000
0000
,
0001
0000
0000
0000
,
0010
0000
0001
0000
,
1000
0000
0000
0000
,
0010
0000
1000
0000
,
0100
0000
0000
0000
,
0020
0000
0030
0000
,
0200
0000
0300
0000
,
0000
1000
0000
1000
,
0000
0001
0000
0000
,
0000
0010
0000
0010
,
0000
0100
0000
0000
,
0000
0010
0000
0010
,
0000
0001
0000
0000
,
0000
0100
0000
0100
,
0000
0010
0000
0000
,
0000
1001
0000
0100
,
0000
0100
0100
0000
,
0000
1001
0000
0010
,
0000
0010
0010
0000
,
1000
0000
0000
0000
,
0100
0000
0000
1000
,
1000
0000
0000
0010
,
0010
0000
0000
0100
,
0100
0000
0000
0001
,
0001
0000
0000
0010
,
0010
0000
0000
0100
,
0100
0000
0000
0000
,
2000
0000
3000
0000
,
0002
0000
0003
0000
,
0000
0010
0000
0010
,
0000
0010
0000
0000
,
0000
1000
0000
0100
,
0000
0100
0000
0000
,
0000
1000
0000
1000
,
0000
0001
0000
0000
,
0000
0010
0000
0010
,
0000
0001
0000
0000
,
0000
1001
0000
0100
,
0000
0100
0100
0000
,
0000
1001
0000
0010
,
0000
0010
0010
0000
,
0000
1001
0000
1000
,
0000
1000
1000
0000
,
0000
1001
0000
0001
,
0000
0001
0001
0000
,
0110
0000
0000
0000
;

//---------------dance-single - ----------------
#NOTES:
     dance-single:
     :
     Medium:
     5:
     0.232,0.242,0.178,0.062,0.008:
0000
0000
0000
0000
,
0000
0000
0000
0000
,
0100
0000
0000
0100
0000
0000
0000
0000
0000
0000
0000
0000
0000
0000
0000
0000
,
0001
0000
0000
1000
0000
0000
0001
0000
0000
0000
0000
0000
0000
0000
0000
0000
,
1000
0100
1000
0010
,
0100
0000
0001
0000
1000
0100
1000
0000
,
0010
1000
0001
0100
,
0100
0000
0001
0000
0010
0001
0010
0000
,
0100
1000
0001
1000
,
1000
0000
0010
0000
1000
0100
1000
0000
,
0001
0100
0001
0001
,
0010
0000
0100
0000
0010
0001
0010
0000
,
0002
0100
2000
3003
,
0020
1000
0200
0330
,
0000
1001
0110
1001
,
0010
0000
1000
0100
1000
0000
0000
0000
,
1001
0100
1001
0100
,
1000
0010
1000
0000
,
0000
1001
0110
1001
,
0100
0001
0010
0000
,
1001
0010
1001
0100
,
1001
0010
1000
0000
,
0000
0100
0000
0000
0010
1000
0010
0000
,
0000
0000
1000
0100
1000
0000
0000
0000
,
0000
0001
0000
0000
0010
0001
0010
0000
,
0000
0000
0001
0100
0001
0000
0000
0000
,
1100
0000
0000
0000
,
0010
0000
0001
0000
0100
0010
1000
0000
,
0100
0000
1000
0100
,
0010
0000
0010
0000
0001
1000
0010
0000
,
0000
0100
0001
1000
,
0001
0000
0010
0000
0010
0100
1000
0000
,
0000
0001
1000
0100
,
0100
0000
1000
0000
0010
1000
0001
0000
,
0200
0010
0002
0303
,
0002
0100
2000
3003
,
0000
0110
1001
0110
,
1000
0001
0100
0000
,
0001
0110
1000
0110
,
1000
0100
1000
0000
,
0000
0110
1001
0110
,
0001
0100
0010
0000
,
1000
0110
0001
0110
,
0100
0001
1000
0000
,
0000
0010
0000
0000
0001
0100
0001
0000
,
0000
0000
1000
0010
1000
0000
0000
0000
,
0000
0100
0000
0000
1000
0100
1000
0000
,
0000
0000
0001
1000
0001
0000
0000
0000
,
0000
0010
0000
0000
0001
0100
0001
0000
,
0000
0000
1000
0100
1000
0000
0000
0000
,
0000
0010
0000
0000
1000
0100
1000
0000
,
0000
0000
0001
1000
0001
0000
0000
0000
,
0110
0000
0000
0000
;

//---------------dance-single - ----------------
#NOTES:
     dance-single:
     :
     Hard:
     9:
     0.366,0.342,0.077,0.201,0.081: // measure 1
0000
0000
0000
0000
,  // measure 2
0000
0000
0000
0000
,  // measure 3
0100
0001
0010
0001
,  // measure 4
1000
0000
0000
0100
0000
0000
0010
0000
0000
0000
0000
0000
1100
0000
0000
0000
,  // measure 5
0001
0010
0100
0000
1000
0001
0100
0000
,  // measure 6
0020
1000
0130
0000
,  // measure 7
0001
1000
0100
0000
1000
0100
0010
0000
,  // measure 8
0200
1000
0310
0000
,  // measure 9
0001
0010
0100
0000
1000
0001
0100
0000
,  // measure 10
0010
0100
0010
0000
1000
0010
0100
0000
,  // measure 11
0001
1000
0100
0000
1000
0100
0010
0000
,  // measure 12
0001
0010
1000
0000
0010
0001
0100
0000
,  // measure 13
0020
0000
0000
1000
0000
0000
0230
0000
0000
0000
0000
0000
0310
0000
1000
0000
,  // measure 14
0002
0000
0000
0010
0000
0000
2003
0000
0000
0000
0000
0000
3100
0000
0000
0000
,  // measure 15
0010
0001
0100
1000
0100
0010
1000
0000
,  // measure 16
0002
0000
0000
0000
0010
0003
0020
0000
0000
0000
0000
0000
0130
0000
0010
0000
,  // measure 17
0001
1000
0100
1000
0001
0010
0001
0010
,  // measure 18
0100
0000
0000
1000
0000
0000
0020
0000
0000
0000
0000
0000
0130
0000
0000
0000
,  // measure 19
0010
1000
0100
1000
0001
0010
0100
0000
,  // measure 20
2000
0000
3001
0002
0000
0000
0103
0000
,  // measure 21
0010
1000
0010
1000
0001
0100
0001
0100
,  // measure 22
0010
0000
0000
1000
0000
0000
0200
0000
0000
0000
0000
0000
0310
0000
0000
0000
,  // measure 23
0001
0000
1001
0000
0000
0000
0100
0010
0100
0000
0010
0000
0010
0000
0000
0000
,  // measure 24
0000
0000
1000
0100
1000
0000
0100
0000
0100
0000
0000
0000
0000
0000
0000
0000
,  // measure 25
1000
0000
1010
0000
0000
0000
0001
0100
0001
0000
0010
0000
0010
0000
0000
0000
,  // measure 26
0000
0000
0100
0010
0100
0000
0010
0000
0001
0000
0000
0000
1000
0000
0100
0000
,  // measure 27
1001
0000
0000
1100
,  // measure 28
0010
0001
1000
0010
2000
0001
3001
0000
,  // measure 29
0010
0001
0100
1000
0100
0010
1000
0100
,  // measure 30
0010
0001
1000
0010
0200
0010
0310
0000
,  // measure 31
0001
0100
0010
1000
0001
0010
1000
0010
,  // measure 32
0100
1000
0010
1000
0002
0100
0103
0000
,  // measure 33
0001
0100
0010
1000
0100
0010
0001
1000
,  // measure 34
0010
0100
0001
1000
0020
0100
0130
0000
,  // measure 35
2000
0000
0000
0100
0000
0000
3020
0000
0000
0000
0100
0000
0130
0000
0000
0000
,  // measure 36
2000
0000
0000
0001
0000
0000
3020
0000
0000
0000
0001
0000
0031
0000
0000
0000
,  // measure 37
1000
0010
0100
0001
0010
0100
1000
0000
,  // measure 38
0020
0000
1030
2000
0000
0000
3100
1000
,  // measure 39
0001
0100
0001
0100
0010
1000
0010
1000
,  // measure 40
0001
0000
0000
0010
0000
0000
0200
0000
0000
0000
1000
0000
1300
0000
0000
0000
,  // measure 41
0100
1000
0010
0100
0001
0010
0100
0000
,  // measure 42
0020
0000
0031
0002
0000
0000
0103
0010
,  // measure 43
1000
0100
1000
0100
0010
0001
0010
0001
,  // measure 44
0100
0000
0000
0010
0000
0000
2000
0000
0000
0000
0001
0000
3001
0000
0000
0000
,  // measure 45
0010
0000
0110
0000
0000
0000
0001
0010
0100
0000
1000
0000
1000
0000
0000
0000
,  // measure 46
0000
0000
1000
0010
0100
0000
0001
0000
0001
0000
0000
0000
0000
0000
0000
0000
,  // measure 47
0100
0000
0110
0000
0000
0000
0001
0100
0010
0000
1000
0000
1000
0000
0000
0000
,  // measure 48
0000
0000
0100
0010
0001
0000
1000
0000
1000
0000
0000
0000
0000
0000
0000
0000
,  // measure 49
0100
0000
1100
0000
0000
0000
0010
1000
0100
0000
0010
0000
0010
0000
0000
0000
,  // measure 50
0000
0000
0001
1000
0100
0000
1000
0000
1000
0000
0000
0000
0000
0000
0000
0000
,  // measure 51
0001
0000
0101
0000
0000
0000
0010
0001
0100
0000
0010
0000
0010
0000
0000
0000
,  // measure 52
0000
0000
1000
0100
0001
0000
0100
0000
0010
0000
0000
0000
0000
0000
0000
0000
,  // measure 53
0101
0000
0000
0000
;

//---------------dance-single - ----------------
#NOTES:
     dance-single:
     :
     Easy:
     3:
     0.159,0.161,0.015,0.139,0.000:
0000
0000
0000
0000
,
0000
0000
0000
0000
,
0100
0100
0000
0000
,
0001
1000
0000
0000
,
0010
0000
1000
0000
,
0200
0310
0000
0000
,
0001
0000
1000
0000
,
0002
0013
0000
0000
,
0100
0000
0010
0000
,
0200
1300
0000
0000
,
0010
0000
1000
0000
,
0002
0013
0000
0000
,
2000
0000
3100
1000
,
0002
0000
1003
0000
,
0000
0010
0010
0010
,
1000
0100
1000
0000
,
0001
0000
1000
0000
,
0010
0100
0010
0000
,
0000
0100
0100
0100
,
0100
0001
1000
0000
,
0010
0000
1000
0000
,
0100
0010
0100
0000
,
2000
0000
0100
3100
,
0000
0001
1000
0000
,
0002
0000
0100
0103
,
0000
1000
0001
0000
,
0110
0000
0000
0000
,
1000
0000
0200
0310
,
0000
0001
0000
1000
,
0000
0010
0200
0310
,
0000
1000
0000
0001
,
0000
0010
0002
0013
,
0000
0100
0000
1000
,
0000
0020
1030
0010
,
0200
0000
0310
1000
,
0002
0000
1003
0000
,
0000
0010
0010
0010
,
0010
0001
1000
0000
,
0100
0000
1000
0000
,
0010
1000
0010
0000
,
0000
0001
0001
0001
,
0001
1000
0010
0000
,
1000
0000
0100
0000
,
0010
0001
0010
0000
,
0002
0000
0100
0103
,
0000
1000
0100
0000
,
2000
0000
0010
3010
,
0000
0100
0010
0000
,
0200
0000
0001
0310
,
0000
0100
0001
0000
,
0020
0000
0100
0031
,
0000
1000
0001
0000
,
0110
0000
0000
0000
;
