#TITLE:MADNESS;
#SUBTITLE:;
#ARTIST:MUSE;
#TITLETRANSLIT:;
#SUBTITLETRANSLIT:;
#ARTISTTRANSLIT:;
#CREDIT:;
#BANNER:MADNESS-bn.png;
#BACKGROUND:MADNESS-bg.png;
#LYRICSPATH:;
#CDTITLE:;
#MUSIC:MADNESS.mp3;
#OFFSET:-0.050;
#SAMPLESTART:74.620;
#SAMPLELENGTH:16.140;
#SELECTABLE:YES;
#DISPLAYBPM:90.000;
#BPMS:0.000=90.030,63.000=95.510,64.000=90.030,111.000=92.790,112.000=90.030,127.000=88.410,128.000=90.030,208.000=87.970,208.500=90.030,211.625=84.790,212.000=89.030,213.000=85.650;
#STOPS:;
#BGCHANGES:0.000=MADNESS.avi=1.000=1=0=0,
99999=-nosongbg-=1.000=0=0=0 // don't automatically add -songbackground-
;

//---------------dance-single - ----------------
#NOTES:
     dance-single:
     :
     Beginner:
     1:
     0.084,0.126,0.055,0.000,0.000:
0000
0000
0000
0000
,
0000
0000
0000
0000
,
1000
0000
0000
0000
,
0010
0000
0000
0000
,
0100
0000
0000
0000
,
0000
0000
0001
0001
,
0001
0000
0000
0000
,
0010
0000
0010
0000
,
0100
0000
0000
0000
,
0100
0000
1000
1000
,
1000
0000
0000
0000
,
0001
0000
0000
0000
,
0010
0000
0000
0000
,
0000
0000
0001
0001
,
0001
0000
0000
0000
,
0100
0000
0010
0010
,
0010
0000
0000
0000
,
0010
0000
1000
1000
,
1000
0000
0000
0000
,
0100
0000
0000
0000
,
0010
0000
0000
0000
,
0001
0000
0001
0000
,
0010
0000
0000
0000
,
0100
0000
1000
0000
,
1001
0000
0000
0000
,
0110
0000
1000
1000
,
1000
0000
0000
0000
,
0100
0000
0000
0000
,
0010
0000
0000
0001
,
0001
0000
0000
0100
,
0100
0000
0000
0000
,
0001
0000
1000
0000
,
0100
0000
0000
1000
,
1000
0000
0000
0010
,
0010
0000
0000
0000
,
0100
0000
0001
0000
,
1001
0000
0000
0000
,
1001
0000
0000
0000
,
0110
0000
0000
0000
,
1000
0000
0001
0000
,
0110
0000
0000
0000
,
0110
0000
0000
0000
,
1001
0000
0000
0000
,
0100
0000
0100
0000
,
1000
0000
0000
0010
,
0010
0000
0000
1000
,
1000
0000
0000
0000
,
0100
0000
0100
0000
,
0010
0000
0000
0001
,
0001
0000
0000
1000
,
1000
0000
0000
0000
,
0001
0000
0000
0000
,
0100
0000
0000
0000
;

//---------------dance-single - ----------------
#NOTES:
     dance-single:
     :
     Medium:
     5:
     0.244,0.238,0.111,0.346,0.000:
0000
0000
0000
0000
,
0000
0000
0000
0000
,
0100
0000
0001
0000
0000
0100
0001
0000
,
1000
0000
0100
0000
0000
1000
0100
0000
,
2002
0000
3003
0000
,
0010
1000
0100
0000
1000
0001
0100
0000
,
0002
0103
2000
3100
,
0000
0000
0000
0000
1000
0001
1000
0000
,
0220
0000
0000
0330
,
2002
3003
0100
0010
,
0001
0000
0100
0000
0000
0001
0100
0000
,
0010
0000
0100
0000
0000
0010
0100
0000
,
2002
0000
3003
0000
,
0100
0000
1000
0100
0010
0000
0001
0000
,
1000
0010
0100
0100
,
0010
0000
0000
0000
0100
0001
1000
0000
,
2002
0000
0000
3003
,
0220
0000
0330
0000
0010
1000
0100
0010
,
0001
0000
0100
0000
0000
0001
0100
0000
,
0010
0000
0100
0000
0000
0010
0100
0000
,
2000
0100
0100
3100
,
0010
0000
1000
0000
0100
0010
0001
0000
,
0020
0001
0001
0031
,
0100
0000
0001
0000
1000
0100
0010
0000
,
2002
0000
0000
0000
0000
3003
0110
0000
,
1001
0000
0000
0000
0100
0010
0100
0010
,
0100
0000
1000
0000
0000
0100
1000
0000
,
0001
0000
0100
0000
0000
0001
0100
0000
,
0020
0000
0130
0002
,
2003
0000
3100
2000
,
3020
0000
0130
0001
,
1000
0100
1000
0000
0001
0100
0001
0000
,
0020
0000
0130
0020
,
0032
0000
0103
0020
,
2030
0000
3200
0000
,
1300
0000
0010
0000
0100
0001
1000
0000
,
2020
0000
3030
0100
,
2002
0000
3003
0100
,
0022
0000
0033
1000
,
0010
0000
0100
0000
0001
0010
0100
0000
,
2002
0000
3003
0010
,
0202
0000
0303
1000
,
2200
0000
3300
0001
,
0100
0001
0100
0000
1000
0100
1000
0000
,
0002
0000
1003
0000
0100
1000
0010
0010
,
0020
0000
0030
0000
1000
0100
0010
0000
,
0002
0103
0010
0100
,
0001
0010
0100
1000
,
2000
0000
0000
0000
3100
1000
0010
0000
,
0200
0000
0000
0000
0310
0100
0001
0000
,
0020
0130
0010
0001
,
0200
1000
0000
0301
,
2002
0000
0000
3003
,
0100
0000
0000
0000
;

//---------------dance-single - ----------------
#NOTES:
     dance-single:
     :
     Hard:
     7:
     0.321,0.313,0.187,0.277,0.000: // measure 1
0000
0000
0000
0000
,  // measure 2
0000
0000
0000
0000
,  // measure 3
0010
0000
0100
0000
0000
0001
0010
0000
,  // measure 4
0001
0000
1000
0000
0000
0100
1000
0000
,  // measure 5
0002
0000
0103
0000
0000
0001
0100
0000
,  // measure 6
0010
1000
0100
1000
0001
0010
0200
0000
,  // measure 7
0320
0000
0000
0100
0230
0000
1300
0000
,  // measure 8
0010
0000
0000
1000
0100
0010
0001
0000
,  // measure 9
2002
0000
0000
3003
,  // measure 10
0220
0000
0330
0000
0001
0100
1000
0100
,  // measure 11
0001
0000
1000
0000
0000
0100
0010
0000
,  // measure 12
0100
0000
1000
0000
0000
0010
1000
0000
,  // measure 13
0002
0000
0103
0000
0000
0001
0010
0000
,  // measure 14
0001
1000
0100
1000
0020
0000
0130
0000
,  // measure 15
0001
1000
0001
2000
0000
0200
0000
3300
,  // measure 16
0000
0000
1000
0010
1000
0010
0100
0000
,  // measure 17
2002
0000
0000
3003
,  // measure 18
0220
0000
0330
0000
0001
0100
0010
0100
,  // measure 19
0001
0000
1000
0000
0000
0100
1000
0000
,  // measure 20
0010
0000
0100
0000
0000
1000
0100
0000
,  // measure 21
0001
0100
1000
0100
0010
1000
0200
0000
,  // measure 22
0310
0001
1000
0001
0100
0010
1000
0000
,  // measure 23
0200
0000
1300
0001
1000
0001
0200
0000
,  // measure 24
0301
0000
1000
0100
0010
0001
1000
0000
,  // measure 25
0020
0100
0001
1000
,  // measure 26
0200
0000
0330
0000
0010
0100
0001
0100
,  // measure 27
0010
0000
1000
0000
0000
0001
1000
0000
,  // measure 28
0100
0000
0010
0000
0000
0001
0100
0000
,  // measure 29
2010
0000
3100
0000
0010
1000
0100
0000
,  // measure 30
0012
0000
1003
0000
0010
1000
0001
0000
,  // measure 31
0210
0000
0310
0000
0001
1000
0100
0000
,  // measure 32
0020
0230
2300
3001
,  // measure 33
0210
0000
0301
0000
0010
0100
0001
0000
,  // measure 34
0210
0000
1300
0000
0100
1000
0010
0000
,  // measure 35
1000
0100
0010
0001
0010
0100
1000
0000
,  // measure 36
0010
1000
0100
1000
0001
0100
0010
0000
,  // measure 37
2001
0000
0100
0000
0010
3000
1100
0000
,  // measure 38
1002
0000
0100
0000
0010
0003
0101
0000
,  // measure 39
0210
0000
0001
0000
1000
0300
1010
0000
,  // measure 40
0100
1000
0010
1000
0001
0010
0100
0000
,  // measure 41
2010
0000
0010
0000
0100
3000
1100
0000
,  // measure 42
0120
0000
1000
0000
0100
0030
0101
0000
,  // measure 43
0021
0000
0001
0000
0100
0030
1100
0000
,  // measure 44
0010
1000
0001
1000
0010
0100
0001
0000
,  // measure 45
0100
0010
0100
0010
1000
0100
0010
0001
,  // measure 46
0200
0000
0300
0000
0010
0100
0001
1000
,  // measure 47
0020
0000
1030
0100
1000
0001
0101
0000
,  // measure 48
0020
0000
0130
0001
0010
0001
1001
0000
,  // measure 49
0100
1000
0100
1000
0010
0100
0100
0000
,  // measure 50
0001
0100
0001
0100
0010
1000
1000
0000
,  // measure 51
0200
0000
1300
0100
1000
0001
1001
0000
,  // measure 52
0020
0000
0130
0001
0100
0010
1000
0100
,  // measure 53
0010
0000
0110
0000
0000
0010
0110
0000
,  // measure 54
0001
1001
0000
0000
;

//---------------dance-single - ----------------
#NOTES:
     dance-single:
     :
     Easy:
     2:
     0.148,0.185,0.048,0.256,0.000:
0000
0000
0000
0000
,
0000
0000
0000
0000
,
0100
0010
0000
1000
,
0100
0010
0000
0001
,
0200
0000
0300
0000
,
0000
0010
1000
0100
,
2000
3000
0002
0003
,
0000
0000
0010
0001
,
2000
0000
0000
0000
,
3001
0000
0010
0100
,
0010
0000
0001
1000
,
0100
0000
1000
0100
,
2000
0000
3000
0000
,
0000
0001
0010
0001
,
0200
0300
0020
0030
,
0000
0000
0100
0001
,
0020
0000
0000
0000
,
0130
0000
0010
0001
,
1000
0000
0000
0100
,
1000
0000
0000
0001
,
0200
0300
0002
0003
,
0000
1000
0100
1000
,
0020
0030
2000
3000
,
0000
0000
0100
0010
,
0002
0000
0000
0000
,
1003
0000
0200
0300
,
0020
0000
0030
0000
,
0002
0000
0003
0000
,
2002
0000
3003
0100
,
0200
0000
0300
1000
,
2000
0000
3000
0001
,
0001
0000
0010
0000
,
0002
0000
0003
0100
,
0020
0000
0030
1000
,
0200
0000
0300
0010
,
0001
0000
1000
0000
,
0220
0000
0000
0330
,
0202
0000
0000
0303
,
2200
0000
0000
3300
,
0010
0000
0010
0000
,
0220
0000
0000
0330
,
2020
0000
0000
3030
,
0202
0000
0000
0303
,
1000
0000
0100
0000
,
1000
1000
0010
0010
,
1000
0000
0100
0000
,
0010
0010
0001
0001
,
0010
0000
0001
0000
,
0100
0100
0010
0010
,
1000
0000
0100
0000
,
1000
1000
0100
0100
,
0010
0000
0001
0000
,
0200
0000
0000
0000
,
0320
0000
0030
0000
;

//---------------dance-single - ----------------
#NOTES:
     dance-single:
     :
     Challenge:
     13:
     0.595,0.616,0.318,0.263,0.477:
0000
0000
0000
0000
,
0000
0000
0000
0000
,
0001
0000
0100
0000
0101
0000
0010
0000
0100
0000
0001
0000
1000
0100
0000
0000
,
1000
0000
0010
0000
1010
0000
0100
0000
0001
0000
0010
0000
0100
0010
0000
0000
,
2001
0100
3010
1000
0100
1000
0001
0000
,
0010
0001
0100
0010
0100
0001
0010
1000
,
0020
0000
0001
0000
0100
0000
0100
0030
0200
0000
1300
0000
1001
0000
0000
0000
,
0100
1000
0010
1000
0100
1000
0001
0100
,
2001
0001
0100
0100
0010
0010
0100
3100
,
0102
0000
1003
0100
1000
0001
0010
0100
,
1000
0001
1000
0001
1000
0001
1000
0001
1000
0000
0000
1100
0000
0000
0101
0000
,
0010
0100
0010
0100
0010
0100
0010
0100
0010
0000
0000
1010
0000
0000
0101
0000
,
0020
0001
0130
1000
0100
1000
0001
0000
,
0010
0001
1000
0100
1000
0010
0100
0001
,
2001
0000
3100
1100
0010
1020
0130
0000
,
0001
0100
0010
0100
0001
0010
0101
0000
,
1002
0000
0100
0100
0010
0010
0100
0013
,
2100
0000
0000
3010
1000
0100
1000
0010
,
0100
0001
0100
0001
0000
0001
1000
0100
1000
0000
0010
0000
1010
0000
0100
0000
,
0001
1000
0001
1000
0000
1000
0100
0010
0001
0000
0010
0000
0011
0000
0001
0000
,
1000
0000
1000
0100
0000
0100
0010
0000
0010
0001
0000
0001
0100
0000
1000
0000
,
0001
0010
1000
0100
0010
0001
1000
0100
,
2100
0000
3010
1002
0103
2001
3010
0100
,
1000
0010
0100
0000
0001
0000
0010
0000
0100
0010
0100
0000
0010
0000
0001
0000
,
0022
0000
0033
2002
0000
3003
2200
0000
3300
2002
0000
3003
0110
0000
1001
0000
,
0220
0000
0330
0000
1001
0000
0100
0000
1000
0100
0010
0000
0001
0000
1000
0000
,
0001
0100
0001
1000
0000
1000
0100
1000
0010
0000
0100
0000
0110
0000
1000
0000
,
0100
1000
0010
0100
0000
0100
0001
0010
0100
0000
0010
0000
0110
0000
0001
0000
,
2001
0000
3100
0000
0010
1000
0100
0000
0010
0000
0001
0000
1000
0001
0100
0000
,
0102
0000
0013
0000
0100
0010
0001
0000
1000
0000
0001
0000
0100
0010
1000
0000
,
0210
0000
1300
0000
0010
1000
0100
0000
0010
0000
0001
0000
1000
0001
0100
0000
,
0001
0100
0010
0100
0001
0000
0010
0000
0100
0010
0001
0000
0011
0000
1100
0000
,
2001
0000
3100
0000
1000
0010
0100
0000
0001
0000
0010
0000
0100
1000
0010
0000
,
0102
0000
0013
0000
0100
0010
0001
0000
1000
0000
0001
0000
0100
0010
1000
0000
,
0210
0000
1300
0000
0010
0100
0001
0000
0010
0000
0001
0000
0010
0100
1000
0000
,
0010
0000
0100
0000
1001
0000
0010
1000
0100
1000
0001
0000
0010
0001
1000
0000
,
0210
0000
0010
0000
0001
0000
1000
0000
1000
0000
0010
0000
0301
0100
0010
0000
,
2100
0000
0010
0000
0001
0000
0100
0000
0010
0000
0010
0000
3100
1000
0001
0000
,
0102
0000
0010
0000
0010
0000
1000
0000
0100
0000
0010
0000
0103
0001
1000
0000
,
0100
1000
0010
1000
0100
0010
0001
0000
0100
0001
0100
0010
1000
0001
0100
0000
,
0210
0000
0001
0000
1000
0000
0010
0000
0010
0000
0001
0000
0310
0100
0001
0000
,
0012
0000
0010
0000
1000
0000
0100
0000
0010
0000
0010
0000
1003
0100
0010
0000
,
2100
0000
0010
0000
0001
0000
0100
0000
0100
0000
0010
0000
3100
1000
0010
0000
,
0100
0001
0100
0010
1000
0001
1000
0000
0100
1000
0010
1000
0001
0010
0100
0000
,
1000
0010
0100
0001
0010
1000
0010
0100
1000
0010
0100
0001
1000
0100
0010
0000
,
0001
0010
0100
0010
1000
0010
0100
1000
0010
1000
0001
0100
0010
1000
0001
0000
,
0010
0001
1000
0100
0010
0001
0100
0010
1000
0100
1000
0010
0100
0001
0010
0000
,
0001
0010
0100
1000
0010
1000
0001
0010
1000
0010
0100
1000
0001
0100
0010
0000
,
0100
0001
0100
0010
1000
0100
0010
0001
1000
0010
0100
0001
0010
0100
0010
0010
,
0001
0010
0100
1000
0010
0100
0001
0010
1000
0010
0001
1000
0100
0010
0100
0100
,
1000
0001
0100
1000
0100
0010
1000
0100
0010
0001
1000
0010
0100
0001
1000
1000
,
0001
0010
1000
0010
0100
1000
0010
0100
0001
0010
0100
0010
1000
0010
0001
1000
,
0002
0000
0100
0000
0000
1000
0103
0000
,
1000
0000
0000
0000
0100
0000
0000
0000
0010
0000
0000
0000
0001
0000
0000
0000
1000
0000
0000
0000
0000
0000
1000
0000
0000
0000
0000
0000
1000
0000
0000
0000
0002
0000
0000
0000
0000
0000
0000
0000
0000
0000
0000
0200
0000
0000
0000
0000
0000
0000
0000
0000
0000
0000
0000
0000
0000
0000
0000
0000
0000
0000
0000
0000
,
0303
0000
0000
0000
;
