#TITLE:LIVE WHILE WE'RE YOUNG;
#SUBTITLE:;
#ARTIST:ONE DIRECTION;
#TITLETRANSLIT:;
#SUBTITLETRANSLIT:;
#ARTISTTRANSLIT:;
#CREDIT:;
#BANNER:Live While We're Young-bn.png;
#BACKGROUND:Live While We're Young-bg.png;
#LYRICSPATH:;
#CDTITLE:;
#MUSIC:Live While We're Young.mp3;
#OFFSET:-0.360;
#SAMPLESTART:38.440;
#SAMPLELENGTH:16.140;
#SELECTABLE:YES;
#BPMS:0.000=126.010;
#STOPS:;
#BGCHANGES:0.000=Live While We're Young.avi=1.000=1=1=0,
178.500=Black.png=1.000=0=0=1,
99999=-nosongbg-=1.000=0=0=0 // don't automatically add -songbackground-
;

//---------------dance-single - ----------------
#NOTES:
     dance-single:
     :
     Beginner:
     1:
     0.156,0.179,0.046,0.000,0.000: // measure 1
0000
0000
0000
0000
,  // measure 2
0000
0000
0000
0000
,  // measure 3
0000
0000
0000
0000
,  // measure 4
0000
0000
0000
0000
,  // measure 5
0100
0000
0010
0000
,  // measure 6
0100
0000
0001
0000
,  // measure 7
0010
0000
0100
0100
,  // measure 8
0100
0000
0000
0000
,  // measure 9
0010
0000
0001
0000
,  // measure 10
0010
0000
0001
0000
,  // measure 11
1000
0000
0010
0010
,  // measure 12
0010
0000
0000
0000
,  // measure 13
1000
1000
0000
0000
,  // measure 14
0010
0010
0000
0000
,  // measure 15
1000
1000
0000
0000
,  // measure 16
0001
0001
0000
0000
,  // measure 17
0010
0010
0000
0000
,  // measure 18
0100
0100
0000
0000
,  // measure 19
1000
1000
0000
0000
,  // measure 20
1001
0000
0010
0010
,  // measure 21
0010
0000
0100
0000
,  // measure 22
0001
0001
0001
0000
,  // measure 23
0010
0000
0001
0000
,  // measure 24
1000
1000
1000
0000
,  // measure 25
0010
0000
1000
0000
,  // measure 26
0100
0100
0100
0000
,  // measure 27
1000
1000
1000
1000
,  // measure 28
0000
0000
1001
0000
,  // measure 29
0010
0000
0010
0000
,  // measure 30
0100
0100
0100
0000
,  // measure 31
0001
0000
1000
0000
,  // measure 32
1000
1000
1000
0000
,  // measure 33
0010
0000
0100
0000
,  // measure 34
0001
0001
0001
0000
,  // measure 35
0010
0010
0010
0010
,  // measure 36
0000
0000
1001
0000
,  // measure 37
0000
0100
0100
0100
,  // measure 38
0100
0000
0000
0000
,  // measure 39
0000
1000
1000
1000
,  // measure 40
1000
0000
0000
0000
,  // measure 41
0000
0010
0010
0010
,  // measure 42
0010
0000
0000
0000
,  // measure 43
0100
0100
0100
0100
,  // measure 44
0000
0000
0000
0000
,  // measure 45
0110
0000
0000
0000
;

//---------------dance-single - ----------------
#NOTES:
     dance-single:
     :
     Medium:
     7:
     0.367,0.384,0.163,0.198,0.000: // measure 1
0000
0000
0000
0000
,  // measure 2
0000
0100
0100
0100
,  // measure 3
0000
0000
0000
0000
,  // measure 4
0000
0100
0100
0100
,  // measure 5
0001
0000
1000
0000
0100
1000
0100
0000
,  // measure 6
1000
0000
0010
0000
0100
0001
0100
0000
,  // measure 7
0001
0000
1000
0000
0010
1000
0010
0000
,  // measure 8
0200
0000
0300
0000
,  // measure 9
0001
0000
1000
0000
0100
1000
0100
0000
,  // measure 10
1000
0000
0001
0000
0010
0100
0010
0000
,  // measure 11
0001
0000
1000
0000
0010
0100
0010
0000
,  // measure 12
0200
0000
0300
0000
,  // measure 13
0010
0000
1010
0000
0100
0000
0001
0100
,  // measure 14
0010
0000
1000
0100
1000
0000
0010
0000
,  // measure 15
1000
0100
1000
0000
0001
0000
0010
0000
,  // measure 16
0001
0100
0001
0000
0000
0000
0000
0000
,  // measure 17
0010
0000
0011
0000
0100
0000
0001
1000
,  // measure 18
0100
0000
1000
0010
1000
0000
0100
0000
,  // measure 19
1000
0000
0010
0100
0010
0000
1000
0001
,  // measure 20
1000
0000
0110
1001
,  // measure 21
0010
0100
0010
0100
0010
0100
0020
0000
,  // measure 22
0100
0100
0130
0000
,  // measure 23
0001
0100
0001
0100
0001
0100
0001
0100
,  // measure 24
0002
0100
0103
0000
,  // measure 25
1000
0010
1000
0010
1000
0010
1000
0010
,  // measure 26
2000
0010
3010
0000
,  // measure 27
0200
0320
2030
3002
,  // measure 28
0003
0110
1001
0110
,  // measure 29
1000
0010
1000
0010
1000
0010
1000
0010
,  // measure 30
2000
0010
3010
0000
,  // measure 31
0001
1000
0001
1000
0001
1000
0001
1000
,  // measure 32
0002
1000
1003
0000
,  // measure 33
0100
0010
0100
0010
0100
0010
0100
0010
,  // measure 34
0200
0010
0310
0000
,  // measure 35
0002
2003
3020
0230
,  // measure 36
0300
0101
1100
1001
,  // measure 37
0010
0000
1000
1000
1000
0000
0100
0100
,  // measure 38
0100
0010
0001
1000
,  // measure 39
0001
0000
0100
0100
0100
0000
0001
0001
,  // measure 40
0001
0010
0001
1000
,  // measure 41
0010
0000
0100
0100
0100
0000
0010
0010
,  // measure 42
0010
1000
0001
0010
,  // measure 43
0011
0110
1100
1001
,  // measure 44
0200
0000
0000
0000
,  // measure 45
0310
0000
0000
0000
;

//---------------dance-single - ----------------
#NOTES:
     dance-single:
     :
     Hard:
     9:
     0.443,0.409,0.116,0.198,0.081: // measure 1
0000
0000
0000
0000
,  // measure 2
0000
0100
0100
0100
,  // measure 3
0000
0000
0000
0000
,  // measure 4
0000
0010
0010
0010
,  // measure 5
0001
0000
0100
0010
1000
0100
1000
0000
,  // measure 6
0001
0000
0100
0010
1000
0100
1000
0000
,  // measure 7
0010
0000
1000
0100
0010
0001
0010
0000
,  // measure 8
0200
0010
0010
0310
,  // measure 9
0000
0000
0101
0000
1000
0001
0100
0001
,  // measure 10
1000
0000
0010
0000
1000
0001
0100
0001
,  // measure 11
1000
0000
0100
0100
0010
0001
1000
0000
,  // measure 12
0020
1000
1000
1030
,  // measure 13
0100
0000
2002
0000
3003
0000
0010
1000
,  // measure 14
0100
1000
0010
0100
0001
0000
0001
0010
,  // measure 15
1000
0010
0100
1000
0010
0000
1000
0001
,  // measure 16
1000
0001
0200
0000
0310
0000
0110
0000
,  // measure 17
0001
0000
2002
0000
3003
0000
0100
0001
,  // measure 18
0010
0001
0100
0010
1000
0000
1000
0100
,  // measure 19
0001
0100
0010
0001
0100
0000
0001
1000
,  // measure 20
0001
0000
1100
0101
,  // measure 21
0010
0010
0100
0100
1000
1000
0010
1000
,  // measure 22
0001
0000
0000
0100
0000
0000
0010
0000
0000
0000
0000
0000
0100
0000
0001
0000
,  // measure 23
1000
1000
0001
0001
0010
0010
0100
1000
,  // measure 24
0010
0000
0000
1000
0000
0000
0001
0000
0000
0000
0000
0000
0010
0000
0001
0000
,  // measure 25
1000
1000
0100
0100
0010
0010
0001
0100
,  // measure 26
1000
0000
0000
0100
0000
0000
0010
0000
0000
0000
0000
0000
0000
0000
1000
0000
,  // measure 27
0200
0000
0320
0000
0031
1000
0002
0000
,  // measure 28
0103
0000
0000
0001
0000
0000
0010
0000
0100
0000
0000
1000
0000
0000
0010
0000
,  // measure 29
0100
0100
0001
0001
0010
0010
0100
0010
,  // measure 30
0001
0000
0000
1000
0000
0000
1100
0000
0000
0000
0000
0000
0010
0000
1000
0000
,  // measure 31
0100
0100
1000
1000
0001
0001
0010
0001
,  // measure 32
1000
0000
0000
0010
0000
0000
0110
0000
0000
0000
0000
0000
0100
0000
0010
0000
,  // measure 33
1000
1000
0100
0100
0001
0001
0100
0001
,  // measure 34
1000
0000
0000
0010
0000
0000
0110
0000
0000
0000
0000
0000
0000
0000
0001
0000
,  // measure 35
0020
0000
0031
0000
0100
0010
2000
0000
,  // measure 36
3100
0000
0000
0010
0000
0000
0001
0000
1000
0000
0000
0001
0000
0000
0100
0000
,  // measure 37
0120
0000
1030
0100
0001
0000
1000
0100
,  // measure 38
0001
0000
0000
0100
0000
0000
0010
0000
0010
0000
0000
0000
0002
0000
0000
0000
,  // measure 39
0103
0000
1000
0010
0001
0000
1000
0010
,  // measure 40
0001
0000
0000
0010
0000
0000
0100
0000
0100
0000
0000
0000
0020
0000
0000
0000
,  // measure 41
1030
0100
1000
0100
0010
0001
0010
0001
,  // measure 42
0100
0000
0000
0100
0000
0000
0100
0000
0002
0000
0000
0000
2003
0000
0000
0000
,  // measure 43
3001
0010
0001
0010
0100
1000
0100
1000
,  // measure 44
0010
0000
0000
0000
0000
0000
0100
0000
0001
0000
0000
1000
0000
0000
0100
0000
,  // measure 45
1000
0000
0000
0000
;

//---------------dance-single - ----------------
#NOTES:
     dance-single:
     :
     Easy:
     4:
     0.254,0.307,0.046,0.209,0.000: // measure 1
0000
0000
0000
0000
,  // measure 2
0000
1000
1000
1000
,  // measure 3
0000
0000
0000
0000
,  // measure 4
0000
0001
0001
0001
,  // measure 5
0000
0100
0010
1000
,  // measure 6
0000
0100
0010
1000
,  // measure 7
0000
0100
1000
0001
,  // measure 8
0001
0000
0000
0000
,  // measure 9
0000
0010
0001
0100
,  // measure 10
0000
0010
0001
0100
,  // measure 11
0000
0001
0100
0010
,  // measure 12
0100
0000
0000
0000
,  // measure 13
0010
1000
0100
1000
,  // measure 14
1000
0010
0100
0000
,  // measure 15
0001
0001
1000
0000
,  // measure 16
0100
0110
0000
0000
,  // measure 17
0010
0001
1000
0010
,  // measure 18
0100
0100
0001
0000
,  // measure 19
1000
1000
0010
0000
,  // measure 20
0100
0000
0110
0110
,  // measure 21
1000
0001
1000
0001
,  // measure 22
0200
0010
0310
0000
,  // measure 23
0001
1000
0001
1000
,  // measure 24
0020
0100
0130
0000
,  // measure 25
1000
0100
1000
0100
,  // measure 26
0020
0001
0031
0000
,  // measure 27
0002
0203
0320
2030
,  // measure 28
3000
0000
0010
0010
,  // measure 29
0100
0001
0100
0001
,  // measure 30
2000
0010
3010
0000
,  // measure 31
1000
0010
1000
0010
,  // measure 32
0200
0010
0310
0000
,  // measure 33
0001
1000
0001
1000
,  // measure 34
0200
1000
1300
0000
,  // measure 35
0020
2030
3200
0320
,  // measure 36
0030
0000
0001
1000
,  // measure 37
1001
0100
0100
1000
,  // measure 38
1000
0010
0100
0000
,  // measure 39
0001
0001
1000
1000
,  // measure 40
0010
1000
0001
0000
,  // measure 41
0100
0100
0001
0001
,  // measure 42
0010
0100
1000
0000
,  // measure 43
0200
2300
3002
0203
,  // measure 44
0000
0000
0000
0000
,  // measure 45
0310
0000
0000
0000
;
