#TITLE:LIKE A G6;
#SUBTITLE:;
#ARTIST:FAR EAST MOVEMENT feat. THE CATARACS;
#TITLETRANSLIT:;
#SUBTITLETRANSLIT:;
#ARTISTTRANSLIT:;
#CREDIT:;
#BANNER:Like A G6-bn.png;
#BACKGROUND:Like A G6-bg.png;
#LYRICSPATH:;
#CDTITLE:;
#MUSIC:Like A G6.mp3;
#OFFSET:1.890;
#SAMPLESTART:78.700;
#SAMPLELENGTH:11.580;
#SELECTABLE:YES;
#BPMS:0.000=125.000;
#STOPS:164.000=0.980
;
#BGCHANGES:7.333=Like A G6.avi=1.000=1=0=0,
199.000=Like A G6-bg.png=1.000=1=0=0,
99999=-nosongbg-=1.000=0=0=0 // don't automatically add -songbackground-
;

//---------------dance-single - ----------------
#NOTES:
     dance-single:
     :
     Beginner:
     1:
     0.094,0.180,0.031,0.000,0.000:
0000
0000
0000
0000
,
0000
0000
0000
0000
,
0000
0000
0000
0000
,
0000
0000
0000
0000
,
0010
0000
0000
0000
,
0100
0000
0000
0000
,
0001
0000
0000
0000
,
1000
0000
0000
0000
,
0100
0100
0000
0000
,
0010
0000
0000
0000
,
1000
1000
0000
0000
,
0001
0000
0000
0000
,
0001
0000
0000
0000
,
0100
0000
0000
0000
,
0001
0000
0000
0000
,
1001
0000
0000
0000
,
0100
0000
0000
0000
,
0000
0000
0000
0000
,
0100
0000
0000
0000
,
0000
0000
0000
0000
,
0100
0000
0000
0000
,
0000
0000
0000
0000
,
0100
0000
0000
0000
,
0000
0000
0000
0000
,
0010
0000
0000
0000
,
1000
0000
1000
0000
,
1000
0000
0000
0000
,
0001
0000
0001
0000
,
0001
0000
0000
0000
,
0100
0000
0000
0000
,
0010
0010
0010
0010
,
0010
0000
0000
0000
,
0110
0000
0000
0000
,
1000
0000
0000
0000
,
0001
0000
0000
0000
,
0010
0000
0010
0000
,
0010
0000
0000
0000
,
0100
0000
0000
0000
,
0001
0000
0000
0000
,
1001
0000
0000
0000
,
0100
0100
0100
0000
,
0001
0000
0000
0000
,
1000
1000
0000
1000
,
1000
0000
0000
0000
,
0100
0000
0010
0000
,
0010
0000
0000
0001
,
0001
0001
0000
0001
,
0001
0000
0000
0000
,
0100
0100
0100
0000
,
0010
0000
0000
0000
;

//---------------dance-single - ----------------
#NOTES:
     dance-single:
     :
     Medium:
     6:
     0.336,0.362,0.168,0.157,0.000: // measure 1
0000
0000
0000
0000
,  // measure 2
0000
0000
0000
0000
,  // measure 3
0000
0000
0000
0000
,  // measure 4
0000
0000
0000
0000
,  // measure 5
0100
0001
1000
0010
,  // measure 6
1000
0100
0011
1001
,  // measure 7
0000
0000
0010
0001
1000
0000
0001
0000
,  // measure 8
0100
0000
0010
1000
2000
0000
3001
0000
,  // measure 9
0000
0000
0010
0100
0002
0000
0013
0000
,  // measure 10
0100
1000
0002
0000
1003
0000
2000
0100
,  // measure 11
3100
0000
0010
0001
0010
0001
2000
0000
,  // measure 12
3001
0000
0100
0010
0200
0000
1300
0000
,  // measure 13
0100
0001
1000
0100
,  // measure 14
0010
0001
1001
0000
1001
0000
0000
0000
,  // measure 15
0010
0000
1000
0100
1000
0001
0100
0000
,  // measure 16
0010
0000
1000
0010
1010
0000
1010
0000
,  // measure 17
0001
0000
0000
1000
0000
0000
0010
0000
,  // measure 18
1000
0000
0000
0100
0000
0010
0010
0000
,  // measure 19
0001
0000
0000
1000
0000
0000
0010
0000
,  // measure 20
1000
0000
0000
0001
0000
1000
1000
0100
,  // measure 21
0100
0000
0000
0010
0000
0101
0000
0000
,  // measure 22
1001
0000
0000
0000
0000
0100
0100
0000
,  // measure 23
1000
0000
0000
1100
0000
0101
0000
0000
,  // measure 24
0010
0200
0020
0000
0000
0000
0330
0000
,  // measure 25
0200
0000
0000
0002
0000
0000
0303
0000
,  // measure 26
1000
0100
1000
0001
,  // measure 27
0010
0000
0001
0000
1000
0000
0010
0010
,  // measure 28
1000
1000
0100
0000
1100
0000
0000
0000
,  // measure 29
1000
1000
0001
0001
0100
0000
0010
0000
,  // measure 30
0100
0100
0010
0010
1000
0000
0000
0000
,  // measure 31
0001
0001
1000
0000
0100
0000
0010
0000
,  // measure 32
0001
0001
1000
1000
1100
0000
0000
0000
,  // measure 33
0110
0000
0001
0100
,  // measure 34
1000
0000
0010
1000
0100
1000
0000
0000
,  // measure 35
0010
0000
1000
0100
,  // measure 36
0010
0000
0001
0000
0010
0001
1000
0001
,  // measure 37
1000
0000
0100
1000
,  // measure 38
0010
0200
0320
1030
,  // measure 39
0000
0000
0001
1000
0001
0000
1000
0000
,  // measure 40
0100
0000
1000
0010
0020
0000
0130
0000
,  // measure 41
0000
0000
0010
0100
0002
0000
2003
0000
,  // measure 42
3010
0000
0000
0000
0000
0000
0100
0001
,  // measure 43
0100
0000
0010
0000
1000
0100
1000
0000
,  // measure 44
0001
0000
0010
0001
,  // measure 45
0100
0010
1010
0100
,  // measure 46
0001
0000
0000
0000
1000
0000
0100
0010
,  // measure 47
0100
0000
1000
0000
0001
0100
0001
0000
,  // measure 48
0010
0000
0100
0000
1000
0000
0100
0010
,  // measure 49
0001
1000
0001
0000
0100
0000
0010
0000
,  // measure 50
1010
1100
0000
0000
;

//---------------dance-single - ----------------
#NOTES:
     dance-single:
     :
     Hard:
     11:
     0.451,0.465,0.336,0.168,0.136: // measure 1
0000
0000
0000
0000
,  // measure 2
0000
0000
0000
0000
,  // measure 3
0000
0000
0000
0000
,  // measure 4
0000
0000
0000
0000
,  // measure 5
0000
0000
0000
0000
,  // measure 6
0000
0000
0000
0000
,  // measure 7
0100
0000
0000
0001
0000
0000
1000
0000
0000
0000
0110
0000
0000
1000
0000
0000
,  // measure 8
0001
0000
0000
0011
0000
0000
0101
0000
0000
0000
0100
0000
0100
0000
0000
0000
,  // measure 9
0001
0000
0000
1001
0000
0000
1000
0000
0000
0000
0010
0000
0000
0100
0000
0000
,  // measure 10
0101
0000
0000
1000
0000
0000
0100
0000
1100
0000
0000
0000
1001
0000
0000
0000
,  // measure 11
0002
0000
0103
0001
2000
0000
3020
0000
,  // measure 12
0130
0000
0001
0000
0101
0000
0000
0000
1010
0000
0000
0000
0001
0000
0100
0010
,  // measure 13
0000
0100
0010
0000
1000
0000
0001
0000
0010
0000
0001
0000
2000
0000
0000
0000
,  // measure 14
3200
0000
1300
0100
0002
0000
0103
0000
,  // measure 15
1000
0001
0100
0100
0001
1000
0100
0000
,  // measure 16
0010
0000
0001
0000
0011
0000
0000
0000
0101
0000
0000
0000
0000
0000
0100
0010
,  // measure 17
0000
0100
0010
0000
1000
0000
0001
0000
1000
0000
0100
0000
0100
0000
0000
0000
,  // measure 18
0110
0000
0011
1000
2000
0000
3100
0000
,  // measure 19
0011
0000
0000
0000
0000
0000
1000
0000
0000
0000
1001
0000
0000
1100
0000
0000
,  // measure 20
0110
0000
0000
0001
0000
1100
0101
0000
,  // measure 21
0010
0000
0000
0000
0000
0000
0101
0000
0000
0000
1000
0000
0000
0100
0000
0000
,  // measure 22
0001
0000
0000
0000
0000
0000
0010
0000
0001
0000
0100
0000
0000
0010
0100
0000
,  // measure 23
0001
0000
0000
1000
0000
0010
1000
0100
,  // measure 24
0001
0000
0000
1000
0000
0110
0011
0000
,  // measure 25
1000
0000
0000
0000
0000
0000
0010
0000
0000
0000
1000
0000
0000
0001
0000
0000
,  // measure 26
0100
0001
2000
0200
0000
0000
3300
0000
,  // measure 27
0020
0000
0031
0020
0000
0000
1030
0000
,  // measure 28
0010
0001
0100
0000
1000
0100
1000
0000
,  // measure 29
0001
0001
1000
1000
0010
0010
1000
1000
,  // measure 30
0100
0001
0100
1000
0020
0000
0030
0000
,  // measure 31
0100
0000
0001
0000
0100
0000
0010
0000
1000
0000
0000
0000
0001
0000
1000
0100
,  // measure 32
1000
0000
0010
0000
1000
0000
0001
0000
0100
0000
0010
1000
0010
0000
1000
0000
,  // measure 33
0001
0000
0010
0001
1000
0100
0010
0001
,  // measure 34
1000
1000
0001
0001
0200
0010
0010
0000
,  // measure 35
0301
0000
0000
0000
0000
0000
1000
0000
0000
0000
0001
0000
0000
0101
0000
0000
,  // measure 36
0010
0000
1000
0100
0001
0100
0000
0000
,  // measure 37
0010
0000
0000
0000
0001
0000
0100
0000
0000
0000
1000
0000
0000
1001
0000
0000
,  // measure 38
0010
0000
0000
0000
0000
0000
1010
0000
0000
0000
0100
0000
0010
0001
0010
0000
,  // measure 39
0001
0000
0000
0000
0000
0000
1000
0000
0000
0000
1010
0000
0000
0001
0000
0000
,  // measure 40
0101
0000
0000
0100
0001
1000
0100
0000
,  // measure 41
0110
0000
1000
0100
1000
0001
0100
1000
,  // measure 42
0001
0000
0000
0000
0000
0000
0000
0000
0010
1000
0010
0000
0000
0000
1000
0000
,  // measure 43
0100
1000
0001
0100
0001
0000
0011
0010
,  // measure 44
1100
0000
0000
0000
0010
0000
0100
0001
0000
1000
0100
0000
1000
0000
0001
0000
,  // measure 45
0100
0000
1000
0001
0100
0000
0010
1000
,  // measure 46
1100
0000
0010
0000
0101
0000
0000
0000
1000
0100
1000
0000
0001
0000
0100
0000
,  // measure 47
0020
0000
1030
0100
1000
0001
0020
0000
,  // measure 48
0031
0000
0000
0000
0100
0000
0010
1000
0000
0010
0001
0000
0010
0000
0100
0000
,  // measure 49
0001
0010
0100
1000
0010
1000
0100
0010
,  // measure 50
0002
0100
1003
0000
0000
0000
0000
0000
;

//---------------dance-single - ----------------
#NOTES:
     dance-single:
     :
     Easy:
     3:
     0.175,0.233,0.084,0.010,0.000: // measure 1
0000
0000
0000
0000
,  // measure 2
0000
0000
0000
0000
,  // measure 3
0000
0000
0000
0000
,  // measure 4
0000
0000
0000
0000
,  // measure 5
1000
0000
0000
0001
,  // measure 6
0100
0000
0000
0000
,  // measure 7
0010
0000
0000
1001
,  // measure 8
1001
0000
0000
0000
,  // measure 9
0010
0000
1000
0000
,  // measure 10
0100
0010
0001
0000
,  // measure 11
1000
0000
0001
0000
,  // measure 12
0100
0010
1000
0100
,  // measure 13
1000
0000
1001
0000
,  // measure 14
0010
0010
0010
0100
,  // measure 15
0001
0000
1000
0100
,  // measure 16
1000
0000
1100
1100
,  // measure 17
0001
0000
1000
0010
,  // measure 18
0100
0000
0000
0110
,  // measure 19
0001
0000
0000
1000
,  // measure 20
0100
1000
0010
0001
,  // measure 21
0100
0000
0000
0000
,  // measure 22
0010
0010
0010
0000
,  // measure 23
0100
0001
0000
0000
,  // measure 24
1001
0000
0000
0000
,  // measure 25
0100
1000
0100
0000
,  // measure 26
0001
0000
0010
0000
,  // measure 27
0001
0100
0100
0001
,  // measure 28
1000
0100
0100
0000
,  // measure 29
0010
0000
0001
0000
,  // measure 30
1000
0000
0010
0000
,  // measure 31
1000
0001
0100
0000
,  // measure 32
1010
0000
0000
0000
,  // measure 33
0100
0000
0100
0000
,  // measure 34
0000
0010
0001
0000
,  // measure 35
1000
0000
1000
0000
,  // measure 36
0000
0001
0100
0010
,  // measure 37
1000
0000
0000
0010
,  // measure 38
0100
0000
0001
0100
,  // measure 39
0000
1000
0001
1000
,  // measure 40
0100
0000
0000
0000
,  // measure 41
0000
0010
0001
0000
,  // measure 42
0010
0000
0000
1000
,  // measure 43
0100
0000
1000
0100
,  // measure 44
1000
0000
0010
0000
,  // measure 45
1000
0000
0001
0001
,  // measure 46
0001
0000
0000
0010
,  // measure 47
0001
0100
0000
0010
,  // measure 48
0001
0000
0100
0000
,  // measure 49
0010
0000
2000
0000
,  // measure 50
0001
3001
0000
0000
;
