#TITLE:Jamaica;
#SUBTITLE:;
#ARTIST:Theme Park;
#TITLETRANSLIT:;
#SUBTITLETRANSLIT:;
#ARTISTTRANSLIT:;
#CREDIT:;
#BANNER:Jamaica-bn.png;
#BACKGROUND:Jamaica-bg.png;
#LYRICSPATH:;
#CDTITLE:;
#MUSIC:Jamaica.mp3;
#OFFSET:-1.220;
#SAMPLESTART:17.500;
#SAMPLELENGTH:17.580;
#SELECTABLE:YES;
#DISPLAYBPM:105.000;
#BPMS:0.000=105.000,60.000=107.040,61.000=105.000,124.000=103.460,125.000=104.960;
#STOPS:;
#BGCHANGES:-2.100=Jamaica.avi=1.000=1=1=0,
99999=-nosongbg-=1.000=0=0=0 // don't automatically add -songbackground-
;

//---------------dance-single - ----------------
#NOTES:
     dance-single:
     :
     Beginner:
     1:
     0.103,0.121,0.000,0.000,0.000:
0000
0000
0000
0000
,
0000
0000
0000
0000
,
0000
0000
0000
0000
,
0000
0000
0000
0000
,
0010
0000
0000
0000
,
0100
0000
0000
0000
,
1000
0000
0000
0000
,
0000
0000
0000
0000
,
0001
0001
0000
0100
,
0000
0010
0000
1000
,
0000
0001
0000
1000
,
0000
0100
0100
0100
,
0000
1000
0000
0001
,
0000
1000
0000
0010
,
0000
0100
0000
0010
,
0010
0000
0000
0000
,
1000
0000
1000
0000
,
0100
0000
0100
0000
,
1000
0000
0010
0000
,
1000
0000
0001
0000
,
0001
0000
0010
0000
,
0001
0000
0100
0000
,
0010
0000
0010
0000
,
1000
0000
0000
0000
,
0100
0100
0000
1000
,
0000
0001
0001
0001
,
0000
1000
0000
0010
,
0000
1000
1000
1000
,
0000
0100
0000
1000
,
0000
0010
0010
0010
,
0000
0100
0000
0001
,
0001
0000
0000
0000
,
0000
1000
0000
0000
,
0000
1000
0000
0100
,
0000
0010
0000
0000
,
0000
0010
0000
0001
,
0000
0000
0100
0100
,
0000
0000
0001
0001
,
0000
1000
0000
0010
,
0000
1000
0000
0100
,
0100
0000
1000
0000
,
0010
0000
1000
0000
,
0001
0000
0001
0000
,
0010
0000
0001
0000
,
0100
0000
0010
0000
,
1000
0000
1000
0000
,
0010
0000
0100
0000
,
0000
0001
0001
0001
;

//---------------dance-single - ----------------
#NOTES:
     dance-single:
     :
     Medium:
     7:
     0.328,0.353,0.102,0.187,0.000:
0000
0000
0000
0000
,
0000
0000
0000
0000
,
0000
0000
0000
0000
,
0000
0000
0000
0000
,
0200
0000
0310
0000
0010
1000
0100
0000
,
2000
0000
3100
0000
1000
0001
0100
0000
,
0002
0000
1003
0000
0010
0001
0200
0000
,
0320
0000
0000
1030
,
1100
0000
0101
0000
1000
0100
0010
0000
,
0001
0000
1000
0010
0100
0010
0100
0000
,
0001
0000
1000
0000
0100
0000
0010
0001
,
2000
0100
0100
3100
,
1010
0000
1001
0000
0010
0100
1000
0000
,
0010
0000
1000
0001
0010
0001
0010
0000
,
0001
0000
0100
0000
0010
1000
0100
0000
,
0020
0100
0130
0000
,
0021
0130
0001
1000
,
2100
3010
1000
0001
,
0100
0010
0100
0000
0010
0100
0010
0000
,
1000
0001
1000
0000
0001
1000
0001
0000
,
2100
3100
0010
1000
,
1002
1003
0100
0001
,
0120
0130
0010
0001
,
1000
0100
0010
0001
0010
0100
1000
0100
,
0000
0000
1001
0000
0010
1000
0000
0100
,
0000
0010
0000
0001
0100
0001
0100
0010
,
0000
0000
0100
0001
0100
0000
0010
1000
,
0020
1030
0200
0310
,
0000
0000
1001
0000
0100
1000
0000
0010
,
0000
0100
0000
0001
0010
0001
0100
0000
,
0010
0000
1000
0000
0100
1000
0100
0010
,
0001
1000
0001
0100
,
0000
0010
1000
0100
0000
0000
1000
0000
,
0000
0100
0010
0001
0100
0010
0100
0001
,
0000
0010
0001
1000
0000
0000
0100
0000
,
0000
1000
0010
0100
0010
1000
0100
0010
,
0000
0000
0000
0001
1000
0001
0100
0000
,
0001
0000
0000
1000
0001
1000
0100
0000
,
2000
3200
0320
0031
,
0200
0302
2003
3010
,
0001
0010
0100
1000
0001
0010
0100
1000
,
0001
0010
0100
1000
0001
0010
0100
1000
,
0010
0100
0001
1000
0010
0100
0001
1000
,
0010
0100
0001
1000
0010
0100
0001
1000
,
0100
0010
0001
1000
0100
0010
0001
1000
,
0100
0010
0001
1000
0100
0010
0001
1000
,
0010
0100
0001
1000
0010
0100
0001
1000
,
0000
0100
0100
0010
0010
0001
0001
1000
,
2002
0000
0000
0000
,
3003
0000
0000
0000
;

//---------------dance-single - ----------------
#NOTES:
     dance-single:
     :
     Hard:
     12:
     0.515,0.684,0.102,0.008,0.394: // measure 1
0000
0000
0000
0000
,  // measure 2
0000
0000
0000
0000
,  // measure 3
0000
0000
0000
0000
,  // measure 4
0000
0000
0000
0000
,  // measure 5
1000
0000
0001
0000
0100
0010
0000
0000
0100
0000
0000
0000
0001
1000
0000
0000
,  // measure 6
0100
0000
1000
0000
0010
1000
0000
0000
0100
0000
0000
0000
1000
0001
0000
0000
,  // measure 7
0010
0000
0001
0000
0100
0010
0000
0000
0100
0000
0000
0000
0001
0010
0000
0000
,  // measure 8
0100
1000
1000
0001
0001
0100
0010
1000
,  // measure 9
1010
0000
0100
1000
0010
1000
0001
0010
,  // measure 10
0001
0000
0110
0010
0001
1000
0100
0100
,  // measure 11
1000
0000
0010
1000
0100
0001
0100
1000
,  // measure 12
0010
0100
0100
0001
0001
1000
1000
0100
,  // measure 13
1100
0000
0010
1000
0100
1000
0001
0010
,  // measure 14
0100
0010
0001
0000
0101
0100
0010
1000
,  // measure 15
0100
0000
0001
0010
1000
0010
0001
1000
,  // measure 16
0010
0000
1000
0100
1000
0010
0110
0000
,  // measure 17
0001
1000
0010
1000
0001
0010
1000
0010
,  // measure 18
0100
1000
0010
0100
0001
1000
0010
0000
,  // measure 19
0100
0000
0001
0000
0100
0000
0010
0000
1000
0100
1000
0100
0000
0000
1000
0100
,  // measure 20
0000
0000
1000
0000
0010
0000
0100
0000
0001
1000
0001
1000
0000
0000
0001
1000
,  // measure 21
0010
0100
0001
0010
1000
0010
0100
1000
,  // measure 22
0100
0010
0001
0100
1000
0100
0001
0010
,  // measure 23
0100
0000
0010
0000
0001
0000
1000
0000
0010
0100
0010
0100
0000
0000
0001
1000
,  // measure 24
0010
0100
0100
0001
0001
1000
1000
0100
,  // measure 25
1100
0000
0010
1000
0100
1000
0001
0010
,  // measure 26
0001
0000
0110
0100
0001
0010
1000
0010
,  // measure 27
0100
0000
1000
0100
0010
0001
1000
0010
,  // measure 28
1000
0100
0100
1000
1000
0001
0001
0100
,  // measure 29
0110
0000
0001
0100
0010
1000
0001
1000
,  // measure 30
0100
0010
0001
0000
1010
0001
1000
0010
,  // measure 31
0100
0000
0001
0100
0010
1000
0100
0010
,  // measure 32
0001
0000
1010
1000
0100
0010
0101
0000
,  // measure 33
0010
0000
0100
0001
1000
0000
0100
0000
0010
0000
0010
0000
0010
0000
0000
0000
,  // measure 34
0001
0000
1000
0100
0010
0000
0001
0000
1000
0000
0001
0000
0100
0000
0010
0000
,  // measure 35
0000
0000
0100
0001
0010
0000
1000
0000
0010
0000
0010
0000
0010
0000
0000
0000
,  // measure 36
0001
0000
0100
0010
1000
0000
0001
0000
1000
0000
0100
0000
0010
0000
0001
0000
,  // measure 37
0100
0000
0010
0000
1000
0000
0100
1000
0010
0000
1000
0000
0001
0000
0010
0000
,  // measure 38
0001
0000
0100
0000
0010
0000
1000
0100
0010
0000
0001
0000
1000
0000
0000
0000
,  // measure 39
0010
0000
1000
0010
0000
0010
0100
0000
0100
0001
0000
0001
0010
0000
1001
0000
,  // measure 40
0100
0000
0100
0001
0000
0001
0010
0000
0010
0100
0000
0100
1000
0000
0001
0000
,  // measure 41
0100
0010
0100
0010
1000
0100
1000
0100
0010
0001
0010
0001
0100
0001
0100
0001
,  // measure 42
1000
0100
0010
0001
1000
0100
0010
0001
0100
0010
1000
0001
0100
0010
1000
0001
,  // measure 43
0100
0001
0100
0001
1000
0100
1000
0100
0010
0100
0010
0100
0010
1000
0010
1000
,  // measure 44
0010
0001
1000
0100
0010
0001
1000
0100
0010
0001
1000
0100
0010
0001
1000
0001
,  // measure 45
0100
0001
0100
0001
1000
0100
1000
0100
0010
0001
0010
0001
1000
0010
1000
0010
,  // measure 46
0100
0001
0010
1000
0010
0100
1000
0010
0100
0001
1000
0100
0010
0001
0100
0010
,  // measure 47
1000
0100
1000
0100
0010
0001
0010
0001
1000
0001
1000
0001
0100
0010
0100
0010
,  // measure 48
1000
0100
0010
0001
0100
1000
0100
0010
1000
0100
0010
0001
1000
0100
0010
0001
,  // measure 49
2000
0000
0100
0000
0100
0100
0000
3100
;

//---------------dance-single - ----------------
#NOTES:
     dance-single:
     :
     Easy:
     4:
     0.196,0.228,0.119,0.093,0.000:
0000
0000
0000
0000
,
0000
0000
0000
0000
,
0000
0000
0000
0000
,
0000
0000
0000
0000
,
0200
0000
0300
0010
,
2000
0000
3000
0001
,
0200
0000
0300
0000
,
2002
0000
0000
3003
,
0000
0110
1000
0100
,
0010
0001
1000
0001
,
0000
1001
1000
0100
,
1000
0010
1000
0001
,
0000
0110
0010
1000
,
0100
1000
0001
0010
,
0000
0101
0100
0010
,
1000
0100
1000
0000
,
0200
0300
1000
0001
,
2000
3000
0010
1000
,
0001
0001
0010
0100
,
0010
0010
0001
1000
,
0200
0300
1000
0010
,
2000
3000
0100
1000
,
0010
0010
1000
0001
,
0000
0100
0100
0100
,
0110
1000
0100
1000
,
0001
0000
0010
0000
0001
0001
0001
0000
,
0010
0001
1000
0010
,
0100
0000
0000
0000
,
0110
0100
0001
1000
,
0010
0000
1000
0000
0100
0100
0100
0000
,
1000
0001
0010
0001
,
0100
0000
0000
0000
,
0000
0010
0000
1010
,
0000
1000
0000
0100
,
0000
0010
0000
0011
,
0000
0001
0000
1000
,
0000
0110
0000
1010
,
0000
0100
0000
1000
,
0000
1001
0000
0010
,
0000
0001
0000
0101
,
0010
1000
0010
1000
,
0010
0100
0010
0100
,
0001
0100
0001
0100
,
0001
0010
0001
0010
,
0001
1000
0100
0010
,
0001
0100
0010
1000
,
0001
0010
0001
1000
,
0100
1000
0010
0100
,
2002
0000
0000
0000
,
3003
0000
0000
0000
;
