#TITLE:IT'S MY LIFE;
#SUBTITLE:;
#ARTIST:BON JOVI;
#TITLETRANSLIT:;
#SUBTITLETRANSLIT:;
#ARTISTTRANSLIT:;
#CREDIT:;
#BANNER:It's My Life-bn.png;
#BACKGROUND:It's My Life-bg.png;
#LYRICSPATH:;
#CDTITLE:;
#MUSIC:It's My Life.mp3;
#OFFSET:-0.100;
#SAMPLESTART:33.060;
#SAMPLELENGTH:16.160;
#SELECTABLE:YES;
#DISPLAYBPM:120.000;
#BPMS:0.000=120.020,125.000=121.500,128.000=120.000,130.000=116.560,133.000=118.720,134.000=120.220,138.000=121.900,140.000=120.020,148.000=122.720,149.000=120.000,153.000=121.640,155.000=121.460,156.000=120.000,157.000=120.040,158.000=118.820,159.000=111.800,160.000=120.100,191.000=118.060,192.000=120.020;
#STOPS:;
#BGCHANGES:-0.400=It's My Life.avi=1.000=1=1=0,
99999=-nosongbg-=1.000=0=0=0 // don't automatically add -songbackground-
;

//---------------dance-single - ----------------
#NOTES:
     dance-single:
     :
     Beginner:
     1:
     0.127,0.148,0.044,0.000,0.000:
0000
0000
0000
0000
,
0000
0000
0000
0000
,
0100
0100
0000
0000
,
0001
0000
0001
0000
,
0001
0000
0000
0000
,
0000
0000
0000
0000
,
1000
1000
0000
0000
,
0010
0000
1000
0000
,
0100
0100
0000
0000
,
0000
0000
0000
0000
,
1000
1000
0000
0000
,
0001
0000
0010
0000
,
0001
0000
0001
0000
,
0001
0000
0001
0000
,
0100
0000
0100
0000
,
0100
0000
0100
0000
,
0010
0010
0000
0000
,
1001
0000
0000
0000
,
0100
0100
0000
0000
,
1000
1000
0000
0000
,
0001
0001
0000
0000
,
0010
0000
0001
0000
,
1000
0000
0100
0000
,
1000
0000
0000
0000
,
0010
0000
0100
0100
,
0100
0000
0000
0000
,
0001
0001
0000
0000
,
1000
1000
0000
0000
,
0010
0010
0010
0010
,
0010
0000
0000
0000
,
1000
0000
0100
0000
,
0010
0000
0000
0000
,
0001
0000
1000
0000
,
1001
1001
0000
0000
,
0000
0000
0000
0000
,
0010
0000
0000
0000
,
0010
0000
1000
0000
,
0100
0000
0100
0000
,
1000
0000
0000
0000
,
1001
1001
0000
0000
,
0010
0000
0000
0000
,
1000
1000
0000
0000
,
0100
0000
0010
0000
,
0001
0000
1000
0000
,
0010
0000
0000
0000
,
0100
0100
0000
0000
,
0001
0001
0000
0000
,
1000
0000
0100
0100
,
0100
0000
0000
0000
,
1000
1000
0000
0000
,
0010
0000
0010
0000
,
1000
0000
0001
0000
,
0100
0000
0100
0000
,
0010
0000
1000
0000
,
0100
0100
0000
0000
,
1000
0000
0100
0000
,
0001
0000
0000
0000
;

//---------------dance-single - ----------------
#NOTES:
     dance-single:
     :
     Medium:
     5:
     0.290,0.346,0.150,0.256,0.000: // measure 1
0000
0000
0000
0000
,  // measure 2
0000
0000
0000
0000
,  // measure 3
1001
1001
0000
0100
,  // measure 4
0002
0013
0200
1300
,  // measure 5
1001
0000
0000
0000
,  // measure 6
0000
0000
0000
0000
,  // measure 7
0010
0000
0010
0000
0100
0000
0001
0100
,  // measure 8
0001
0001
1000
0000
,  // measure 9
0100
0000
0100
0000
1000
0000
0010
0100
,  // measure 10
0001
0100
0010
0000
,  // measure 11
0100
0000
0100
0000
0001
0000
0010
0100
,  // measure 12
1000
1000
0100
0000
,  // measure 13
2000
3100
2000
3100
,  // measure 14
0020
0000
0031
0000
0020
0000
0031
0100
,  // measure 15
0010
0010
0010
0100
,  // measure 16
0001
1000
0100
0000
2000
0000
0000
0000
,  // measure 17
0001
3001
0000
0000
,  // measure 18
0220
0330
0001
0100
,  // measure 19
1000
0010
1000
0100
,  // measure 20
0010
0010
0001
1000
,  // measure 21
0010
0000
0010
0000
0100
0001
1000
0000
,  // measure 22
0200
0300
1000
0010
,  // measure 23
1000
0001
0010
0001
,  // measure 24
0100
0100
0010
0100
,  // measure 25
0001
0000
1001
1001
,  // measure 26
2002
0000
3003
0000
0100
0100
0100
0000
,  // measure 27
1000
0010
0100
0010
,  // measure 28
1000
0000
1000
0000
0001
0010
0001
0000
,  // measure 29
0100
0001
1000
0000
,  // measure 30
0002
0003
0010
0001
,  // measure 31
0100
0000
0100
0000
0010
0000
1000
0100
,  // measure 32
1000
0000
0010
0000
,  // measure 33
1000
0000
0001
0000
,  // measure 34
0110
0110
0000
0100
,  // measure 35
0002
0000
2003
0000
,  // measure 36
3010
0000
1000
0000
,  // measure 37
0100
0010
0001
0000
,  // measure 38
0100
0000
0001
0000
,  // measure 39
1000
0010
0100
0000
,  // measure 40
1001
0110
0000
0000
,  // measure 41
0002
0000
0013
0001
,  // measure 42
0100
0010
1000
0101
,  // measure 43
0000
0000
0000
0000
0010
0100
0010
0000
,  // measure 44
2000
3100
0020
0031
,  // measure 45
0200
0000
0300
0000
0010
1000
0010
0000
,  // measure 46
0100
0001
1000
0100
,  // measure 47
0020
0000
0030
0000
,  // measure 48
1001
1001
0100
0100
,  // measure 49
2002
0000
3003
0000
0100
0100
0100
0000
,  // measure 50
1000
0010
0100
0001
,  // measure 51
0010
0100
1000
0001
,  // measure 52
0200
0310
2000
3001
,  // measure 53
0220
0000
0330
0000
0001
0010
0100
0000
,  // measure 54
1000
0000
0010
0000
1000
0000
0001
0100
,  // measure 55
0020
0000
0130
0001
,  // measure 56
2000
3000
0002
0003
,  // measure 57
0110
0000
0000
0000
;

//---------------dance-single - ----------------
#NOTES:
     dance-single:
     :
     Hard:
     8:
     0.388,0.420,0.326,0.406,0.000: // measure 1
0000
0000
0000
0000
,  // measure 2
0000
0000
0000
0000
,  // measure 3
1001
0000
1001
0000
0000
1000
0100
0010
,  // measure 4
0002
0000
0203
0000
,  // measure 5
0310
0000
0000
0000
,  // measure 6
0000
0000
0000
0000
,  // measure 7
0110
0000
0101
0000
1000
0010
0100
0000
,  // measure 8
0002
0000
2003
3000
,  // measure 9
1100
0000
1001
0000
0010
1000
0100
0000
,  // measure 10
0010
0000
0001
0000
0100
0010
1000
0000
,  // measure 11
1001
0000
0101
0000
0010
0000
1000
0001
,  // measure 12
0200
0000
0302
0003
,  // measure 13
1000
0100
1000
0000
0010
0000
0100
0000
,  // measure 14
0001
1000
0001
0000
0100
0000
0001
0010
,  // measure 15
0100
0000
0100
0000
0100
0000
0010
0001
,  // measure 16
1000
0001
1000
0000
0100
0000
0000
0000
,  // measure 17
1010
0000
0101
0000
0010
0100
0010
0000
,  // measure 18
2001
0000
0000
0000
3010
1000
0100
0000
,  // measure 19
0020
0000
0032
0000
0103
0001
1000
0000
,  // measure 20
0000
0000
0000
0000
0100
0001
0100
0010
,  // measure 21
2000
3002
0103
1010
,  // measure 22
1001
0000
0100
0000
0010
0001
0100
0010
,  // measure 23
0100
0000
0010
0000
1000
0000
0100
1000
,  // measure 24
0002
0003
0000
0000
,  // measure 25
1010
0100
1001
0110
,  // measure 26
0102
0000
0000
0000
1003
0100
1000
0100
,  // measure 27
0020
0032
0103
1010
,  // measure 28
0000
0000
1000
0100
1000
0010
0100
0000
,  // measure 29
0010
0100
0010
0000
2000
0000
3001
0000
,  // measure 30
0000
0000
0000
0000
0010
0001
0100
0000
,  // measure 31
0002
0103
0020
1030
,  // measure 32
0200
0300
0000
0000
,  // measure 33
0022
0033
2200
3300
,  // measure 34
1001
0000
1001
0000
0000
0010
1000
0010
,  // measure 35
0200
0000
0302
0000
,  // measure 36
1003
0000
0100
0000
1000
0000
0010
0100
,  // measure 37
0001
0000
0010
0000
0001
0000
1000
0010
,  // measure 38
0100
0000
0001
0000
0010
0000
0001
1000
,  // measure 39
0100
0000
0010
0000
0001
0100
1000
0000
,  // measure 40
0110
0000
1001
0000
0100
0100
0100
0000
,  // measure 41
1000
0100
1000
0100
0010
0001
0010
0002
,  // measure 42
0000
0203
0000
2300
0000
3200
0000
0000
,  // measure 43
0310
0000
1000
0000
0100
0010
0001
0000
,  // measure 44
0011
1100
1001
1010
,  // measure 45
0200
0000
0300
0000
0010
1000
0010
0100
,  // measure 46
0001
0000
0010
0000
0001
0000
1000
0100
,  // measure 47
2000
0000
3000
0000
0010
1000
0100
0000
,  // measure 48
1100
0001
0101
1010
,  // measure 49
0210
0000
0000
0310
0100
0001
0100
0010
,  // measure 50
2000
3002
2003
3002
,  // measure 51
0013
0000
0100
0000
0010
0001
0100
0000
,  // measure 52
0120
1030
2100
3001
,  // measure 53
0020
0000
0030
0000
0001
0010
0001
0100
,  // measure 54
0020
0000
1030
0000
0200
0000
0310
0001
,  // measure 55
2000
0001
0010
3100
,  // measure 56
2200
3300
0022
0033
,  // measure 57
1001
0000
0000
0000
;

//---------------dance-single - ----------------
#NOTES:
     dance-single:
     :
     Easy:
     3:
     0.209,0.247,0.176,0.132,0.000:
0000
0000
0000
0000
,
0000
0000
0000
0000
,
1001
1001
0000
0000
,
0010
0000
0100
0000
,
0110
0000
0000
0000
,
0000
0000
0000
0000
,
0100
0000
0001
1000
,
0010
0000
1000
0000
,
0100
0000
1000
0100
,
0010
0000
0001
0000
,
1000
0000
0010
1000
,
0001
0000
0100
0000
,
0020
0000
0230
0000
,
0302
0000
2003
0000
,
3100
0100
0100
0000
,
0010
0010
0010
0000
,
1001
1001
0000
0000
,
0220
0000
0000
0330
,
0001
0001
1000
0000
,
0100
0000
1000
0010
,
0100
0100
0100
0000
,
2002
3003
0100
0000
,
1000
0000
0010
0000
,
1000
0000
0001
0000
,
0010
0000
0001
1000
,
2002
3003
0100
0100
,
0010
0100
1000
0001
,
0000
0000
0100
0010
,
1000
0100
0010
0001
,
0100
0000
0001
1000
,
0010
0000
0100
0000
,
0010
0000
1000
0000
,
1001
0000
1100
0000
,
0011
0011
0000
0100
,
0000
1000
0000
0010
,
0200
0000
0000
0000
,
0302
0000
0000
0000
,
2003
0000
0000
0000
,
3020
0000
0000
0030
,
0110
0110
0000
0000
,
0020
0000
0130
0001
,
1000
0100
1000
0010
,
0000
0000
0100
0100
,
0001
1000
0100
0010
,
0001
0000
0010
0000
,
0001
0000
1000
0100
,
0010
0000
0001
0000
,
1000
0000
1001
0110
,
1001
0000
0100
1000
,
0100
0010
0001
0100
,
0001
0000
0100
0000
,
0010
0010
0100
0100
,
0001
0000
0010
0001
,
1000
0000
0100
0100
,
0100
0000
1000
0000
,
1100
0000
0011
0000
,
1001
0000
0000
0000
;
