#TITLE:Geek In The Pink;
#SUBTITLE:;
#ARTIST:JASON MRAZ;
#TITLETRANSLIT:;
#SUBTITLETRANSLIT:;
#ARTISTTRANSLIT:;
#CREDIT:;
#BANNER:Geek In The Pink-bn.png;
#BACKGROUND:Geek In The Pink-bg.png;
#LYRICSPATH:;
#CDTITLE:;
#MUSIC:Geek In The Pink.mp3;
#OFFSET:0.120;
#SAMPLESTART:43.584;
#SAMPLELENGTH:16.100;
#SELECTABLE:YES;
#DISPLAYBPM:92.000;
#BPMS:0.000=91.990,67.500=85.710,68.000=91.990;
#STOPS:;
#BGCHANGES:;

//---------------dance-single - ----------------
#NOTES:
     dance-single:
     :
     Beginner:
     1:
     0.100,0.108,0.022,0.000,0.000: // measure 1
0000
0000
0000
0000
,  // measure 2
1000
0000
0010
0000
,  // measure 3
1000
0000
0000
0000
,  // measure 4
0100
0000
0010
0000
,  // measure 5
0100
0000
0000
0000
,  // measure 6
0010
0000
0000
0001
,  // measure 7
0001
0000
0000
1000
,  // measure 8
1000
0000
0000
0100
,  // measure 9
0100
0000
0000
0010
,  // measure 10
0010
0000
0000
0001
,  // measure 11
0001
0000
0000
1000
,  // measure 12
1000
0000
0000
0100
,  // measure 13
0100
0000
0000
0000
,  // measure 14
1000
1000
1000
0000
,  // measure 15
1000
0000
0000
0000
,  // measure 16
0010
0000
0100
0000
,  // measure 17
0010
0000
0000
0000
,  // measure 18
1001
0000
0100
0000
,  // measure 19
1001
0000
0100
0000
,  // measure 20
0010
0000
0010
0000
,  // measure 21
0001
0001
0001
0000
,  // measure 22
1000
0000
0000
0010
,  // measure 23
0010
0000
0000
1000
,  // measure 24
1000
0000
0000
0100
,  // measure 25
0100
0000
0010
0000
,  // measure 26
0001
0000
1000
0000
,  // measure 27
1000
0000
0100
0000
,  // measure 28
1000
0000
1000
0000
,  // measure 29
0010
0000
0100
0000
,  // measure 30
0001
0000
0001
0000
,  // measure 31
1000
0000
0010
0000
,  // measure 32
0100
0000
0100
0000
,  // measure 33
0001
0000
0000
1000
,  // measure 34
1000
0000
0000
0000
;

//---------------dance-single - ----------------
#NOTES:
     dance-single:
     :
     Medium:
     4:
     0.252,0.252,0.109,0.142,0.000: // measure 1
0000
0000
0000
0000
,  // measure 2
0100
0010
0100
0000
0001
0000
1000
0000
,  // measure 3
0200
1000
1300
0000
,  // measure 4
0001
0010
0001
0000
1000
0000
0001
0000
,  // measure 5
0200
0001
0301
0000
,  // measure 6
1010
0100
0001
1000
,  // measure 7
0011
0100
0001
1000
,  // measure 8
0110
1000
0001
0100
,  // measure 9
1010
0000
0100
0000
1000
0001
1000
0000
,  // measure 10
0110
1000
0001
0010
,  // measure 11
0011
0000
1000
0000
0001
0100
0001
1000
,  // measure 12
0100
0000
1000
0000
0010
0100
0010
0000
,  // measure 13
1001
0000
0000
0000
0100
0100
0000
0000
,  // measure 14
2000
0000
0100
0000
3100
0000
0010
1000
,  // measure 15
0001
0000
0100
0000
,  // measure 16
0001
0000
1000
0000
0100
0100
0100
0000
,  // measure 17
2000
0000
3002
0100
,  // measure 18
1003
0100
0110
0001
,  // measure 19
0100
0001
1010
0100
,  // measure 20
0001
1000
0100
0000
1000
1000
1000
0000
,  // measure 21
0100
1000
0001
0000
0010
0010
0010
0000
,  // measure 22
0002
0100
1003
0000
,  // measure 23
2000
0100
3001
0000
,  // measure 24
0020
0130
0002
0103
,  // measure 25
1000
1000
0100
0100
0010
0010
0001
0001
,  // measure 26
0100
0010
0100
0000
0001
0000
1000
0000
,  // measure 27
0200
0010
1300
0000
,  // measure 28
0010
1000
0010
0000
0100
0000
0001
0000
,  // measure 29
2000
0100
3100
0000
,  // measure 30
0010
1000
0001
0000
0010
0000
0001
0000
,  // measure 31
0200
0000
0001
0301
0000
0000
0000
0000
,  // measure 32
0001
0010
0100
0000
0010
0000
0001
0000
,  // measure 33
2000
0000
0010
3010
0000
0000
0100
0100
,  // measure 34
0110
0000
0000
0000
;

//---------------dance-single - ----------------
#NOTES:
     dance-single:
     :
     Hard:
     8:
     0.378,0.324,0.076,0.218,0.104: // measure 1
0000
0000
0000
0000
,  // measure 2
1000
0001
0200
0000
0301
1000
0100
0020
,  // measure 3
0000
0000
0031
0000
1000
0100
1000
0100
0000
0000
0000
0000
0000
0000
0000
0000
,  // measure 4
1000
0001
0200
0000
0310
1000
0001
2000
,  // measure 5
0000
0000
3100
0000
0010
0001
0010
0001
0000
0000
0000
0000
0000
0000
0000
0000
,  // measure 6
1000
0001
0100
0100
0010
1000
0100
1000
,  // measure 7
0000
0001
0100
0010
0100
0100
0001
1000
,  // measure 8
0000
0100
1000
0010
0100
0100
0010
1000
,  // measure 9
0001
0001
0010
0100
1000
0010
0000
0000
,  // measure 10
0100
0001
1000
1000
0100
0100
0010
0010
,  // measure 11
0001
0000
1000
0010
0000
0000
1000
0000
0100
0000
0010
0000
0001
0000
0000
0000
,  // measure 12
0100
0000
0001
0000
1000
0000
0100
0000
1000
0010
0000
0000
0100
0010
0000
0000
,  // measure 13
1000
0100
1000
0001
0010
0100
0010
0010
,  // measure 14
0002
0000
0023
0000
0230
0000
1300
0010
,  // measure 15
2000
0000
0000
0000
3000
0000
0001
1000
0000
0001
0000
0000
0000
0000
0100
0010
,  // measure 16
0000
2000
0000
3100
1000
0001
0010
0100
,  // measure 17
0020
0000
0000
0000
0032
0000
0000
0000
2003
0000
0000
0000
3100
0010
0100
0000
,  // measure 18
1000
0100
0010
0001
0101
0000
0010
0001
,  // measure 19
0100
0010
1000
0001
1001
0000
1000
0100
,  // measure 20
0010
0001
0100
1000
0100
0010
1000
0100
,  // measure 21
0010
0010
0001
0001
1000
0000
0100
1000
,  // measure 22
0010
0100
0001
0010
0011
0000
0010
0001
,  // measure 23
1000
0100
1000
0010
0110
0000
1000
0010
,  // measure 24
0100
0001
0010
1000
0010
0010
0100
0100
,  // measure 25
1000
0010
0100
0001
1000
0001
0010
0100
,  // measure 26
1000
0001
0200
0000
0310
1000
0001
0020
,  // measure 27
0000
0000
0031
0000
1000
0100
0010
0001
0000
0000
0000
0000
0000
0000
0000
0000
,  // measure 28
0100
0001
2000
0000
3010
1000
0100
0020
,  // measure 29
0000
0000
0031
0000
0010
0100
1000
0001
0000
0000
0000
0000
0000
0000
0000
0000
,  // measure 30
0100
0001
2000
0000
3010
1000
0001
0020
,  // measure 31
0000
0000
0031
0000
1000
0010
1000
0001
0000
0000
0000
0000
0000
0000
0000
0000
,  // measure 32
0100
0001
2000
0000
3010
1000
0100
0002
,  // measure 33
0000
0000
0103
0000
1000
0010
0100
0001
0000
0000
0000
0000
0110
0000
1001
0000
,  // measure 34
1100
0000
0000
0000
;

//---------------dance-single - ----------------
#NOTES:
     dance-single:
     :
     Easy:
     2:
     0.149,0.144,0.033,0.087,0.000: // measure 1
0000
0000
0000
0000
,  // measure 2
0100
0001
1000
1000
,  // measure 3
0200
0300
0000
0000
,  // measure 4
1000
0001
0010
0010
,  // measure 5
0002
0003
0000
0000
,  // measure 6
1000
0000
0010
1000
,  // measure 7
0100
0000
1000
0100
,  // measure 8
0010
0000
0001
0100
,  // measure 9
0010
0000
1000
0001
,  // measure 10
0100
0000
0001
1000
,  // measure 11
0100
0000
1000
0100
,  // measure 12
0010
0000
0100
1000
,  // measure 13
0001
0000
0000
0000
,  // measure 14
0100
0100
0100
0000
,  // measure 15
0001
0000
1000
0000
,  // measure 16
0010
0000
1000
0000
,  // measure 17
2002
0000
0000
3003
,  // measure 18
0100
0100
1000
0000
,  // measure 19
0001
0001
0100
0000
,  // measure 20
0001
1000
0010
0010
,  // measure 21
1000
0001
0100
0000
,  // measure 22
0001
0001
1000
0000
,  // measure 23
0100
0100
0010
0000
,  // measure 24
0100
1000
0010
0010
,  // measure 25
1000
0001
0100
0010
,  // measure 26
0010
0000
1000
0000
,  // measure 27
0200
0300
0100
0000
,  // measure 28
1000
0000
0001
0000
,  // measure 29
0020
0030
0010
0000
,  // measure 30
0001
0000
1000
0000
,  // measure 31
0002
0003
0001
0000
,  // measure 32
0100
0000
0001
0000
,  // measure 33
2000
3000
1000
0110
,  // measure 34
1001
0000
0000
0000
;
