#TITLE:Eat Randy;
#SUBTITLE:;
#ARTIST:JULIAN SMITH;
#TITLETRANSLIT:;
#SUBTITLETRANSLIT:;
#ARTISTTRANSLIT:;
#CREDIT:;
#BANNER:Eat Randy-bn.png;
#BACKGROUND:Eat Randy-bg.png;
#LYRICSPATH:;
#CDTITLE:;
#MUSIC:Eat Randy.mp3;
#OFFSET:-0.060;
#SAMPLESTART:26.528;
#SAMPLELENGTH:16.120;
#SELECTABLE:YES;
#BPMS:0.000=145.020,214.000=135.540,215.000=122.640,216.000=111.440,216.500=92.620,217.000=86.900,217.500=74.860,218.000=62.460,218.500=52.760,219.000=145.020;
#DISPLAYBPM:145;
#STOPS:;
#BGCHANGES:-0.400=Eat Randy.avi=1.000=1=0=0,
282.500=Black.png=1.000=0=0=1,
99999=-nosongbg-=1.000=0=0=0 // don't automatically add -songbackground-
;

//---------------dance-single - ----------------
#NOTES:
     dance-single:
     :
     Beginner:
     1:
     0.162,0.207,0.050,0.017,0.000:
0000
0000
0000
0000
,
0000
0000
0000
0000
,
1000
0000
1000
0000
,
1000
0000
0000
0000
,
1001
0000
0100
0000
,
0001
0000
0010
0000
,
0100
0000
0100
0000
,
1000
0000
0001
0000
,
1000
1000
0000
0000
,
0010
0010
0000
0000
,
0100
0100
0000
0000
,
0010
0010
0000
0000
,
0001
0001
0000
0000
,
1000
1000
0000
0000
,
0100
0100
0000
0000
,
0000
0000
0000
0000
,
1001
0000
0100
0000
,
0100
0000
1000
0000
,
0010
0000
0010
0000
,
1000
0000
0001
0000
,
0100
0100
0100
0100
,
0100
0000
0000
0000
,
0001
0001
0001
0001
,
0001
0000
0000
0000
,
0010
0000
0000
0000
,
0100
0000
0000
0000
,
1000
0000
0000
0000
,
0001
0000
0000
0000
,
0100
0000
0100
0000
,
0100
0000
0100
0000
,
0001
0000
0001
0000
,
0000
0000
0000
0000
,
1001
0000
1000
0000
,
0100
0000
1000
0000
,
0010
0000
0010
0000
,
1000
0000
0001
0000
,
1000
1000
1000
1000
,
1000
0000
0000
0000
,
0001
0001
0001
0001
,
0001
0000
0000
0000
,
0010
0000
0000
0010
,
0000
0010
0000
0100
,
0000
1000
0000
0001
,
0000
1000
0000
0010
,
0010
0000
1000
0000
,
0100
0000
1000
0000
,
0001
0000
0100
0000
,
0001
0000
1000
0000
,
1001
0000
0000
0000
,
0100
0000
0000
0000
,
0100
0000
0000
0000
,
0100
0000
0000
0000
,
2002
0000
0000
0000
,
0000
0000
0000
0000
,
0000
0000
3003
0100
,
0000
0000
0000
1000
,
0000
0000
0000
0001
,
0000
0000
0000
0100
,
0000
0000
0000
0010
,
0010
0010
0000
0100
,
0100
0100
0000
1000
,
1000
1000
0000
0001
,
0001
0001
0000
0100
,
0100
0000
0001
0000
,
1000
0000
0010
0010
,
0010
0000
1000
0000
,
0001
0000
1000
1000
,
0000
1000
0000
0100
,
0000
0100
0000
1000
,
0000
0001
0000
0100
,
0100
0100
0000
0110
;

//---------------dance-single - ----------------
#NOTES:
     dance-single:
     :
     Medium:
     7:
     0.388,0.413,0.250,0.083,0.000:
0000
0000
0000
0000
,
0000
0000
0000
0000
,
0100
0010
0000
0000
0100
0010
0000
0000
,
1000
0001
0000
0000
0000
1000
0001
1000
,
0200
1000
1000
2300
,
3020
0100
0100
0230
,
0302
0103
2000
3010
,
0200
0310
0002
1003
,
0100
0001
1000
0100
,
1000
0000
1000
0000
0100
1000
0010
0000
,
0100
0100
0001
1000
,
0001
0000
0001
0000
0010
0001
0100
0000
,
0001
0001
0100
0010
,
1000
0100
1000
0001
,
0100
0010
1000
0100
,
0000
0000
1001
0000
0100
0100
0100
0000
,
1100
0101
1000
0001
,
0010
0000
0100
0000
1000
1000
1000
0000
,
1010
1001
0100
0001
,
0010
0000
0100
0000
0010
0010
0010
0000
,
1100
1001
0100
0010
,
1000
1000
1000
0000
0100
0000
0010
0000
,
0011
1001
0100
1000
,
0010
0010
0010
0000
0100
0000
0000
0000
,
1001
0100
1000
0010
,
0100
0001
0010
0001
,
1001
0100
1000
0010
,
1000
1000
0100
0010
,
0001
0001
0001
0000
0100
0000
0010
0000
,
1000
1000
1000
0000
0100
0000
1000
0000
,
0010
0100
0001
0000
1000
0000
0001
0000
,
0010
0100
1000
0000
0000
0000
1100
0000
,
1001
0000
0110
0000
0001
0100
0100
0000
,
0010
0000
1000
0000
0100
0010
0001
0000
,
1100
0000
1001
0000
1000
0100
0100
0000
,
1000
0000
0010
0000
0100
0001
1000
0000
,
1010
1001
0101
0010
,
0100
0000
0001
0000
0010
0100
1000
0000
,
1100
1001
0101
0010
,
0100
0000
0001
0000
1000
0001
0100
0000
,
0010
0010
0100
0100
,
0001
1000
0001
1000
,
0010
0010
1000
1000
,
0100
0010
0100
0010
,
0001
1000
0001
0000
1000
0001
1000
0000
,
0100
0010
0100
0000
0010
0100
0010
0000
,
0001
0010
0100
0000
1000
0001
0100
0000
,
0010
1000
0001
0000
0100
0001
1000
0000
,
0200
0000
0000
0000
,
0000
0000
0000
0000
,
0320
0000
0000
0000
,
0000
0000
0000
0000
,
0030
0000
0000
0000
,
0000
0000
0000
0000
,
0000
0000
0000
0110
,
1001
0100
0100
1000
,
1000
0000
0010
1000
0001
0000
0110
0000
,
1001
0100
0100
0001
,
0001
0000
0010
0001
0100
0000
0010
0010
,
0000
1000
0000
0100
0000
0000
1000
0000
,
0100
0000
0000
1000
0100
0000
0010
0010
,
0000
0001
0000
0100
0000
0000
0001
0000
,
0100
0000
1000
0100
0001
0000
0101
0000
,
0101
1000
0001
0010
,
0100
0000
1000
0010
0100
0000
1010
0000
,
1010
0001
1000
0100
,
0010
0000
0001
0100
0010
0000
1000
0100
,
1000
0010
1000
0001
,
0001
0000
0100
0001
0100
0000
0010
0100
,
0010
0000
0100
0000
0001
0000
1000
0100
,
1000
0100
1000
0010
0100
0001
0000
0000
;

//---------------dance-single - ----------------
#NOTES:
     dance-single:
     :
     Hard:
     11:
     0.522,0.531,0.468,0.067,0.063: // measure 1
0000
0000
0000
0000
,  // measure 2
0000
0000
0000
0000
,  // measure 3
0100
0001
0000
0000
1000
0100
0000
0000
,  // measure 4
0010
0001
0000
0000
0000
1000
0010
1000
,  // measure 5
0002
0000
0100
0000
0103
0020
0000
1000
,  // measure 6
2030
0000
0001
0000
3001
0200
0000
0010
,  // measure 7
0310
0100
0001
0001
0100
0010
1000
0000
,  // measure 8
0100
1000
0001
0001
0000
1000
0100
0000
,  // measure 9
1000
0000
0010
0100
0000
0100
0001
0000
,  // measure 10
0010
0000
1001
0000
0100
0010
0110
0000
,  // measure 11
1000
0000
0010
0100
1000
0100
0001
0000
,  // measure 12
1000
1100
0000
0110
,  // measure 13
0001
0000
1000
0100
0000
0100
1000
0000
,  // measure 14
0010
0000
0110
0000
1000
0010
1010
0000
,  // measure 15
0100
0000
0001
0010
1000
0010
0001
0000
,  // measure 16
0000
0000
0110
0000
0001
0010
1000
0000
,  // measure 17
1001
0000
1001
0000
0100
1000
0100
0000
,  // measure 18
0010
0010
0001
0000
1000
0001
0100
0000
,  // measure 19
1001
0000
1001
0000
0010
1000
0100
0000
,  // measure 20
1000
1000
0001
0000
1000
0100
0010
0000
,  // measure 21
1001
0000
1001
0000
0100
0100
1000
0010
,  // measure 22
0100
0010
1000
0000
0100
0001
0100
0000
,  // measure 23
1001
0000
1001
0000
0100
0100
0010
0001
,  // measure 24
1000
0100
1000
0000
0000
0010
0100
0001
,  // measure 25
1000
0100
1000
0000
0001
0100
0001
0000
,  // measure 26
0100
0010
0100
0000
0001
0000
1000
0000
,  // measure 27
1100
1001
0100
0010
,  // measure 28
0101
1001
0100
0010
,  // measure 29
0001
0010
0100
1000
1000
0100
0010
0000
,  // measure 30
0001
1000
0001
0000
1000
0100
1000
0000
,  // measure 31
1010
1001
0101
1001
,  // measure 32
0020
0000
0130
0000
0000
0100
0001
0100
,  // measure 33
0101
0000
1001
0000
0100
1000
0010
0000
,  // measure 34
0100
0100
0001
0001
1000
0100
0010
0000
,  // measure 35
1100
0000
0101
0000
1000
0001
0100
0000
,  // measure 36
0010
0010
0100
0100
0001
0010
0100
0000
,  // measure 37
1001
0000
1001
0000
0100
0100
0010
0100
,  // measure 38
0001
0100
1000
0000
0010
1000
0010
0000
,  // measure 39
1001
0000
1100
0000
1000
1000
0001
0010
,  // measure 40
1000
0010
0100
0000
0010
0001
0100
0100
,  // measure 41
0010
1000
0010
1000
0000
0100
0000
0100
,  // measure 42
1000
0000
0001
0000
1000
0100
0001
0000
,  // measure 43
0010
0001
0010
0010
0001
0001
1000
0000
,  // measure 44
0010
0100
1000
1000
0000
0010
0100
0000
,  // measure 45
0011
1001
1100
1001
,  // measure 46
1010
0000
0101
0000
1000
0001
0100
0000
,  // measure 47
0110
0101
0011
1100
,  // measure 48
1001
0001
0100
0100
0000
1000
0100
0001
,  // measure 49
0200
0000
0000
0010
0000
0010
0000
0000
0000
0010
0000
0010
,  // measure 50
0000
0000
0000
0010
0000
0010
0000
0000
0000
0010
0000
0010
,  // measure 51
0000
0000
0000
0010
0000
0010
0000
0000
0000
0010
0000
0010
,  // measure 52
0000
0000
0000
0010
0000
0010
0000
0000
0000
0310
0000
0000
,  // measure 53
2002
0000
0000
0000
,  // measure 54
0000
0000
0000
0000
,  // measure 55
0000
0000
3003
0101
,  // measure 56
1010
0100
1000
0001
,  // measure 57
0010
0000
0001
0100
0010
0000
1010
0000
,  // measure 58
1100
1000
0001
0010
,  // measure 59
0001
0000
0100
0010
1000
0000
0001
0100
,  // measure 60
0010
0100
0001
1000
0100
1000
0001
0010
,  // measure 61
1000
0010
0001
1000
0100
1000
0010
0100
,  // measure 62
0001
0000
1000
0000
0100
0000
0010
0000
0001
0000
0100
0000
0001
1000
0000
0100
,  // measure 63
1000
0000
0010
0100
0000
0001
1000
0000
0100
0000
0010
0000
0011
0000
0000
0000
,  // measure 64
1100
0000
0010
1000
0100
1000
0010
0100
,  // measure 65
0001
0100
0010
1000
0001
0000
1100
0000
,  // measure 66
1001
0000
0010
0001
0100
1000
0100
0010
,  // measure 67
1000
0100
0010
0001
1000
0000
0110
0000
,  // measure 68
1001
0000
0100
0100
1000
1000
0010
0001
,  // measure 69
0010
0000
0100
0001
0010
0000
0110
0000
,  // measure 70
0011
0000
0000
0000
1000
0000
1000
0000
0001
0000
0001
0000
0010
1000
0000
0010
,  // measure 71
0001
0000
0010
0100
0000
0010
0001
0000
0100
0000
1001
0000
0000
0000
0000
0000
;

//---------------dance-single - ----------------
#NOTES:
     dance-single:
     :
     Easy:
     5:
     0.299,0.324,0.117,0.050,0.000:
0000
0000
0000
0000
,
0000
0000
0000
0000
,
0100
0000
0100
0000
,
0100
0000
0000
0000
,
0020
0100
0130
1000
,
0002
1000
1003
0010
,
2000
0100
3100
0001
,
0200
0010
0310
0001
,
1000
0100
1000
0010
,
0100
0100
0010
1000
,
0001
0010
0001
1000
,
0010
0010
0000
0000
0000
0000
0000
0000
,
0001
1000
0100
1000
,
0001
0010
0001
0100
,
0010
0100
0001
1000
,
0000
0000
0010
0010
,
1001
1001
0100
1000
,
0010
1000
0001
0000
,
1100
1100
0010
1000
,
0001
1000
0010
0000
,
0100
0100
0001
0001
,
1000
1000
0100
0100
,
0010
0010
0001
0001
,
1000
1000
0000
0000
,
0001
0100
0100
0010
,
1000
0001
1000
1000
,
0100
1000
0010
0100
,
0001
0001
0000
0000
0000
0000
0000
0000
,
0100
0001
1000
0100
,
1000
1000
0010
0010
,
0100
0001
0100
0010
,
0000
0000
1000
1000
,
1100
1100
0000
0100
,
1000
0010
1000
0001
,
0101
0101
0000
0010
,
0001
0100
0010
0000
,
1001
1000
0100
0100
,
0001
0001
0100
0100
,
1000
0010
0100
0010
,
1000
0001
0000
0000
,
0100
0100
0010
0010
,
1000
0100
1000
0001
,
0010
0001
0100
0010
,
0100
0100
0001
0001
,
1000
0100
0001
0100
,
1000
0100
0001
0100
,
1000
0010
0001
0010
,
1000
0010
0001
0010
,
1000
0000
0100
0000
,
0010
0000
0001
0000
,
0100
0000
0001
0000
,
1000
0000
0100
0000
,
2002
0000
0000
0000
,
0000
0000
0000
0000
,
0000
0000
3003
0110
,
0110
0000
1000
0000
,
0001
0000
0100
0101
,
0101
0000
1000
0000
,
0010
0000
1000
0100
,
0100
1000
0010
0100
,
0100
0001
1000
0001
,
0001
0010
0001
0100
,
0100
0000
0100
0010
0100
0000
0001
0000
,
1000
0100
1000
0010
,
0100
0001
0010
0001
,
1000
0100
1000
0010
,
0100
0010
1000
0100
,
0100
1000
1000
0001
,
0001
0100
0010
1000
,
1000
0001
0001
0010
,
0010
0000
0001
0000
0100
0010
0000
0000
;
