#TITLE:COTTON EYE JOE (DJ SPLASH MIX);
#SUBTITLE:;
#ARTIST:Rednex;
#TITLETRANSLIT:;
#SUBTITLETRANSLIT:;
#ARTISTTRANSLIT:;
#CREDIT:;
#BANNER:Cotton Eye Joe (DJ Splash Mix)-bn.png;
#BACKGROUND:Cotton Eye Joe (DJ Splash Mix)-bg.png;
#LYRICSPATH:;
#CDTITLE:;
#MUSIC:Cotton Eye Joe (DJ Splash Remix).mp3;
#OFFSET:-0.040;
#SAMPLESTART:26.810;
#SAMPLELENGTH:14.780;
#SELECTABLE:YES;
#BPMS:0.000=142.960;
#STOPS:;
#BGCHANGES:;

//---------------dance-single - ----------------
#NOTES:
     dance-single:
     :
     Beginner:
     1:
     0.146,0.233,0.071,0.000,0.000:
0000
0000
0000
0000
,
0000
0000
0000
0000
,
0000
0000
0000
0000
,
0000
0000
0000
0000
,
0000
0000
0000
0000
,
0000
0000
0000
0000
,
0000
0000
0000
0000
,
0000
0000
0000
0000
,
1000
0000
0000
0000
,
0001
0000
0000
0000
,
0100
0000
0000
0000
,
0010
0000
0000
0000
,
1000
0000
0000
0000
,
0001
0000
0000
0000
,
1000
0000
0000
0000
,
1001
0000
0000
0000
,
0010
0000
0010
0000
,
1000
0000
1000
0000
,
0100
0000
0100
0000
,
0010
0000
0010
0000
,
0001
0000
0001
0000
,
0100
0000
0100
0000
,
0010
0000
0010
0000
,
1001
0000
0000
0000
,
1000
0000
1000
0000
,
0001
0000
0001
0000
,
0100
0000
0100
0000
,
0010
0000
0010
0000
,
1000
0000
1000
0000
,
0100
0000
0100
0000
,
0010
0000
0010
0000
,
1001
0000
0000
0000
,
0000
0000
0000
0000
,
1000
1000
1000
0000
,
0001
0000
0001
0000
,
0100
0100
0100
0000
,
0010
0000
0010
0000
,
1000
1000
1000
0000
,
0100
0000
0100
0000
,
0010
0010
0010
0000
,
1001
0000
0000
0000
,
0001
0001
0001
0000
,
1000
1000
1000
0000
,
0010
0010
0010
0000
,
1000
1000
1000
0000
,
0100
0100
0100
0000
,
0010
0010
0010
0000
,
0001
0001
0001
0000
,
1001
0000
0000
0000
,
1001
0000
0000
0000
;

//---------------dance-single - ----------------
#NOTES:
     dance-single:
     :
     Medium:
     8:
     0.459,0.473,0.262,0.131,0.000: // measure 1
0000
0000
0000
0000
,  // measure 2
0000
0000
0000
0000
,  // measure 3
0000
0000
0000
0000
,  // measure 4
0000
0000
0000
0000
,  // measure 5
2000
0100
0000
0100
,  // measure 6
0000
0010
0000
0010
,  // measure 7
0000
0001
0000
0001
,  // measure 8
0000
0010
0000
3010
,  // measure 9
0100
0001
0100
0000
0101
0000
0000
0000
,  // measure 10
1000
0100
1000
0000
1100
0000
0000
0000
,  // measure 11
0010
0100
0010
0000
0110
0000
0000
0000
,  // measure 12
0010
0001
0010
0000
0011
0000
0000
0000
,  // measure 13
1000
0001
1000
0000
1001
0000
0000
0000
,  // measure 14
1000
0010
1000
0000
1010
0000
0000
0000
,  // measure 15
0100
0001
0100
0000
0101
0000
0000
0000
,  // measure 16
2002
0000
0000
3003
,  // measure 17
0010
1000
0010
0000
2000
0000
3100
0000
,  // measure 18
0010
0001
0010
0000
0002
0000
0103
0000
,  // measure 19
0010
1000
0010
1000
0010
0100
0010
0000
,  // measure 20
0001
0100
0001
0100
0001
1000
0001
0000
,  // measure 21
1000
0100
1000
0000
0020
0000
1030
0000
,  // measure 22
0001
0100
0001
0000
0020
0000
0130
0000
,  // measure 23
1000
0100
1000
0100
0010
0100
0010
0000
,  // measure 24
0101
0011
1100
1010
,  // measure 25
0001
0100
0001
0000
0010
0100
0010
0000
,  // measure 26
0001
1000
0001
1000
0010
1000
0010
0000
,  // measure 27
0001
1000
0001
0000
0100
1000
0100
0000
,  // measure 28
0010
1000
0010
1000
0100
1000
0100
0000
,  // measure 29
0010
0001
0010
0000
0001
0100
0001
0000
,  // measure 30
0100
0010
0100
0010
1000
0010
1000
0000
,  // measure 31
0001
1000
0001
1000
0010
0100
0010
0100
,  // measure 32
2002
0000
0000
0000
,  // measure 33
3000
0000
0000
0000
1000
1000
1003
0000
,  // measure 34
0010
1000
0010
0100
0010
1000
0010
0000
,  // measure 35
0100
0001
0100
0000
0001
0010
0001
0000
,  // measure 36
0100
1000
0100
1000
0010
1000
0010
0000
,  // measure 37
0001
1000
0001
0100
0001
1000
0001
0000
,  // measure 38
0010
0100
0010
1000
0010
0100
0010
0000
,  // measure 39
0001
0100
0001
0000
1000
0100
1000
0000
,  // measure 40
0010
1000
0010
0100
0010
1000
0010
0000
,  // measure 41
0101
1001
1010
1001
,  // measure 42
0100
0001
0100
0010
0100
0001
0100
0000
,  // measure 43
0001
0010
0100
0000
1000
0001
0100
0000
,  // measure 44
0010
1000
0010
1000
0010
0100
0010
0000
,  // measure 45
0001
0100
0001
0100
0001
0010
0001
0000
,  // measure 46
1000
0010
1000
0100
1000
0010
1000
0000
,  // measure 47
0001
0100
0010
0000
1000
0100
0010
0000
,  // measure 48
0001
1000
0001
1000
0010
1000
0010
0000
,  // measure 49
1001
0101
0110
1001
,  // measure 50
2020
0000
0000
3030
;

//---------------dance-single - ----------------
#NOTES:
     dance-single:
     :
     Hard:
     12:
     0.568,0.592,0.393,0.071,0.416: // measure 1
0000
0000
0000
0000
,  // measure 2
0000
0000
0000
0000
,  // measure 3
0000
0000
0000
0000
,  // measure 4
0000
0000
0000
0000
,  // measure 5
0000
0101
0000
0101
,  // measure 6
0000
1100
0000
1100
,  // measure 7
0000
1010
0000
1010
,  // measure 8
0000
0011
0000
0011
,  // measure 9
0001
0000
0100
0000
0001
0100
0000
0000
0001
0000
0000
0000
0101
0000
0000
0000
,  // measure 10
1000
0000
0100
0000
1000
0100
0000
0000
1000
0000
0000
0000
1100
0000
0000
0000
,  // measure 11
0010
0000
1000
0000
0010
1000
0000
0000
0010
0000
0000
0000
1010
0000
0000
0000
,  // measure 12
0100
0000
0001
0000
0100
0001
0000
0000
0100
0000
0101
0000
0101
0000
0000
0000
,  // measure 13
0010
0000
0100
0000
0010
0100
0000
0000
0010
0000
0000
0000
0110
0000
0000
0000
,  // measure 14
0001
0000
0010
0000
0001
0010
0000
0000
0001
0000
0000
0000
0011
0000
0000
0000
,  // measure 15
0100
0000
1000
0000
0100
1000
0000
0000
0100
0000
0000
0000
1100
0000
0000
0000
,  // measure 16
2002
0000
0000
3003
,  // measure 17
0100
0010
0000
0000
1000
0000
0100
0000
0010
0000
0001
0000
0100
0000
0000
0000
,  // measure 18
0010
1000
0010
0000
0100
0001
0100
0000
,  // measure 19
0010
0100
0000
0000
1000
0000
1000
0000
0010
0100
0000
0000
0001
0000
0000
0000
,  // measure 20
0010
0100
0000
0000
1000
0000
1000
0000
0101
0000
0101
0000
0101
0000
0000
0000
,  // measure 21
0010
0100
0000
0000
0001
0000
0010
0000
0100
0000
1000
0000
0010
0000
0000
0000
,  // measure 22
0100
0001
0100
0000
0010
1000
0010
0000
,  // measure 23
0100
0010
0000
0000
0001
0000
0001
0000
0100
0010
0000
0000
1000
0000
0000
0000
,  // measure 24
1001
0101
0011
1100
,  // measure 25
0001
0100
0000
0100
0001
0000
0000
0000
0010
0000
0100
0000
0010
0000
0000
0000
,  // measure 26
0001
0100
0001
0100
0010
0100
0010
0000
,  // measure 27
1000
0100
0000
0100
1000
0000
0000
0000
0010
0100
0000
0100
0010
0000
0000
0000
,  // measure 28
0001
0010
0000
0010
0001
0000
0000
0000
1001
0000
1001
0000
1001
0000
0000
0000
,  // measure 29
1000
0010
0000
0010
1000
0000
0000
0000
0100
0000
0010
0000
0100
0000
0000
0000
,  // measure 30
1000
0010
1000
0010
0100
0010
0100
0000
,  // measure 31
0001
0010
0000
0010
0001
0000
0000
0000
0100
0010
0000
0010
0100
0000
0000
0000
,  // measure 32
2002
0000
0000
0000
,  // measure 33
0000
0000
0000
0003
0010
0010
3010
0000
,  // measure 34
0001
1000
0000
1000
0010
0000
0010
1000
0000
1000
0100
0000
0100
0010
0000
0000
,  // measure 35
0001
0100
0001
0100
0010
0100
0010
0000
,  // measure 36
1000
0000
0010
1000
0010
0000
1000
0000
0001
0000
0100
0001
0100
0000
0000
0000
,  // measure 37
0001
0010
0000
0010
0100
0000
1000
0000
0001
0000
1000
0000
0001
1000
0000
0000
,  // measure 38
0100
0010
0000
0010
0001
0000
0001
0100
0000
0100
0010
0000
0010
1000
0000
0000
,  // measure 39
0001
1000
0100
1000
0010
1000
0001
0000
,  // measure 40
0100
0000
0001
0100
0001
0000
0010
0000
0100
0000
1000
0100
1000
0000
0000
0000
,  // measure 41
0001
1000
0000
1000
0010
0000
0100
0000
0001
0000
0010
0000
0100
1000
0000
0000
,  // measure 42
0001
1000
0000
1000
0010
0000
0010
1000
0000
1000
0100
0000
0010
0000
0000
0000
,  // measure 43
0001
0000
0100
0000
0010
0000
1000
0000
0001
0000
0010
0100
0010
0000
0000
0000
,  // measure 44
0001
0100
0000
0100
0010
0000
1000
0000
0001
0010
0000
0010
0100
0000
0000
0000
,  // measure 45
1000
0010
0000
0010
1000
0000
0100
0000
0010
0001
0010
0000
0001
1000
0000
0000
,  // measure 46
1000
0001
0000
0001
0100
0000
0100
0001
0000
0001
0010
0000
0100
0000
0000
0000
,  // measure 47
1000
0000
0010
0000
0100
0000
0001
0000
1000
0000
0100
0010
0100
0000
0000
0000
,  // measure 48
1000
0010
0000
0010
0100
0000
0001
0000
1000
0100
0000
0100
0010
0000
0000
0000
,  // measure 49
0101
0110
1010
1100
,  // measure 50
2002
0000
0000
3003
;

//---------------dance-single - ----------------
#NOTES:
     dance-single:
     :
     Easy:
     5:
     0.306,0.385,0.178,0.167,0.000: // measure 1
0000
0000
0000
0000
,  // measure 2
0000
0000
0000
0000
,  // measure 3
0000
0000
0000
0000
,  // measure 4
0000
0000
0000
0000
,  // measure 5
0020
0100
0000
0100
,  // measure 6
0000
0001
0000
0001
,  // measure 7
0000
1000
0000
1000
,  // measure 8
0000
0001
0000
0031
,  // measure 9
1000
0100
1100
0000
,  // measure 10
0001
0100
0101
0000
,  // measure 11
0010
0100
0110
0000
,  // measure 12
0001
1000
1001
0000
,  // measure 13
0100
1000
2100
3000
,  // measure 14
0010
1000
1020
0030
,  // measure 15
0001
0100
0201
0300
,  // measure 16
2002
0000
0000
3003
,  // measure 17
0100
0010
0100
0010
,  // measure 18
1000
0001
1000
0001
,  // measure 19
0010
0001
0010
0001
,  // measure 20
0100
0010
0100
0000
,  // measure 21
0010
1000
0010
1000
,  // measure 22
0100
1000
0100
1000
,  // measure 23
0001
0010
0001
0010
,  // measure 24
0002
0203
0320
2030
,  // measure 25
3100
0010
0100
1000
,  // measure 26
0100
0010
0100
1000
,  // measure 27
0001
0100
0001
0010
,  // measure 28
0001
0100
0101
0000
,  // measure 29
1000
0010
1000
0100
,  // measure 30
1000
0010
1000
0100
,  // measure 31
0010
0100
0010
0001
,  // measure 32
2002
0000
0000
0000
,  // measure 33
0000
0000
0000
3003
,  // measure 34
0010
1000
0100
0010
,  // measure 35
0001
0100
0010
0000
,  // measure 36
1000
0001
1000
0010
,  // measure 37
0100
0001
0010
0000
,  // measure 38
0001
1000
0100
1000
,  // measure 39
0010
0100
0001
0000
,  // measure 40
0010
0001
1000
0010
,  // measure 41
1000
0100
0010
0000
,  // measure 42
0001
0100
0010
1000
,  // measure 43
0100
1000
0010
0100
,  // measure 44
0001
0001
1000
1000
,  // measure 45
0001
0001
1000
1000
,  // measure 46
0010
1000
0100
0010
,  // measure 47
0001
0100
0010
0100
,  // measure 48
0001
0001
1000
1000
,  // measure 49
1001
0110
1001
0110
,  // measure 50
2002
0000
0000
3003
;
