#TITLE:COME INTO MY HEAD;
#SUBTITLE:;
#ARTIST:KIMBRA;
#TITLETRANSLIT:;
#SUBTITLETRANSLIT:;
#ARTISTTRANSLIT:;
#CREDIT:;
#BANNER:Come Into My Head-bn.png;
#BACKGROUND:Come Into My Head-bg.png;
#LYRICSPATH:;
#CDTITLE:;
#MUSIC:Come Into My Head.mp3;
#OFFSET:-0.400;
#SAMPLESTART:55.428;
#SAMPLELENGTH:16.140;
#SELECTABLE:YES;
#DISPLAYBPM:157;
#BPMS:0.000=157.035,240.000=151.855,242.000=156.415;
#STOPS:;
#BGCHANGES:16.000=Come Into My Head.avi=1.000=1=0=0,
99999=-nosongbg-=1.000=0=0=0 // don't automatically add -songbackground-
;

//---------------dance-single - ----------------
#NOTES:
     dance-single:
     :
     Beginner:
     1:
     0.142,0.185,0.048,0.000,0.000: // measure 1
0000
0000
0000
0000
,  // measure 2
0000
0000
0000
0000
,  // measure 3
0000
0000
0000
0000
,  // measure 4
0000
0000
0000
0000
,  // measure 5
1001
0000
0000
0000
,  // measure 6
0010
0000
0010
0000
,  // measure 7
0100
0000
0000
0000
,  // measure 8
0001
0000
1000
0000
,  // measure 9
1001
0000
0000
0000
,  // measure 10
0100
0100
0000
0000
,  // measure 11
1000
0000
0000
0000
,  // measure 12
0010
0010
0000
0000
,  // measure 13
0100
0000
0000
0000
,  // measure 14
0001
0000
0000
0000
,  // measure 15
1000
0000
0000
0000
,  // measure 16
0100
0000
0000
0000
,  // measure 17
1000
0000
0000
0000
,  // measure 18
0010
0000
0000
0000
,  // measure 19
1000
0000
0000
0000
,  // measure 20
0001
0000
0000
0000
,  // measure 21
1001
0000
0100
0000
,  // measure 22
0100
0000
0000
0000
,  // measure 23
1000
0000
0010
0000
,  // measure 24
0010
0000
0000
0000
,  // measure 25
0100
0000
0001
0000
,  // measure 26
0001
0000
0000
0000
,  // measure 27
0010
0000
0100
0000
,  // measure 28
0100
0000
0000
0000
,  // measure 29
0110
0000
0000
0000
,  // measure 30
0001
0001
0000
0000
,  // measure 31
1000
1000
0000
0000
,  // measure 32
0100
0100
0000
0000
,  // measure 33
1000
1000
0000
0000
,  // measure 34
0010
0010
0000
0000
,  // measure 35
0100
0100
0000
0000
,  // measure 36
0001
0001
0000
0000
,  // measure 37
1001
0000
0100
0000
,  // measure 38
1000
1000
1000
0000
,  // measure 39
0000
0000
0100
0000
,  // measure 40
0010
0010
0010
0000
,  // measure 41
0010
0000
0001
0000
,  // measure 42
0100
0100
0100
0000
,  // measure 43
0000
0000
0001
0000
,  // measure 44
1000
1000
1000
0000
,  // measure 45
0100
0000
0000
0000
,  // measure 46
1000
0000
0000
0000
,  // measure 47
0010
0000
0010
0000
,  // measure 48
1000
0000
1000
0000
,  // measure 49
0001
0000
0000
0000
,  // measure 50
0100
0000
0000
0000
,  // measure 51
0001
0000
0001
0000
,  // measure 52
1000
0000
1000
0000
,  // measure 53
0010
0000
0000
0000
,  // measure 54
0100
0100
0000
0000
,  // measure 55
0001
0000
0001
0000
,  // measure 56
1000
0000
1000
0000
,  // measure 57
0010
0000
0000
0000
,  // measure 58
0010
0010
0000
0000
,  // measure 59
1000
0000
1000
0000
,  // measure 60
0100
0000
0100
0000
,  // measure 61
0010
0000
0000
0000
,  // measure 62
0001
0000
0000
0000
,  // measure 63
1000
0000
1000
0000
,  // measure 64
0100
0000
1000
0000
,  // measure 65
0001
0000
0000
0000
;

//---------------dance-single - ----------------
#NOTES:
     dance-single:
     :
     Medium:
     7:
     0.360,0.431,0.115,0.192,0.000: // measure 1
0000
0000
0000
0000
,  // measure 2
0000
0000
0000
0000
,  // measure 3
0000
0000
0000
0000
,  // measure 4
0000
0000
0000
0000
,  // measure 5
0010
0000
1000
0000
0001
0000
0000
1000
,  // measure 6
0000
0100
0000
0001
0000
0000
0110
0000
,  // measure 7
0001
0000
0010
0000
0100
0000
0000
1000
,  // measure 8
0000
0001
0000
1000
0000
0000
0110
0000
,  // measure 9
2002
0000
3003
0000
0100
0000
0000
1000
,  // measure 10
0000
0100
0000
0000
1000
0000
0001
0000
,  // measure 11
0100
0000
0000
0000
0001
0000
0000
0010
,  // measure 12
0000
0001
0000
0000
0100
0000
0010
0000
,  // measure 13
0110
0000
0010
1000
,  // measure 14
0100
1000
0001
0000
,  // measure 15
0010
0000
0001
0100
,  // measure 16
0010
0100
0001
0000
,  // measure 17
1000
0000
0001
0010
,  // measure 18
0100
1000
0100
0000
,  // measure 19
1000
0000
0010
1000
,  // measure 20
0001
0100
0010
0000
,  // measure 21
1001
0000
1000
0000
0100
1000
0100
0000
,  // measure 22
1000
1000
0001
0001
,  // measure 23
0100
0000
0100
0000
0010
0100
0010
0000
,  // measure 24
1000
1000
0001
0000
,  // measure 25
0011
0000
0001
0000
0100
0010
0100
0000
,  // measure 26
0001
0000
0001
0000
1000
0100
1000
0000
,  // measure 27
0010
0000
0010
0000
1000
0100
1000
0000
,  // measure 28
0010
0000
0100
0000
0001
0010
0100
0000
,  // measure 29
2000
0000
3200
0000
,  // measure 30
0310
0001
1000
0000
0002
0000
0000
0000
,  // measure 31
0103
0000
0010
0000
1000
0000
0100
0010
,  // measure 32
0001
0000
0100
0010
2000
0000
0000
0000
,  // measure 33
3020
0000
0000
0030
2000
0000
0000
0000
,  // measure 34
3100
0010
0001
0000
0100
0000
0000
0000
,  // measure 35
0010
1000
0100
1000
0010
0000
0010
0000
,  // measure 36
0100
0001
1000
0000
,  // measure 37
1001
0000
0100
0000
1000
0000
0010
0100
,  // measure 38
0000
0100
0000
0001
0100
0000
0010
0000
,  // measure 39
1000
0000
0001
0000
0010
0000
0100
1000
,  // measure 40
0000
1000
0000
0010
0100
0000
0001
0000
,  // measure 41
1000
0000
0100
0010
0001
0000
1000
0010
,  // measure 42
0000
0010
0000
0100
0001
0000
0010
0000
,  // measure 43
0100
0000
1000
0000
0001
0000
0010
0100
,  // measure 44
0000
0100
0000
1000
0010
0000
0100
0000
,  // measure 45
2002
0000
0000
0000
3003
0000
0100
1000
,  // measure 46
0010
0000
0100
0002
0000
0000
0000
0000
,  // measure 47
0013
0000
0001
0000
0100
0010
1000
0000
,  // measure 48
0100
1000
0001
0000
,  // measure 49
0200
0000
0000
0000
0000
0000
0301
0100
,  // measure 50
0010
0000
1000
0200
0000
0000
0000
0000
,  // measure 51
1300
0000
0010
0000
0100
0010
1000
0000
,  // measure 52
0001
1000
0100
0000
,  // measure 53
1100
0000
1001
0000
0101
0000
0010
0100
,  // measure 54
0010
0000
1000
0100
1000
0000
0010
0000
,  // measure 55
0100
0100
0000
0000
0001
0001
0000
0000
,  // measure 56
0000
1100
0000
0000
0010
1000
0010
0100
,  // measure 57
0002
0000
0000
0103
,  // measure 58
0010
0000
1000
0200
0000
0000
0000
0000
,  // measure 59
1300
0000
0100
0000
1000
0010
0100
0000
,  // measure 60
0010
0100
0000
0100
0000
0001
1000
0000
,  // measure 61
0200
0000
0000
0310
,  // measure 62
0001
0000
1000
2000
0000
0000
3000
0000
,  // measure 63
0100
1000
0010
0100
,  // measure 64
0001
0020
0000
0230
0000
0000
2300
0000
,  // measure 65
3100
0000
0000
0000
;

//---------------dance-single - ----------------
#NOTES:
     dance-single:
     :
     Hard:
     11:
     0.551,0.585,0.308,0.289,0.024: // measure 1
0000
0000
0000
0000
,  // measure 2
0000
0000
0000
0000
,  // measure 3
0000
0000
0000
0000
,  // measure 4
0000
0000
0000
0000
,  // measure 5
1000
0000
0100
0000
1001
0000
0000
0100
,  // measure 6
0000
0001
0000
1000
0000
0100
0100
0000
,  // measure 7
1010
0000
0001
0100
1000
0000
0000
0001
,  // measure 8
0000
1000
0000
0010
0100
0010
0100
0001
,  // measure 9
2002
0000
3003
0000
0000
0000
1000
1100
,  // measure 10
0000
0101
0000
1000
0001
0100
0100
0010
,  // measure 11
2000
0000
3000
0000
0100
0010
0001
1001
,  // measure 12
0000
1010
0000
0100
0001
0100
0001
1000
,  // measure 13
0220
0000
0330
0000
1000
0000
0100
1000
,  // measure 14
0001
1000
0010
0100
0100
0001
1000
0000
,  // measure 15
0000
0000
0010
1000
0100
0000
1000
0100
,  // measure 16
1000
0010
0100
0001
1000
1000
0001
0000
,  // measure 17
0000
0000
0010
0001
1000
0100
0010
0001
,  // measure 18
0000
0100
0010
1000
0100
0000
0010
1000
,  // measure 19
0001
0000
0100
0010
0100
0001
1000
0100
,  // measure 20
2000
3200
0002
0303
,  // measure 21
1100
1000
0010
0001
0010
0000
0100
0010
,  // measure 22
0100
0000
1000
0100
1000
0001
0100
0010
,  // measure 23
1000
0000
0001
0100
0001
0000
1000
0100
,  // measure 24
1000
0000
0010
0100
0010
0100
0001
1000
,  // measure 25
0100
0000
1000
0100
0001
0000
0000
1100
,  // measure 26
0000
0011
0000
0000
0100
0010
0100
0001
,  // measure 27
1000
0000
0001
0010
1000
0000
0000
0110
,  // measure 28
0000
1100
0000
0000
0010
1000
0001
1000
,  // measure 29
2020
0000
0000
0000
3030
0000
0000
0000
0002
0000
0000
0000
0003
0000
0000
0100
,  // measure 30
0010
0010
0000
0000
2200
0000
3300
0000
,  // measure 31
0010
1000
0100
1000
0001
0001
0100
0000
,  // measure 32
0001
0010
1000
0010
0001
0001
1000
0000
,  // measure 33
0020
0000
1030
0100
1000
0000
0001
0100
,  // measure 34
0010
1000
0001
2000
0000
3000
0100
1000
,  // measure 35
0001
0001
1000
0100
1100
0000
1001
0000
,  // measure 36
0100
0001
1000
0100
1000
0001
0010
0000
,  // measure 37
0011
0001
0100
1000
0100
0000
0010
1010
,  // measure 38
0000
1100
1000
0100
1000
0001
0010
0010
,  // measure 39
0001
0000
0100
1000
0010
0000
0100
1010
,  // measure 40
0000
1001
0010
0100
0010
0001
1000
0100
,  // measure 41
1100
0000
0010
0001
0010
0000
0100
0101
,  // measure 42
0000
0011
0001
0010
0001
1000
0100
0100
,  // measure 43
1000
0000
0010
0001
0100
0000
0010
0101
,  // measure 44
0000
1001
0100
0010
0100
1000
0001
0001
,  // measure 45
0200
0000
0000
0000
0010
0000
0310
0100
,  // measure 46
0001
0010
0100
2000
0000
0000
0000
0000
,  // measure 47
3001
0010
0100
1000
1000
0100
0010
0001
,  // measure 48
0001
0100
0010
1000
1000
0010
0100
0001
,  // measure 49
0002
0000
0100
0103
,  // measure 50
0010
1000
0100
0020
0000
0000
0000
0000
,  // measure 51
0130
0000
1000
0000
0001
0000
0010
0000
0010
0000
0100
0000
1000
0000
0001
0010
,  // measure 52
0000
0000
0001
0010
0000
0000
1000
0100
1000
0000
0010
0000
0100
0000
0100
0000
,  // measure 53
2002
0000
0000
0000
3003
0100
0010
0100
,  // measure 54
0010
0000
0000
1000
0000
0000
0202
0000
0000
0000
0000
0000
0303
0000
0000
0000
,  // measure 55
0010
0010
0001
0100
0001
0001
0010
0100
,  // measure 56
1000
1001
0100
1000
0010
0010
0010
0000
,  // measure 57
2002
0000
0000
0000
3003
0010
0100
0010
,  // measure 58
0100
0001
1000
2020
0000
0000
3030
0000
,  // measure 59
0100
0010
0100
0001
1000
0100
0010
0001
,  // measure 60
0100
0001
0000
1000
0000
0100
0010
0100
,  // measure 61
2000
0000
3100
1000
,  // measure 62
0010
0000
0100
0002
0000
0000
0000
0000
,  // measure 63
0013
0000
0001
0001
1000
0000
0100
0100
,  // measure 64
1000
0000
0010
0200
0000
0010
0010
0000
,  // measure 65
0301
0000
0000
0000
;

//---------------dance-single - ----------------
#NOTES:
     dance-single:
     :
     Easy:
     4:
     0.242,0.277,0.058,0.173,0.000: // measure 1
0000
0000
0000
0000
,  // measure 2
0000
0000
0000
0000
,  // measure 3
0000
0000
0000
0000
,  // measure 4
0000
0000
0000
0000
,  // measure 5
1001
0000
0100
0000
,  // measure 6
1000
0100
0010
0000
,  // measure 7
1001
0000
0100
0000
,  // measure 8
0001
0010
0100
0000
,  // measure 9
0220
0000
0330
0000
0000
0000
0000
1000
,  // measure 10
0000
0001
0000
0000
0000
0000
0000
0000
,  // measure 11
0100
0000
0000
0000
0000
0000
0000
0010
,  // measure 12
0000
1000
0000
0000
0000
0000
0000
0000
,  // measure 13
0001
0000
1000
0000
,  // measure 14
0100
0000
0100
0000
,  // measure 15
1000
0000
0001
0000
,  // measure 16
0010
0001
0100
0000
,  // measure 17
0001
0000
1000
0000
,  // measure 18
0010
0000
0010
0000
,  // measure 19
0100
0000
0010
0000
,  // measure 20
1000
0100
0010
0000
,  // measure 21
0001
1000
0100
1000
,  // measure 22
0010
0010
0010
0000
,  // measure 23
0100
0010
1000
0001
,  // measure 24
0100
0100
0100
0000
,  // measure 25
0001
0000
0010
0000
0100
0000
0000
1000
,  // measure 26
0000
1000
0000
0000
0000
0000
0000
0000
,  // measure 27
0100
0000
1000
0000
0010
0000
0000
0100
,  // measure 28
0000
0100
0000
0000
0000
0000
0000
0000
,  // measure 29
0002
0000
0103
0000
,  // measure 30
2000
0000
3100
0000
,  // measure 31
0001
0100
1000
0100
,  // measure 32
0001
0100
1000
0000
,  // measure 33
0002
0000
0013
0000
,  // measure 34
2000
0000
3010
0000
,  // measure 35
0001
0010
1000
0010
,  // measure 36
0001
0010
1000
0000
,  // measure 37
0011
0000
0100
0000
,  // measure 38
1000
0100
0010
0001
,  // measure 39
0000
0100
0100
0000
,  // measure 40
0010
1000
0001
0100
,  // measure 41
0000
0001
0001
0000
,  // measure 42
0010
0001
1000
0100
,  // measure 43
0000
1000
1000
0000
,  // measure 44
0010
1000
0100
0000
,  // measure 45
2000
0000
0000
0000
,  // measure 46
3100
0010
0002
0000
,  // measure 47
0103
0010
1000
0100
,  // measure 48
0010
0001
1000
0000
,  // measure 49
0002
0000
0000
0000
,  // measure 50
0103
0010
0200
0000
,  // measure 51
0310
1000
0001
1000
,  // measure 52
0100
0010
0001
0000
,  // measure 53
2002
0000
0000
3003
,  // measure 54
0100
1000
0010
0000
,  // measure 55
0100
0010
1000
0100
,  // measure 56
0010
0001
1000
0000
,  // measure 57
2002
0000
0000
3003
,  // measure 58
0010
0001
0100
0000
,  // measure 59
0001
0100
0010
0100
,  // measure 60
0001
0010
0100
0000
,  // measure 61
2000
0000
0000
0000
,  // measure 62
3200
0000
0000
0000
,  // measure 63
0320
0000
0000
0000
,  // measure 64
0032
0000
0000
0000
,  // measure 65
0103
0000
0000
0000
;
