#TITLE:Bodies (Cahill Mix);
#SUBTITLE:;
#ARTIST:Robbie Williams;
#TITLETRANSLIT:;
#SUBTITLETRANSLIT:;
#ARTISTTRANSLIT:;
#CREDIT:Awesome Audio;
#BANNER:Bodies (Cahill Mix)-bn.png;
#BACKGROUND:Bodies (Cahill Mix)-bg.png;
#LYRICSPATH:;
#CDTITLE:;
#MUSIC:Bodies (Cahill Mix).mp3;
#OFFSET:-7.310;
#SAMPLESTART:68.720;
#SAMPLELENGTH:11.980;
#SELECTABLE:YES;
#BPMS:0.000=125.000;
#STOPS:125.750=0.950
,139.500=0.950
;
#BGCHANGES:;

//---------------dance-single - ----------------
#NOTES:
     dance-single:
     :
     Beginner:
     1:
     0.087,0.112,0.033,0.000,0.000:
1000
0000
0000
0000
,
0010
0000
0000
0000
,
0001
0000
0000
0000
,
0100
0000
0000
0000
,
0010
0010
0000
0000
,
0100
0000
0000
0000
,
0001
0001
0000
0000
,
1000
0000
0000
0000
,
0100
0000
0000
0000
,
1000
0000
0000
0000
,
0001
0000
0000
0000
,
1000
0000
0000
0000
,
0010
0010
0000
0000
,
1000
0000
0000
0000
,
0001
0001
0000
0000
,
0010
0000
0000
0000
,
0100
0000
0000
0000
,
1000
0000
0000
0000
,
0001
0000
0000
0000
,
0010
0000
0000
0000
,
0001
0001
0000
0000
,
0000
0000
0000
0000
,
1000
1000
0000
0000
,
0000
0000
0000
0000
,
0110
0000
0000
0000
,
0001
0000
0001
0000
,
0001
0000
0000
0000
,
1000
0000
0000
0000
,
0110
0000
0000
0000
,
0100
0000
0100
0000
,
0100
0000
0000
0000
,
1001
0000
0000
0000
,
0000
0000
0100
0100
,
0000
0000
0010
0000
,
0000
0000
1000
1000
,
0000
0000
0000
0000
,
0110
0000
0000
0000
,
0001
0001
0000
0000
,
1000
1000
0000
0000
,
0100
0000
0000
0000
,
0100
0000
0000
0000
,
0100
0000
0000
0000
,
0100
0000
0000
0000
,
0010
0000
0000
0000
,
0010
0000
0000
0000
,
0010
0000
0000
0000
,
0010
0000
0000
0000
,
0001
0000
0001
0000
,
0001
0000
0000
0000
,
1000
0000
1000
0000
,
1000
0000
0000
0000
,
0100
0000
0100
0000
,
0100
0000
0000
0000
,
0010
0000
0000
0000
,
0001
0001
0001
0001
;

//---------------dance-single - ----------------
#NOTES:
     dance-single:
     :
     Medium:
     5:
     0.262,0.275,0.057,0.098,0.000: // measure 1
1000
0000
0001
0000
0100
0000
0010
1000
,  // measure 2
0000
0000
0000
0000
,  // measure 3
0010
0000
0100
0000
0001
0000
1000
0001
,  // measure 4
0000
0000
0000
0000
,  // measure 5
0010
0001
0100
0010
,  // measure 6
1000
0001
1000
0100
,  // measure 7
0010
0001
1000
0010
,  // measure 8
0000
0100
0100
0000
0010
0010
0000
0000
,  // measure 9
1000
0001
1000
0100
,  // measure 10
0010
0000
0000
0000
,  // measure 11
0001
0010
0001
0100
,  // measure 12
0010
0000
0000
0000
,  // measure 13
1000
0010
0100
0001
,  // measure 14
0010
0001
0100
0010
,  // measure 15
1000
0100
1000
0001
,  // measure 16
0000
0100
0100
0000
0010
0010
0000
0000
,  // measure 17
0100
0001
1000
0100
,  // measure 18
1000
0000
0000
0000
,  // measure 19
0010
1000
0001
0010
,  // measure 20
0100
0000
0000
0000
,  // measure 21
0010
0001
0100
0010
,  // measure 22
1000
0000
0001
0000
1000
1000
1000
0000
,  // measure 23
0010
1000
0010
0100
,  // measure 24
0001
0000
1000
0000
0001
0001
0001
0000
,  // measure 25
0010
0001
1000
0010
,  // measure 26
0100
0000
0010
0000
1000
1000
0100
0100
,  // measure 27
1000
0010
0100
0001
,  // measure 28
1000
0000
0001
0000
0010
0010
0001
0001
,  // measure 29
0100
0010
1000
0001
,  // measure 30
1000
0000
0100
0000
0010
0010
0100
0100
,  // measure 31
0010
0001
1000
0010
,  // measure 32
0100
0001
0100
0001
,  // measure 33
1000
0000
0100
1000
0000
0010
0000
0000
,  // measure 34
0100
0001
0000
0010
0000
0100
0000
0000
,  // measure 35
0010
0001
0000
1000
0000
0010
0000
0000
,  // measure 36
0100
0000
0010
0000
1000
0000
0001
1000
,  // measure 37
0000
0100
0000
0000
1000
0000
0010
0100
,  // measure 38
0000
0001
0000
0000
0010
0000
0001
1000
,  // measure 39
0000
0100
0000
0000
0000
0000
0000
0000
,  // measure 40
1000
0000
0001
0000
0100
0010
0100
0010
,  // measure 41
0000
0000
0000
0000
1000
0100
0010
0001
,  // measure 42
1000
0001
0100
0010
,  // measure 43
1000
0001
0010
0001
,  // measure 44
0100
0000
0010
0000
1000
0100
1000
0100
,  // measure 45
0000
0000
0000
0000
1000
0001
0100
0010
,  // measure 46
1000
0001
0010
0001
,  // measure 47
0100
0010
1000
0001
,  // measure 48
2002
0000
0000
0000
0000
3000
0000
0103
,  // measure 49
0000
0010
1000
0001
,  // measure 50
2002
0000
0000
0000
0000
0003
0000
3100
,  // measure 51
0000
0010
0001
1000
,  // measure 52
0020
2030
3002
0003
,  // measure 53
1000
0001
0100
0010
,  // measure 54
0200
0302
2003
3000
,  // measure 55
0101
1100
0011
1010
,  // measure 56
2002
0000
0000
0000
,  // measure 57
3003
0000
0000
0000
;

//---------------dance-single - ----------------
#NOTES:
     dance-single:
     :
     Hard:
     8:
     0.383,0.412,0.106,0.147,0.020: // measure 1
2001
0000
3100
0000
0012
0000
0103
0010
,  // measure 2
0000
1000
0000
0001
0000
1000
0000
0001
,  // measure 3
0102
0000
0000
0003
1000
0000
0000
0000
1020
0000
0000
0000
0130
0000
0010
0000
,  // measure 4
0000
1000
0000
0001
0000
0010
0000
0001
,  // measure 5
0100
0010
0100
0001
1000
0001
0000
0010
,  // measure 6
0100
0010
0001
1000
0000
0010
1000
0100
,  // measure 7
0010
0001
0000
1000
0001
1000
0010
0100
,  // measure 8
0000
0001
0100
0000
0010
1000
0000
0100
,  // measure 9
1000
0010
0100
0001
1000
0001
0010
0100
,  // measure 10
0000
0000
0000
0000
0000
0000
0000
0010
,  // measure 11
0001
1000
0010
0100
0010
1000
0001
1000
,  // measure 12
0000
0000
0000
0000
,  // measure 13
0010
1000
0100
1000
0001
0100
0000
0010
,  // measure 14
0100
0001
0010
0100
0000
0010
0001
1000
,  // measure 15
0010
0100
0000
0010
1000
0100
1000
0001
,  // measure 16
0000
0100
0001
0000
1000
0100
0000
1000
,  // measure 17
0010
1000
0001
0010
0001
0100
0000
0000
,  // measure 18
0000
0000
0000
0000
0000
0000
0000
0010
,  // measure 19
0100
0010
1000
0100
1000
0001
0010
0001
,  // measure 20
0000
0000
0000
0000
,  // measure 21
0100
0100
0010
1000
0001
0000
1000
1000
,  // measure 22
0001
0010
0001
0000
0100
0100
0010
1000
,  // measure 23
0001
0001
0010
0001
1000
0000
0010
0010
,  // measure 24
1000
0100
1000
0000
0000
0000
0000
0000
,  // measure 25
0100
0100
0010
1000
0001
0000
0010
0010
,  // measure 26
0001
1000
0010
0000
1000
1000
0100
1000
,  // measure 27
0010
0010
0100
0001
1000
0000
0010
0010
,  // measure 28
1000
0001
0010
0000
0100
0100
0100
0100
,  // measure 29
0010
0001
0010
0000
0001
0000
0100
0000
0010
0000
0000
0000
1000
0001
1000
0000
,  // measure 30
0010
0000
0100
0000
0001
0000
0000
0000
1000
0100
1000
0000
0010
0000
1000
0000
,  // measure 31
0001
1000
0001
0000
0010
0000
0001
0000
0100
0000
0000
0000
0010
1000
0010
0000
,  // measure 32
0100
0010
1000
0000
1002
0000
0203
0000
,  // measure 33
0302
0000
1003
0000
0001
1000
0100
0000
,  // measure 34
1000
0001
0100
0010
1000
0000
0010
0000
,  // measure 35
1000
0001
0010
0000
0001
0000
0100
0000
,  // measure 36
2010
3200
0320
0031
,  // measure 37
0100
0010
1000
0000
0001
1000
0100
1000
,  // measure 38
0010
0000
0100
0000
0001
0100
0010
0000
,  // measure 39
1000
0000
0001
0000
1000
0010
1000
0010
,  // measure 40
0100
0000
0010
0000
1000
0001
0100
0000
,  // measure 41
0010
0000
1000
0000
0001
0010
1000
0010
,  // measure 42
0001
0000
1000
0000
0010
0100
0010
2000
,  // measure 43
0000
3001
0000
0000
0000
0000
0000
0000
,  // measure 44
0010
0000
0100
0000
0001
1000
0010
0000
,  // measure 45
0100
0000
0001
0000
1000
0100
0001
0100
,  // measure 46
1000
0000
0001
0000
0100
0010
0100
0002
,  // measure 47
0000
1003
0000
0000
0010
0010
0010
0000
,  // measure 48
0201
0000
0010
0000
0001
0000
0310
2000
,  // measure 49
0000
0100
0010
3100
,  // measure 50
1002
0000
0100
0000
0010
0000
1003
0020
,  // measure 51
0000
0100
1000
0130
,  // measure 52
0001
0100
1000
0100
0001
0000
0000
0000
,  // measure 53
0100
0101
1000
1010
,  // measure 54
0001
0010
1000
0010
0001
0000
0000
0000
,  // measure 55
1000
1010
0001
0101
,  // measure 56
2002
0000
0000
0000
,  // measure 57
3003
0000
0000
0000
;

//---------------dance-single - ----------------
#NOTES:
     dance-single:
     :
     Easy:
     3:
     0.203,0.229,0.147,0.131,0.000: // measure 1
1000
0000
0000
0000
0001
0000
0000
0100
,  // measure 2
0000
0000
0000
0000
,  // measure 3
0001
0000
0000
0000
1000
0000
0000
0100
,  // measure 4
0000
0000
0000
0000
,  // measure 5
1000
0000
0001
0000
,  // measure 6
0100
0001
1000
0000
,  // measure 7
0010
0000
1000
0000
,  // measure 8
0001
1000
0100
0000
,  // measure 9
2100
0000
0010
3001
,  // measure 10
0100
0010
1000
0000
,  // measure 11
1002
0000
0100
0013
,  // measure 12
1000
0001
0100
0000
,  // measure 13
0010
0000
1000
0000
,  // measure 14
0001
1000
0100
0000
,  // measure 15
0010
0001
1000
0000
,  // measure 16
0101
0000
1001
0000
,  // measure 17
2100
0000
0010
3001
,  // measure 18
0100
0001
1000
0000
,  // measure 19
1002
0000
0010
1003
,  // measure 20
0100
0010
1000
0000
,  // measure 21
0100
1000
0000
0001
,  // measure 22
0100
0000
0010
1000
,  // measure 23
0001
0010
0000
0001
,  // measure 24
1000
0000
0100
0010
,  // measure 25
0110
0000
1000
0000
,  // measure 26
0001
0000
0100
0010
,  // measure 27
0100
0000
0001
0000
,  // measure 28
1000
0000
0202
0303
,  // measure 29
0010
1000
0001
0010
,  // measure 30
0001
0000
1000
1000
,  // measure 31
0100
0010
0001
1000
,  // measure 32
0001
0000
1001
0000
,  // measure 33
0000
0110
0001
0100
,  // measure 34
1000
0000
0010
0000
,  // measure 35
1000
0001
1000
0000
,  // measure 36
1100
0000
0000
0011
,  // measure 37
1000
0100
0001
0000
,  // measure 38
1000
0001
0100
0000
,  // measure 39
0010
0000
0200
0010
,  // measure 40
0310
0000
1000
0001
,  // measure 41
1000
0000
0110
0000
,  // measure 42
1001
0000
0000
0000
,  // measure 43
2000
3100
0002
0103
,  // measure 44
2000
3000
0000
0001
,  // measure 45
0100
0001
1000
1000
,  // measure 46
0100
0000
0000
0110
,  // measure 47
0010
0000
0000
0000
,  // measure 48
0002
0000
0000
0000
,  // measure 49
2003
0000
0100
0000
,  // measure 50
3020
0000
0000
0000
,  // measure 51
0230
0000
0001
0000
,  // measure 52
0301
1000
0001
0000
,  // measure 53
1000
0100
0010
0000
,  // measure 54
0001
0010
0100
0000
,  // measure 55
1001
0000
0110
0000
,  // measure 56
2002
0000
0000
0000
,  // measure 57
3003
0000
0000
0000
;

//---------------dance-single - ----------------
#NOTES:
     dance-single:
     :
     Challenge:
     14:
     0.625,0.582,0.196,0.106,0.348: // measure 1
1000
0001
0100
0010
0100
0001
1000
1100
,  // measure 2
0000
0000
0010
0000
1000
0000
0001
1000
0000
0000
0010
0000
0100
0000
0001
0000
,  // measure 3
0100
0010
1000
0001
0010
0100
1000
1100
,  // measure 4
0000
0000
0010
0000
1000
0000
0001
1000
0000
0000
0010
0000
0100
0000
0001
0000
,  // measure 5
0100
0000
0010
0000
1000
0000
0001
0010
0100
0000
1000
0000
0001
0000
1000
0000
,  // measure 6
0010
0000
0100
0001
1000
0000
0010
0000
0100
0000
0001
0010
0001
0000
1000
0100
,  // measure 7
1000
0000
0010
0000
0100
0001
1000
0000
0100
0000
1000
0010
0100
0000
0001
0000
,  // measure 8
1000
0000
0010
0100
0010
0000
0000
0000
1000
0001
1000
0000
0000
0000
0010
0000
,  // measure 9
0100
0000
0001
0000
1000
0010
0000
1000
0100
1000
0001
0000
0100
0000
0101
0000
,  // measure 10
0000
0000
0010
0000
1000
0000
0001
1000
0000
0000
0010
0000
1000
0000
0100
0000
,  // measure 11
1000
0000
0010
0000
0100
0001
0000
0010
0001
1000
0100
0000
0010
0000
0011
0000
,  // measure 12
0000
0000
0001
0000
0100
0000
0001
0100
0000
0000
0010
0000
1000
0000
0100
0000
,  // measure 13
1000
0000
0010
0000
0100
0000
0001
1000
0000
0010
0100
0000
0001
0000
0010
0001
,  // measure 14
1000
0000
0010
0100
0010
1000
0001
0000
0100
0000
0010
1000
0010
0000
0100
0001
,  // measure 15
1000
0010
0100
0000
0001
0000
0010
0000
0001
0100
0001
0010
0100
1000
0001
0000
,  // measure 16
0100
0000
0010
1000
0010
0000
0000
0000
0100
0001
0100
0000
0000
0000
0010
0000
,  // measure 17
1000
0000
0001
0000
1000
0010
0000
1000
0100
1000
0001
0000
0100
0000
0101
0000
,  // measure 18
0000
0000
0001
0000
0100
0000
0001
0100
0000
0000
0010
0000
0100
0000
0001
0000
,  // measure 19
0010
0000
0001
0000
1000
0010
0000
0100
0001
0100
0010
0000
1000
0000
1010
0000
,  // measure 20
0000
0000
1000
0000
0100
0000
1000
0100
0000
0000
1000
0000
0010
0000
0100
0000
,  // measure 21
0001
1000
0001
0010
0100
0000
1000
0000
0001
0000
0100
0000
0010
1000
0001
1000
,  // measure 22
0010
0100
0001
0000
0010
0000
0100
0000
1000
0001
1000
0010
0100
0001
0010
0000
,  // measure 23
0001
0010
0001
0100
0010
1000
0100
0000
1000
0000
0001
0000
0100
0010
0100
0001
,  // measure 24
1000
0100
0010
0000
0001
0000
1000
0000
0010
0000
1000
0000
0001
0000
0010
0000
,  // measure 25
0001
0100
0001
1000
0100
0000
1000
0010
,  // measure 26
1000
0001
0010
0000
0001
0100
0001
1000
,  // measure 27
0100
1000
0010
0100
0001
0000
1000
0001
,  // measure 28
1000
0010
0100
0000
0110
0110
0110
0110
,  // measure 29
1000
0010
1000
0000
0001
0000
0010
0000
0100
0000
1000
0000
0001
1000
0001
0000
,  // measure 30
0100
0000
0010
0000
1000
0000
0001
0000
0100
0010
0100
0000
0001
0000
1000
0000
,  // measure 31
0100
0010
0100
0000
1000
0000
0010
0000
0100
0000
0001
0000
1000
0001
1000
0000
,  // measure 32
0010
0100
0001
1000
1002
0100
0203
0010
,  // measure 33
0320
0000
1030
0100
1000
0010
0100
0001
,  // measure 34
1000
0000
0010
0100
0001
0000
1000
0000
0010
0000
0000
0000
0001
0000
0100
0000
,  // measure 35
1000
0100
0001
1000
0100
1000
0010
0100
,  // measure 36
0201
0010
0320
1000
2030
0000
3100
1000
,  // measure 37
0010
0000
1000
0000
0001
0000
0010
0000
0001
0000
0100
0010
1000
0000
0001
0000
,  // measure 38
1000
0000
0100
0010
1000
0100
0001
0100
,  // measure 39
1000
0000
0010
0000
0100
0000
0001
0000
1000
0100
1000
0100
1000
0001
1000
0001
,  // measure 40
0100
0010
1000
0100
1000
0001
0100
0010
,  // measure 41
1000
0001
0100
0000
0102
0103
0210
0310
,  // measure 42
1020
0000
1030
0100
1000
0010
1000
0001
,  // measure 43
0010
0001
1000
0010
0100
0001
1000
0000
,  // measure 44
0001
0010
1000
0010
0001
1000
0010
0100
,  // measure 45
0001
1000
0100
0000
2100
3100
0210
0310
,  // measure 46
0012
0000
1003
0001
1000
0010
0100
0001
,  // measure 47
0100
0010
1000
0100
0010
0001
1000
0010
,  // measure 48
1010
0000
0000
0000
1000
0000
0001
0000
1000
0100
1000
0001
0100
0001
1000
0010
,  // measure 49
1000
0001
0010
0000
0001
0000
1000
0000
0010
0000
0100
0000
0001
0000
1000
0000
,  // measure 50
1100
0000
0000
0000
0001
0000
1000
0000
0010
0100
0010
1000
0100
1000
0001
0100
,  // measure 51
0001
1000
0010
0000
0100
0000
0001
0000
0010
0000
0100
0000
1000
0000
0000
0000
,  // measure 52
0001
0010
1000
0010
0001
1000
0010
0100
0002
0000
0000
0000
1003
0000
0010
0000
,  // measure 53
1000
0001
0010
1000
0010
0001
1000
0010
,  // measure 54
0100
0000
0010
0000
1000
0100
1000
0001
0100
0010
1000
0001
0100
0000
0000
0000
,  // measure 55
0110
0101
0011
1010
,  // measure 56
1000
0100
0001
0000
0100
0000
1000
0000
0100
0000
0001
0000
0100
1000
0100
0000
,  // measure 57
0001
0000
0100
0000
1000
0000
0100
0000
0001
0000
0100
0000
1000
0100
0001
0000
;
