#TITLE:BAT COUNTRY;
#SUBTITLE:;
#ARTIST:AVENGED SEVENFOLD;
#TITLETRANSLIT:;
#SUBTITLETRANSLIT:;
#ARTISTTRANSLIT:;
#CREDIT:Ben Speirs;
#BANNER:Bat Country-bn.png;
#BACKGROUND:Bat Country-bg.png;
#LYRICSPATH:;
#CDTITLE:BEN original.png;
#MUSIC:Bat Country.mp3;
#OFFSET:-0.060;
#SAMPLESTART:53.785;
#SAMPLELENGTH:17.960;
#SELECTABLE:YES;
#BPMS:0.000=124.970,16.000=249.940,480.000=124.970;
#STOPS:;
#BGCHANGES:6.000=Bat Country.avi=1.000=1=0=0,
494.000=Bat Country-bg.PNG=1.000=1=0=1,
99999=-nosongbg-=1.000=0=0=0 // don't automatically add -songbackground-
;

//---------------dance-single - ----------------
#NOTES:
     dance-single:
     :
     Beginner:
     5:
     0.272,0.432,0.079,0.008,0.000:
0000
0000
0000
0000
,
0000
0000
0000
0000
,
0000
0000
0000
0000
,
0000
0000
0000
0000
,
1000
0000
0000
0000
,
0001
0000
0000
0000
,
0100
0000
0000
0000
,
0010
0000
0000
0000
,
1000
0000
0000
0000
,
0001
0000
0000
0000
,
0100
0000
0000
0000
,
0010
0000
0000
0000
,
1001
0000
0000
0000
,
1001
0000
0000
0000
,
1001
0000
0000
0000
,
1001
0000
0000
0000
,
0110
0000
0000
0000
,
0110
0000
0000
0000
,
0110
0000
0000
0000
,
0110
0000
0000
0000
,
0001
0001
0001
0001
,
0001
0001
0000
0000
,
1000
1000
1000
1000
,
1000
1000
0000
0000
,
0001
0001
0001
0001
,
0001
0001
0000
0000
,
1000
1000
1000
1000
,
1000
1000
0000
0000
,
0010
0000
0010
0000
,
0100
0000
0100
0000
,
0010
0000
0010
0000
,
0100
0000
0100
0000
,
0001
0000
0000
0000
,
1000
0000
0000
0000
,
1001
0000
0000
0000
,
0110
0000
0000
0000
,
0001
0000
0001
0000
,
1000
0000
1000
0000
,
0001
0000
0001
0000
,
1000
0000
1000
0000
,
0010
0000
0000
0000
,
0100
0000
0000
0000
,
0001
0000
0000
0000
,
1000
0000
0000
0000
,
0100
0000
0100
0000
,
0010
0000
0010
0000
,
0100
0000
0100
0000
,
0010
0000
0010
0000
,
0100
0000
0000
0000
,
1000
0000
0000
0000
,
0001
0000
0000
0000
,
0010
0000
0000
0000
,
0100
0100
0100
0100
,
0100
0100
0000
0000
,
0010
0010
0010
0010
,
0010
0010
0000
0000
,
0100
0100
0100
0100
,
0100
0100
0000
0000
,
0010
0010
0010
0010
,
0010
0010
0000
0000
,
0001
0001
0001
0001
,
0001
0001
0000
0000
,
1000
1000
1000
1000
,
1000
1000
0000
0000
,
0001
0001
0001
0001
,
0001
0001
0000
0000
,
1000
1000
1000
1000
,
1000
1000
0000
0000
,
0010
0000
0100
0000
,
0001
0000
0010
0000
,
0100
0000
1000
0000
,
0001
0000
0000
0000
,
1000
1000
1000
1000
,
1000
1000
1000
1000
,
1000
1000
1000
1000
,
1000
1000
1000
1000
,
1000
0000
0000
0000
,
0001
0000
0000
0000
,
0100
0100
0100
0100
,
0000
0000
0000
0000
,
0010
0000
0000
0000
,
1000
0000
0000
0000
,
0001
0000
0000
0000
,
0010
0000
0000
0000
,
0100
0000
0100
0000
,
0100
0000
0000
0000
,
0001
0001
0001
0001
,
0000
0000
0000
0000
,
1000
0000
0010
0000
,
1000
0000
0000
0000
,
0001
0000
0100
0000
,
0001
0000
0000
0000
,
1000
0000
1000
0000
,
1000
0000
1000
0000
,
0001
0000
0001
0000
,
0001
0000
0001
0000
,
0010
0000
0010
0000
,
0010
0000
0010
0000
,
0100
0000
0100
0000
,
0100
0000
0100
0000
,
1000
0000
1000
0000
,
1000
0000
1000
0000
,
0010
0000
0010
0000
,
0010
0000
0010
0000
,
0100
0000
0100
0000
,
0100
0000
0100
0000
,
0001
0000
0001
0000
,
0001
0000
0001
0000
,
0010
0000
0010
0000
,
0010
0000
0010
0000
,
0100
0000
0100
0000
,
0100
0000
0100
0000
,
1000
0000
1000
0000
,
1000
0000
1000
0000
,
0001
0000
0001
0000
,
0001
0000
0001
0000
,
0100
0000
0100
0000
,
0100
0000
0100
0000
,
0010
0010
0010
0010
,
0010
0010
0010
0010
,
0020
0000
0000
0000
,
0000
0000
0000
0000
,
0030
0000
0000
0000
;

//---------------dance-single - ----------------
#NOTES:
     dance-single:
     :
     Medium:
     10:
     0.553,0.721,0.260,0.016,0.000: // measure 1
0000
0000
0000
0000
,  // measure 2
0000
0000
0000
0000
,  // measure 3
0000
0000
0000
0000
,  // measure 4
0000
0000
0000
0000
,  // measure 5
0001
0100
0010
1000
,  // measure 6
0100
0010
0001
1000
,  // measure 7
0010
1000
0001
0010
,  // measure 8
0100
0010
0001
1000
,  // measure 9
0010
1000
0001
0100
,  // measure 10
1000
0100
0001
0010
,  // measure 11
0100
1000
0010
1000
,  // measure 12
0001
0010
0100
1000
,  // measure 13
1100
0000
0000
1001
,  // measure 14
0000
0000
0000
0110
,  // measure 15
0000
0000
0000
0011
,  // measure 16
1000
0100
0010
0001
,  // measure 17
0101
0000
0000
1010
,  // measure 18
0000
0000
0000
1001
,  // measure 19
0000
0000
0000
0110
,  // measure 20
0001
0100
0010
1000
,  // measure 21
0100
0100
0100
0100
,  // measure 22
0100
0100
0010
0001
,  // measure 23
1000
1000
1000
1000
,  // measure 24
1000
1000
0010
1000
,  // measure 25
0001
0001
0001
0001
,  // measure 26
0001
0001
0010
0100
,  // measure 27
1000
1000
1000
1000
,  // measure 28
1000
0010
0100
0000
,  // measure 29
0001
0100
0010
1000
,  // measure 30
0100
1000
0010
0100
,  // measure 31
0001
0010
1000
0010
,  // measure 32
0001
0100
0010
1000
,  // measure 33
0001
0100
0001
0000
1000
0100
1000
0000
,  // measure 34
0010
0100
0010
0000
1000
0010
1000
0000
,  // measure 35
0001
0100
0001
0000
1000
0100
1000
0000
,  // measure 36
0010
0100
0010
0000
1000
0010
1000
0000
,  // measure 37
1001
0000
1001
0000
,  // measure 38
0110
0000
0110
0000
,  // measure 39
0001
0100
0010
1000
,  // measure 40
0100
1000
0010
0100
,  // measure 41
0001
0000
0010
0000
,  // measure 42
0100
1000
0010
0100
,  // measure 43
0001
0000
0010
0000
,  // measure 44
0001
0100
0010
1000
,  // measure 45
1010
0000
0101
0000
,  // measure 46
0011
0000
1100
0000
,  // measure 47
0001
1000
0010
1000
,  // measure 48
0001
0100
0010
0000
,  // measure 49
0100
0001
0010
0000
,  // measure 50
0100
1000
0010
0000
,  // measure 51
1000
0001
0100
0000
,  // measure 52
0001
0100
0010
0000
,  // measure 53
1000
0100
1000
0000
0100
1000
0100
0000
,  // measure 54
1000
0100
1000
0000
0010
0000
0100
0000
,  // measure 55
0001
0100
0001
0000
0100
0001
0100
0000
,  // measure 56
0001
0100
0001
0000
0010
0000
0100
0000
,  // measure 57
1000
0001
1000
0000
0001
1000
0001
0000
,  // measure 58
1000
0001
1000
0000
0010
0000
1000
0000
,  // measure 59
0010
0010
0100
0100
,  // measure 60
0001
0010
0100
0000
,  // measure 61
1000
0100
1000
0000
0001
0010
0001
0000
,  // measure 62
1000
0100
1000
0000
0001
0010
0001
0000
,  // measure 63
0100
0010
1000
0001
,  // measure 64
0010
0100
1000
0010
,  // measure 65
0100
0001
0100
0000
0010
1000
0010
0000
,  // measure 66
0100
0001
0100
0000
0010
1000
0010
0000
,  // measure 67
1000
0100
0010
0001
,  // measure 68
0100
0010
1000
0000
,  // measure 69
0101
0010
1000
0100
,  // measure 70
0010
0001
0100
0010
,  // measure 71
1001
0010
0001
0100
,  // measure 72
0010
1000
0100
0010
,  // measure 73
0001
0100
0001
0000
1000
0010
1000
0000
,  // measure 74
0001
0010
0001
0000
0100
0010
0100
0000
,  // measure 75
0001
0100
0001
0000
1000
0100
1000
0000
,  // measure 76
0010
1000
0010
0000
1000
0001
1000
0000
,  // measure 77
1001
0000
0110
0000
,  // measure 78
0011
0000
1100
0000
,  // measure 79
0010
1000
0001
1000
,  // measure 80
0010
0100
0001
0000
,  // measure 81
0010
0001
0100
0010
,  // measure 82
1000
0100
1000
0010
,  // measure 83
0100
0001
0010
1000
,  // measure 84
0010
0001
0100
0010
,  // measure 85
1010
0000
1001
0000
,  // measure 86
0101
0000
0011
0000
,  // measure 87
0100
1000
0010
0100
,  // measure 88
0001
0010
0001
0100
,  // measure 89
0010
1000
0100
0010
,  // measure 90
0001
0100
1000
0100
,  // measure 91
0001
0010
0100
1000
,  // measure 92
0010
0100
0001
0010
,  // measure 93
0100
1000
0010
1000
,  // measure 94
0001
0010
0100
1000
,  // measure 95
0010
0100
0001
0010
,  // measure 96
0001
0100
0010
1000
,  // measure 97
0100
1000
0010
0100
,  // measure 98
0001
0010
0100
1000
,  // measure 99
0010
0100
0001
0010
,  // measure 100
0100
1000
0001
0000
0100
1000
0001
0000
,  // measure 101
0100
0010
1000
0100
,  // measure 102
1000
0010
0100
0001
,  // measure 103
0010
1000
0010
0001
,  // measure 104
0100
0010
1000
0100
,  // measure 105
1000
0010
0100
0001
,  // measure 106
1000
0100
0010
0001
,  // measure 107
0100
0000
0010
0000
1000
0000
0000
1001
,  // measure 108
0000
1001
0000
0000
0010
0000
1000
0000
,  // measure 109
0100
0010
0001
0100
,  // measure 110
0010
0100
0001
0010
,  // measure 111
0100
1000
0010
1000
,  // measure 112
0001
0100
0010
1000
,  // measure 113
0001
0010
0100
1000
,  // measure 114
0010
0100
0001
0010
,  // measure 115
0100
1000
0001
0100
,  // measure 116
0010
1000
0100
0000
0010
1000
0100
0000
,  // measure 117
1000
0010
0100
0001
,  // measure 118
0010
0001
0100
0010
,  // measure 119
1000
0000
0100
0010
0100
0000
0001
0000
,  // measure 120
1001
1001
1001
1001
,  // measure 121
2002
0000
0000
0000
,  // measure 122
0000
0000
0000
0000
,  // measure 123
3003
0000
0000
0000
;

//---------------dance-single - ----------------
#NOTES:
     dance-single:
     :
     Hard:
     15:
     0.841,0.817,0.693,0.370,0.004:
0000
0000
0000
0000
,
0000
0000
0000
0000
,
0000
0000
0000
0000
,
0000
0000
0000
0000
0000
0000
0000
0000
0000
0000
0000
0000
0000
0010
0100
0000
,
1000
0000
0001
0000
0100
0010
0100
0000
,
0001
0000
0010
0100
0000
0100
0010
0000
,
0001
0000
1000
0000
0010
0100
0010
0000
,
1000
0000
0001
1000
0000
1000
0001
0000
,
0010
0000
0100
0000
1000
0010
1000
0000
,
0001
1000
0010
1000
0000
0001
0100
0000
,
0010
0000
1000
0000
0100
0010
0100
0000
,
0001
1000
0001
0100
0000
0010
1000
0000
,
0101
0000
1000
0010
1000
0010
1000
0000
,
0001
0100
0001
0100
0001
0100
0001
0000
,
0100
0010
0100
0010
0100
0010
0100
0000
,
0001
0010
0100
1000
0001
0010
0100
1000
,
1001
0100
0010
1010
,
0100
0010
0001
0101
,
0010
1000
0100
1100
,
0001
0100
0010
1000
0001
0100
0010
1000
,
0002
0203
0320
2030
,
3200
0000
0320
0000
0031
1000
0001
0001
,
2000
3200
0320
0032
,
0203
0000
0320
0000
1030
0100
1000
1000
,
0002
0203
0302
2003
,
3200
0000
0320
0000
0031
0100
0001
0001
,
2000
3020
0230
0302
,
2003
0000
3200
0000
0310
0001
0010
0000
,
1001
0000
0010
1000
0010
0000
1000
0100
,
1000
0000
0001
0100
0001
0000
0100
0010
,
0100
0000
0001
0010
0001
0000
1000
0100
,
1000
0000
0001
0100
0001
0000
1000
0000
,
1010
0011
1100
0101
,
0110
0011
1100
0101
,
0010
1000
0100
0010
0001
0100
0010
0100
,
0001
0010
0100
0010
0001
0100
0010
1000
,
0002
0000
1003
0100
2000
0000
3010
0100
,
0020
2030
3100
0010
,
0011
0110
1100
1001
,
0010
0000
1000
0100
1000
0000
0010
0000
,
0100
0001
0010
0100
,
0010
0001
0100
0010
,
1100
0101
1000
1010
,
0100
0001
0010
0100
,
1001
0000
0010
1000
0020
0000
1030
0001
,
2000
0000
3010
0100
0020
0000
0130
0000
,
0101
0110
1001
0101
,
1000
0010
1000
0000
0001
0000
0100
0000
,
0010
1000
0100
0010
,
0001
0100
0010
0100
,
0101
1010
0100
1001
,
0010
1000
0100
0010
0001
0100
0010
0000
,
1100
0101
1100
0101
,
1100
0000
0101
0000
0001
1000
0001
0000
,
1010
0011
1010
0011
,
1010
0000
0011
0000
0001
1000
0001
0000
,
1001
0110
1001
0110
,
1001
0000
0110
0000
0001
1000
0001
0000
,
1000
0100
1000
0000
0010
0100
0010
0000
,
0001
0100
0001
0000
0010
0100
0010
0000
,
0001
1000
0001
1000
0001
1000
0001
1000
,
0010
1000
0010
1000
0100
1000
0100
1000
,
0010
0100
0001
0010
,
0100
1000
0010
0100
,
0001
0100
0001
0100
0001
0100
0001
0100
,
0010
0100
0010
0100
0010
1000
0010
1000
,
0100
1000
0010
0100
,
0001
1000
0000
0100
0100
0010
0001
1000
,
0010
0000
0100
0001
0100
0000
0001
0010
,
0001
0000
1000
0010
1000
0000
0100
0010
,
0100
0000
1000
0010
1000
0000
0001
0100
,
0001
0000
1000
0001
1000
0000
0001
0000
,
0100
0001
0010
0100
1000
0010
0100
0010
,
1000
0100
0010
0100
1000
0001
0100
0001
,
1000
0100
0010
0001
1000
0001
0100
0010
,
1000
0100
0001
0100
1000
0010
0100
0001
,
2000
0000
3001
0010
0002
0000
0103
0010
,
0200
0000
0310
1000
0020
0000
1030
0000
,
0011
0110
1100
1001
,
0100
0001
0100
0001
0010
0000
0100
0000
,
1000
0000
0010
0100
0010
0000
1000
0000
,
0100
0000
0010
0001
0010
0000
0100
0000
,
1000
0000
0001
0100
0001
0000
1000
0000
,
0010
0000
0100
0001
0100
0000
0001
0000
,
1001
0000
0010
0001
0020
0000
0130
1000
,
0200
0000
0310
0001
1000
0100
0010
0000
,
1001
0011
1100
1001
,
0100
0001
0100
0000
0001
0000
0010
0001
,
0010
0100
1000
0010
,
0100
0010
0100
0000
0010
0000
1000
0000
,
0001
0010
0001
0000
1000
0000
0100
0000
,
0010
0100
0010
0000
0100
0000
1000
0000
,
0010
0100
1010
0010
,
0110
1000
1010
0100
,
1000
0010
1010
0100
,
0110
0001
0101
0010
,
0100
1000
1010
0100
,
0101
0010
0110
1000
,
0010
0100
0011
1000
,
0101
0000
0010
0000
1000
0100
0010
0001
,
0100
0010
1010
0001
,
0101
1000
1010
0100
,
0001
0010
0011
0100
,
0110
1000
1001
0010
,
0100
1000
0010
0100
,
0001
0010
0100
1000
,
0010
0000
0100
0001
0010
0001
0100
0110
,
0000
1010
0000
0100
0001
0010
0100
1000
,
2010
3010
0102
0103
,
2001
3001
1020
1030
,
0001
0000
0100
0001
1000
0000
0010
0100
,
0001
0000
1000
0100
0010
0000
0001
1000
,
1020
1030
0102
0103
,
2010
3010
1002
1003
,
0100
0000
0001
0010
0100
0000
1000
0001
,
0100
0000
0010
1000
0001
0000
1000
0100
,
1000
0000
0010
0100
0001
0000
1000
0100
,
0010
0000
0100
1000
0010
0000
0100
0001
,
1000
0000
0100
0010
0001
0100
0010
0000
,
1100
0101
1001
0110
,
0202
0000
0000
0000
,
0000
0000
0000
0000
,
0303
0000
0000
0000
;

//---------------dance-single - ----------------
#NOTES:
     dance-single:
     :
     Easy:
     7:
     0.493,0.817,0.535,0.724,0.000: // measure 1
0000
0000
0000
0000
,  // measure 2
0000
0000
0000
0000
,  // measure 3
0000
0000
0000
0000
,  // measure 4
0000
0000
0000
0000
,  // measure 5
1000
0000
0001
0000
,  // measure 6
0100
0010
0100
0000
,  // measure 7
0001
0000
0010
0000
,  // measure 8
0100
1000
0100
0000
,  // measure 9
1000
0000
0010
0000
,  // measure 10
0100
0001
0100
0000
,  // measure 11
0010
0000
1000
0000
,  // measure 12
0001
1000
0001
0000
,  // measure 13
2020
0000
3030
0202
,  // measure 14
0000
0000
0303
0022
,  // measure 15
0000
0000
0033
2002
,  // measure 16
0000
0000
0000
3003
,  // measure 17
2020
0000
3030
0220
,  // measure 18
0000
0000
0330
0202
,  // measure 19
0000
0000
0303
2002
,  // measure 20
0000
0000
0000
3003
,  // measure 21
0010
1000
0010
1000
,  // measure 22
0002
2000
0000
3003
,  // measure 23
0010
0100
0010
0100
,  // measure 24
0002
0200
0000
0303
,  // measure 25
0010
0100
0010
0100
,  // measure 26
0002
2000
0000
3003
,  // measure 27
0010
1000
0010
1000
,  // measure 28
0200
0000
0320
0000
,  // measure 29
0032
0000
2003
0000
,  // measure 30
3020
0000
2030
0000
,  // measure 31
3200
0000
0320
0000
,  // measure 32
0032
0000
0203
0000
,  // measure 33
0310
0000
0101
0000
,  // measure 34
0010
0000
1100
0000
,  // measure 35
0010
0000
1001
0000
,  // measure 36
0100
0000
0101
0000
,  // measure 37
2002
3003
0220
0330
,  // measure 38
0022
0033
2200
3300
,  // measure 39
0001
1000
0001
1000
,  // measure 40
0000
0000
0000
0000
,  // measure 41
0010
0000
1010
0000
,  // measure 42
0100
0000
0101
0000
,  // measure 43
0010
0000
0011
0000
,  // measure 44
1000
0000
1100
0000
,  // measure 45
2002
3003
0220
0330
,  // measure 46
0022
0033
2200
3300
,  // measure 47
0001
1000
0001
1000
,  // measure 48
0000
0000
0000
0000
,  // measure 49
0010
0000
0110
0000
,  // measure 50
0001
0000
0101
0000
,  // measure 51
1000
0000
1010
0000
,  // measure 52
0001
0000
1001
0000
,  // measure 53
0010
1000
0010
1000
,  // measure 54
0010
1000
0001
0000
,  // measure 55
0100
0010
0100
0010
,  // measure 56
0100
0001
1000
0000
,  // measure 57
0010
0001
0010
0001
,  // measure 58
0010
0001
0100
0000
,  // measure 59
0010
0100
0010
0100
,  // measure 60
0010
1000
0001
0000
,  // measure 61
1000
0100
0010
0001
,  // measure 62
1000
0100
0010
0000
,  // measure 63
0001
0100
0010
1000
,  // measure 64
0001
0100
0010
0000
,  // measure 65
1000
0001
1000
0001
,  // measure 66
0100
0001
0100
0000
,  // measure 67
0001
1000
0001
1000
,  // measure 68
0100
1000
0100
0000
,  // measure 69
0020
0000
2030
0000
,  // measure 70
3200
0000
0320
0000
,  // measure 71
0031
0100
0010
0100
,  // measure 72
0001
0010
0100
1000
,  // measure 73
0020
0000
2030
0000
,  // measure 74
3002
0000
0203
0000
,  // measure 75
0310
0100
0001
0010
,  // measure 76
0100
1000
0010
0000
,  // measure 77
0202
0303
2200
3300
,  // measure 78
0022
0033
2002
3003
,  // measure 79
0010
1000
0100
0010
,  // measure 80
0001
0100
0010
0000
,  // measure 81
0001
0000
0101
0000
,  // measure 82
1000
0000
1001
0000
,  // measure 83
0010
0000
1010
0000
,  // measure 84
0100
0000
0110
0000
,  // measure 85
0202
0303
2200
3300
,  // measure 86
0220
0330
2002
3003
,  // measure 87
0010
0100
0001
0010
,  // measure 88
0100
1000
0001
0000
,  // measure 89
1000
0000
1010
0000
,  // measure 90
0001
0000
0101
0000
,  // measure 91
0010
0000
0110
0000
,  // measure 92
1000
0000
1010
0000
,  // measure 93
0001
0000
1010
0000
,  // measure 94
0011
0000
1001
0000
,  // measure 95
0101
0000
0020
0000
,  // measure 96
2030
0000
3200
0000
,  // measure 97
0310
0000
0011
0000
,  // measure 98
0110
0000
1100
0000
,  // measure 99
1001
0000
0020
0000
,  // measure 100
2030
0000
3200
0000
,  // measure 101
0310
0000
0101
0000
,  // measure 102
1001
0000
1100
0000
,  // measure 103
0011
0000
0200
0000
,  // measure 104
0320
0000
2030
0000
,  // measure 105
3001
0000
0100
0000
,  // measure 106
0010
0000
1000
0000
,  // measure 107
0001
0010
0100
1000
,  // measure 108
0001
0010
0100
1000
,  // measure 109
0010
0000
1010
0000
,  // measure 110
0101
0000
1001
0000
,  // measure 111
0020
0000
0230
0000
,  // measure 112
2300
0000
3001
0000
,  // measure 113
0101
0000
1010
0000
,  // measure 114
0011
0000
1001
0000
,  // measure 115
0200
0000
2300
0000
,  // measure 116
3002
0000
0103
0000
,  // measure 117
0101
0000
1010
0000
,  // measure 118
1001
0000
0110
0000
,  // measure 119
0002
0000
0203
0000
,  // measure 120
0320
0000
1030
0000
,  // measure 121
2002
0000
0000
0000
,  // measure 122
0000
0000
0000
0000
,  // measure 123
3003
0000
0000
0000
;
