#TITLE:Alejandro;
#SUBTITLE:;
#ARTIST:LADY GAGA;
#TITLETRANSLIT:;
#SUBTITLETRANSLIT:;
#ARTISTTRANSLIT:;
#CREDIT:;
#BANNER:Alejandro-bn.png;
#BACKGROUND:Alejandro-bg.png;
#LYRICSPATH:;
#CDTITLE:;
#MUSIC:Alejandro.mp3;
#OFFSET:-0.060;
#SAMPLESTART:47.548;
#SAMPLELENGTH:16.100;
#SELECTABLE:YES;
#BPMS:0.000=99.000;
#STOPS:78.000=0.615
,109.000=0.580
;
#BGCHANGES:-0.200=Alejandro.avi=1.000=1=1=0,
99999=-nosongbg-=1.000=0=0=0 // don't automatically add -songbackground-
;

//---------------dance-single - ----------------
#NOTES:
     dance-single:
     :
     Beginner:
     1:
     0.103,0.135,0.027,0.000,0.000: // measure 1
0000
0000
0000
0000
,  // measure 2
0000
0000
0000
0000
,  // measure 3
0000
0000
0000
0000
,  // measure 4
0000
0000
0000
0000
,  // measure 5
1001
0000
0100
0000
,  // measure 6
1000
1000
1000
0000
,  // measure 7
0100
0000
1000
0000
,  // measure 8
0001
0001
0001
0000
,  // measure 9
1001
0000
0000
0000
,  // measure 10
0010
0000
0000
0000
,  // measure 11
1000
0000
1000
0000
,  // measure 12
1000
0000
0000
0000
,  // measure 13
0001
0000
0000
0000
,  // measure 14
0100
0000
0000
0000
,  // measure 15
0010
0000
0010
0000
,  // measure 16
0010
0000
0000
0000
,  // measure 17
1000
0000
0100
0000
,  // measure 18
1000
0000
1000
0000
,  // measure 19
0001
0000
0010
0000
,  // measure 20
0001
0000
0000
0000
,  // measure 21
0000
0100
0000
0010
,  // measure 22
0010
0000
0000
1000
,  // measure 23
0000
0100
0000
1000
,  // measure 24
1000
0000
0000
0001
,  // measure 25
0000
0010
0000
0001
,  // measure 26
0000
1000
0000
0100
,  // measure 27
0000
0010
0000
0100
,  // measure 28
0100
0000
0000
0000
,  // measure 29
0010
0000
1000
0000
,  // measure 30
0100
0000
1000
1000
,  // measure 31
1000
0000
0010
0000
,  // measure 32
1000
0000
0100
0000
,  // measure 33
0100
0000
1000
0000
,  // measure 34
0001
0000
0010
0010
,  // measure 35
0010
0000
0100
0000
,  // measure 36
0010
0000
0001
0000
,  // measure 37
1000
0000
1000
0000
,  // measure 38
0100
0000
1000
0000
,  // measure 39
0001
0000
0001
0000
,  // measure 40
0010
0000
0100
0000
,  // measure 41
0010
0000
0100
0100
,  // measure 42
0100
0000
1000
0000
,  // measure 43
0001
0000
0100
0100
,  // measure 44
0100
0000
1001
0000
;

//---------------dance-single - ----------------
#NOTES:
     dance-single:
     :
     Medium:
     7:
     0.311,0.313,0.142,0.275,0.000: // measure 1
0000
0000
0000
0000
,  // measure 2
0000
0000
0000
0000
,  // measure 3
0000
0100
0000
0001
,  // measure 4
0000
1000
0000
1001
,  // measure 5
0110
1000
0100
1000
,  // measure 6
0001
0000
0010
0100
0100
0000
0010
0000
,  // measure 7
0001
1000
0010
1000
,  // measure 8
0001
0000
0100
0001
0002
0000
2003
0000
,  // measure 9
3200
0000
1300
0000
0000
0000
0010
1000
,  // measure 10
0100
0000
2000
0000
3000
0000
0100
0010
,  // measure 11
0002
0103
0020
1030
,  // measure 12
0200
0300
2000
3002
,  // measure 13
0203
0000
0310
0000
0000
0000
0001
0010
,  // measure 14
0200
0000
1300
0000
0000
0000
0010
1000
,  // measure 15
0200
1300
0002
0103
,  // measure 16
2000
0000
3000
0000
0001
0010
0001
0000
,  // measure 17
0100
0010
0100
0010
1000
0010
1000
0000
,  // measure 18
0001
0100
0001
0100
0001
1000
0001
0000
,  // measure 19
0010
0100
0010
0100
1000
0100
1000
0000
,  // measure 20
0001
0100
0001
0000
1001
0000
0020
0000
,  // measure 21
1030
0100
2000
0000
3001
1000
0002
0000
,  // measure 22
0103
0000
0010
0100
0010
0000
2000
0000
,  // measure 23
3001
0100
0002
0000
0013
0100
0020
0000
,  // measure 24
0031
1000
0010
0200
,  // measure 25
0301
1000
0002
0000
0013
0100
2000
0000
,  // measure 26
0100
0000
3010
0000
0001
1000
0002
0000
,  // measure 27
0103
0000
2000
0000
3100
0000
0001
1000
,  // measure 28
0001
0110
2000
3100
,  // measure 29
0020
0031
0100
0010
,  // measure 30
1000
0000
0001
0000
0010
0100
0010
0010
,  // measure 31
0001
1000
0001
0001
1000
0000
0100
0000
,  // measure 32
1000
0000
0010
0100
0020
0000
1030
0000
,  // measure 33
0002
0103
0001
1000
,  // measure 34
0100
0000
0010
0000
0100
1000
0100
0100
,  // measure 35
1000
0001
1000
1000
0010
0000
0100
0000
,  // measure 36
0001
1000
0110
1000
,  // measure 37
0110
0000
1000
0000
0100
1000
0001
0000
,  // measure 38
0100
0001
1000
0011
,  // measure 39
1000
0011
0100
0001
,  // measure 40
1000
0100
0010
0000
0001
0000
0110
0000
,  // measure 41
0001
0110
1100
1001
,  // measure 42
1010
0000
0101
0000
0110
0000
0001
1000
,  // measure 43
0100
1000
0001
0000
0100
0000
0010
1000
,  // measure 44
0010
0100
0001
0000
0220
0000
0000
0000
,  // measure 45
0330
0000
0000
0000
;

//---------------dance-single - ----------------
#NOTES:
     dance-single:
     :
     Hard:
     11:
     0.434,0.410,0.062,0.107,0.275: // measure 1
0000
0000
0000
0000
,  // measure 2
0000
0000
0000
0000
,  // measure 3
0000
0100
0000
0001
,  // measure 4
0000
1000
0000
0110
,  // measure 5
1001
0000
0100
0001
1000
0000
0100
1000
,  // measure 6
0010
0000
1000
0001
0010
0000
0001
0100
,  // measure 7
0101
0000
0010
1000
0100
0000
1000
0100
,  // measure 8
0010
0000
0001
1000
0002
0000
0203
0000
,  // measure 9
0310
0000
0000
0000
1000
0000
0100
0000
0010
0000
0000
0000
0001
0000
1000
0100
,  // measure 10
1000
0000
0000
0000
0010
0000
0000
0000
1000
0001
1000
0000
0010
0000
0000
0000
,  // measure 11
0100
0000
0001
0000
0100
0000
0010
1000
0000
0000
0100
0000
1000
0000
0001
1000
,  // measure 12
0000
0000
0000
0000
0010
0000
0100
0000
0001
0100
0001
0000
1000
0000
0000
0000
,  // measure 13
0110
0000
0000
0000
1000
0000
0100
0000
0010
0000
0000
0000
0001
0000
0100
0010
,  // measure 14
0100
0000
0000
0000
0001
0000
0000
0000
1000
0100
1000
0000
0001
0000
0000
0000
,  // measure 15
0010
0000
0001
0000
0100
0000
0010
0100
0000
0000
0001
0000
0010
0000
0001
1000
,  // measure 16
0000
0000
0000
0000
0100
0000
1000
0000
0010
0100
0010
0000
1000
0000
0000
0000
,  // measure 17
0100
0010
0001
0200
1000
1000
1300
0000
,  // measure 18
0010
0000
0100
0000
0001
0000
1000
0100
0000
0000
1000
0000
0001
0000
0000
0000
,  // measure 19
1000
0010
0001
0020
1000
1000
1030
0000
,  // measure 20
0100
0000
1000
0000
0001
1000
0001
0000
1001
0000
0000
0000
0010
0000
0000
1000
,  // measure 21
0100
0000
1000
0000
0001
0000
0000
0010
0001
0000
0100
0010
0100
0000
0000
0010
,  // measure 22
1000
0000
0100
0000
0010
0000
0000
0001
1000
0000
0100
0000
1000
0000
0000
0010
,  // measure 23
1000
0000
0001
0000
0100
0000
0000
0010
0100
0000
0001
1000
0001
0000
0000
0010
,  // measure 24
0001
0000
1000
0000
0100
0000
0000
1000
0010
0000
0100
0000
0001
0100
0001
0000
,  // measure 25
1000
0000
1000
0000
0100
0010
0100
0000
1000
0000
1000
0000
0001
0000
0100
0000
,  // measure 26
0001
0000
0100
0000
0010
0000
1000
0000
1010
0000
0000
0000
1000
0000
0000
0100
,  // measure 27
1000
0000
0001
0000
0010
0000
0000
0001
0100
0000
0010
0000
0100
0001
0100
0000
,  // measure 28
0010
0000
1000
0000
1001
0000
0000
0000
0100
0000
1000
0100
1000
0000
0010
0000
,  // measure 29
0100
0000
0001
1000
0001
0000
0100
0000
0010
0000
0000
0010
0100
0000
0001
0000
,  // measure 30
1000
0000
0000
1000
0100
0000
0010
0000
0001
1000
0001
1000
0001
0000
1000
0000
,  // measure 31
0100
0010
0100
0010
0100
0000
0010
0000
0100
0000
0000
0100
1000
0000
0010
0000
,  // measure 32
0100
0000
0000
0100
0001
0000
1000
0100
1000
0000
0010
0000
1000
0000
0001
0100
,  // measure 33
0001
0000
0010
0000
0001
0000
1000
0000
0010
0000
0000
0010
0100
0000
0001
0000
,  // measure 34
1000
0000
0000
1000
0100
0000
0010
0000
0001
0100
0001
0100
0001
0000
0010
0000
,  // measure 35
0100
1000
0100
1000
0100
0000
0010
0000
0001
0000
0000
0001
0100
0000
0010
0000
,  // measure 36
1000
0000
0100
0000
0010
0000
0001
0100
0010
0000
1000
0000
0001
0000
1000
0100
,  // measure 37
0010
0000
0001
0000
1000
0000
0010
0100
0020
0000
0000
2030
0000
0000
0000
0000
,  // measure 38
0100
0000
0100
0000
3100
0000
1000
0010
0100
0000
0001
0000
1000
0000
0100
0010
,  // measure 39
0001
0000
1000
0000
0001
0000
0100
0010
0200
0000
0000
0302
0000
0000
0000
0000
,  // measure 40
1000
0000
1000
0000
1003
0000
0100
1000
0100
0000
0010
0000
0001
0000
0100
0010
,  // measure 41
1000
0001
0010
0100
0010
0001
1000
0010
,  // measure 42
0100
0000
0010
0000
0010
0000
1000
0100
0010
0000
0001
0000
0001
0000
1000
0001
,  // measure 43
0100
0000
0100
0000
0010
0000
1000
0100
2000
0000
0000
3020
0000
0000
0000
0000
,  // measure 44
0100
0000
0100
0000
0130
0000
1000
0100
0002
0000
0000
2000
0000
0000
0000
0000
,  // measure 45
3003
0000
0000
0000
;

//---------------dance-single - ----------------
#NOTES:
     dance-single:
     :
     Easy:
     3:
     0.178,0.215,0.115,0.107,0.000: // measure 1
0000
0000
0000
0000
,  // measure 2
0000
0000
0000
0000
,  // measure 3
0000
1000
0000
0001
,  // measure 4
0000
1000
0000
1001
,  // measure 5
1001
0000
0100
0000
,  // measure 6
1000
0010
0100
0000
,  // measure 7
0010
0000
1000
0000
,  // measure 8
0001
0010
0100
0000
,  // measure 9
1001
0000
0100
0000
,  // measure 10
1000
0000
0010
0000
,  // measure 11
1000
0100
0010
0001
,  // measure 12
0100
0000
0010
0000
,  // measure 13
0110
0000
0001
0000
,  // measure 14
1000
0000
0100
0000
,  // measure 15
1000
0010
1000
0001
,  // measure 16
0100
0000
0001
0000
,  // measure 17
0010
0010
0001
0011
,  // measure 18
1000
1000
0100
1100
,  // measure 19
0010
0010
0100
0110
,  // measure 20
0001
1000
1001
0200
,  // measure 21
0300
2000
3000
0010
,  // measure 22
1000
0100
0000
0020
,  // measure 23
0030
0002
0003
0100
,  // measure 24
0001
1000
0000
0200
,  // measure 25
0300
2000
3000
0002
,  // measure 26
0003
2000
3000
0020
,  // measure 27
0030
0200
0300
0001
,  // measure 28
1000
0100
1000
0100
,  // measure 29
1000
0100
1000
0000
,  // measure 30
0010
0000
0100
0001
,  // measure 31
0100
0001
1000
0000
,  // measure 32
0001
0000
0010
0100
,  // measure 33
0010
0100
0010
0000
,  // measure 34
0001
0000
1000
0010
,  // measure 35
1000
0010
1000
0000
,  // measure 36
0100
0000
1001
0000
,  // measure 37
1001
0000
0100
0100
,  // measure 38
0000
0000
1001
0000
,  // measure 39
1001
0000
0010
0010
,  // measure 40
0000
0000
1000
0010
,  // measure 41
1000
0010
0100
0001
,  // measure 42
0100
0000
0001
1000
,  // measure 43
0001
1000
0100
0010
,  // measure 44
0100
0000
2002
0000
,  // measure 45
3003
0000
0000
0000
;
