#TITLE:Silenced By The Night;
#SUBTITLE:;
#ARTIST:Keane;
#TITLETRANSLIT:;
#SUBTITLETRANSLIT:;
#ARTISTTRANSLIT:;
#CREDIT:;
#BANNER:Silenced By The Night-bn.png;
#BACKGROUND:Silenced By The Night-bg.png;
#LYRICSPATH:;
#CDTITLE:;
#MUSIC:Silenced By The Night.mp3;
#OFFSET:-0.110;
#SAMPLESTART:50.680;
#SAMPLELENGTH:16.340;
#SELECTABLE:YES;
#BPMS:0.000=112.000;
#STOPS:;
#BGCHANGES:0.500=Silenced By The Night.avi=1.000=1=0=0,
99999=-nosongbg-=1.000=0=0=0 // don't automatically add -songbackground-
;

//---------------dance-single - ----------------
#NOTES:
     dance-single:
     :
     Beginner:
     1:
     0.107,0.134,0.035,0.000,0.000:
0000
0000
0000
0000
,
0000
0000
0000
0000
,
0000
0000
0000
0000
,
0000
0000
0000
0000
,
0100
0000
0100
0000
,
0010
0000
0000
0000
,
0010
0000
0010
0000
,
1000
0000
0000
0000
,
1001
0000
0000
0000
,
0100
0000
0000
0000
,
1000
0000
0001
0000
,
0010
0000
0000
0000
,
0001
0000
0000
0000
,
0010
0000
0000
0000
,
0100
0000
1000
0000
,
0001
0000
0000
0000
,
1001
0000
0000
0000
,
0100
0000
0000
0000
,
0010
0000
1000
0000
,
0100
0000
0000
0000
,
1000
0000
0000
0000
,
0001
0000
0000
0000
,
0010
0000
0001
0000
,
0100
0000
0000
0000
,
0010
0010
0010
0010
,
0010
0000
0000
0000
,
1000
0000
1000
0000
,
0001
0000
0000
0000
,
1000
1000
1000
1000
,
1000
0000
0000
0000
,
0100
0000
0100
0000
,
0010
0000
0000
0000
,
1000
1000
0000
0000
,
1000
0000
0001
0000
,
0010
0010
0000
0000
,
0010
0000
0100
0000
,
1000
1000
0000
0000
,
1000
0000
0001
0000
,
0100
0100
0000
0000
,
0100
0000
0000
0000
,
0110
0000
0000
0000
,
0000
0000
0000
0000
,
1000
0000
1000
0000
,
1000
0000
1000
0000
,
1001
0000
0001
0000
,
0001
0000
0001
0000
,
0100
0000
0100
0000
,
0010
0000
1000
0000
,
0001
0000
0001
0000
,
1000
0000
1000
0000
,
0100
0000
0100
0000
,
1000
0000
0001
0000
,
0010
0010
0010
0010
,
0010
0000
0000
0000
,
0001
0000
0001
0000
,
0100
0000
0000
0000
,
0001
0001
0001
0001
,
0001
0000
0000
0000
,
1000
0000
1000
0000
,
0010
0000
0000
0000
,
0110
0000
0000
0000
,
0001
0000
0001
0000
,
0001
0000
0000
0000
,
0100
0100
0100
0100
;

//---------------dance-single - ----------------
#NOTES:
     dance-single:
     :
     Medium:
     6:
     0.313,0.357,0.112,0.105,0.000:
0000
0000
0000
0000
,
0000
0000
0000
0000
,
0000
0000
0000
0000
,
0000
0000
0000
0000
,
0010
0100
0000
0000
0010
0100
0000
0000
,
0001
1000
0000
0000
0001
1000
0000
0000
,
0100
1000
0000
0000
0100
1000
0000
0000
,
0010
0100
0000
0000
0010
0100
0000
0000
,
0101
0010
1000
1000
,
0010
0000
0100
0001
1000
0000
0100
0000
,
1000
0001
0010
0001
,
0100
0010
0100
0001
1000
0001
0100
0000
,
0010
1000
1000
0001
,
0100
0010
0100
0000
0001
0000
1000
0000
,
0100
0000
1000
0000
0010
0010
1000
0000
,
0001
0000
0100
0000
0010
0010
0100
0000
,
0001
0000
0100
0000
1000
1000
1000
0100
,
1000
0000
0010
0000
0100
0001
1000
0000
,
0020
0000
0000
0000
0130
0001
0100
0000
,
0010
1000
0001
0000
,
1000
0100
1000
0100
0010
0100
0010
0000
,
0001
0000
1000
0000
0010
0100
0100
0000
,
0110
0001
0100
1000
,
0001
0010
0100
0000
,
2100
3010
0102
1003
,
0220
0330
0000
0010
,
0100
0010
0100
0010
1000
0010
1000
0010
,
1000
0001
1000
0001
0100
0000
0000
0000
,
0102
0103
2010
3001
,
0220
0000
0330
1000
,
0100
1000
0100
1000
0010
0100
0010
0100
,
0001
0010
0100
1000
0001
1000
0100
0000
,
0010
0001
0010
0000
0001
0000
0100
0000
,
0010
1000
0010
0000
0100
0000
0001
0000
,
1000
0100
1000
0000
0001
1000
0100
0000
,
0010
0100
0010
0000
0001
0000
1000
0000
,
0110
0001
0100
0010
,
1000
0000
1100
0000
0001
1000
0100
0010
,
0001
0000
0100
0000
0010
0100
0001
1000
,
0100
1000
0001
0000
0010
0001
0100
0000
,
0220
0000
0000
0000
,
0000
0000
0000
0330
,
0001
0001
1000
1000
,
0100
1000
1000
0010
0010
0100
0100
0010
,
2000
0001
0001
3001
,
0010
0110
0001
1001
,
0100
1000
0100
1000
0001
1000
0001
1000
,
0010
0100
0010
0100
0001
0100
0001
0000
,
0020
0100
0100
0100
,
0100
0000
0100
0000
0130
0000
0110
0001
,
1000
0100
1000
0010
0100
0001
1000
0100
,
1000
0001
0010
0100
0010
0001
1000
0000
,
0010
0010
0010
0000
1000
0000
0001
0000
,
0100
0110
0000
1000
,
0100
1000
0001
0010
,
0001
0100
0010
1000
0000
0000
0010
0000
,
0010
0010
1000
1100
,
0000
0000
0001
0100
0001
1000
0001
0000
,
0010
0000
0100
0000
1000
0100
0010
0000
,
0001
0000
1000
0000
0001
0100
1000
0000
,
0020
0000
0000
0000
,
0230
0000
0000
0000
,
0301
0001
1000
1000
,
0010
1000
0000
0000
0000
0100
0010
0100
;

//---------------dance-single - ----------------
#NOTES:
     dance-single:
     :
     Hard:
     9:
     0.416,0.402,0.091,0.203,0.000:
0000
0000
0000
0000
,
0000
0000
0000
0000
,
0000
0000
0000
0000
,
0000
0000
0000
0000
,
0010
0100
0001
0000
0100
0001
1000
0000
,
0100
1000
0010
0000
1000
0100
0001
0000
,
1000
0001
0100
0000
0010
0100
0001
0000
,
0010
0001
1000
0000
0010
1000
0100
1000
,
0010
0100
0001
1000
0010
1000
0001
0000
,
0010
0100
0010
0001
1000
0010
0100
0000
,
0002
0103
2000
3100
,
0020
0000
0130
0000
2000
0001
3100
0000
,
1000
0001
0100
0010
0100
0001
0010
0000
,
0001
0010
0100
1000
0010
0100
0001
0000
,
2000
3001
0020
0130
,
0002
0000
0103
0000
2000
0010
3001
0000
,
1000
0001
0100
0010
0100
0001
2000
0000
,
3100
1000
0010
0100
0010
1000
0002
0000
,
0013
0000
1100
0000
0010
0100
0001
0000
,
1000
0000
0101
0000
0010
1000
0100
0000
,
0001
1000
0100
1000
0010
0100
0002
0000
,
0013
0001
1000
0010
1000
0100
0010
0000
,
0100
1000
1100
0000
0010
0100
0110
0000
,
0001
0100
1000
0100
0010
1000
0100
0010
,
1001
0100
1000
0100
0010
1000
0100
1000
,
0001
0010
0100
1000
0010
0100
0001
0010
,
0001
0010
0100
1000
0010
0100
0001
1000
,
0100
1000
0010
0100
0010
1000
0001
0010
,
0100
1000
0100
1000
0010
0100
0001
1000
,
0010
0100
0001
1000
0100
1000
0001
0010
,
0100
1000
0010
0100
0001
1000
0001
1000
,
0100
0010
0001
0100
0010
1000
0100
0000
,
2010
3001
0100
0010
,
1002
0000
0103
0000
0010
0001
0100
1000
,
0200
0000
0310
0000
1000
0001
0100
0010
,
2000
0000
3001
0000
0010
0001
1000
0100
,
0020
0130
0011
1100
,
1001
0000
0010
0000
1000
0100
1000
0000
,
0020
0000
0130
0000
1000
0100
0001
1000
,
0100
0010
0001
1000
0010
0100
0001
0000
,
0000
0000
1000
0100
0000
0000
0001
0100
,
0000
0000
1000
0100
0000
0000
0010
0100
,
0000
0000
1000
0100
0000
0000
0001
0100
,
0000
1000
0100
1000
0001
0100
0010
1000
,
0210
0000
0001
0000
0010
0010
0001
0000
,
0320
0000
1000
0000
0100
0100
1030
0000
,
0100
1000
0010
0100
0001
0010
1000
0010
,
0001
1000
0100
1000
0001
0100
0010
0000
,
0102
0000
0010
0000
1000
1000
0100
0000
,
2003
0000
0010
0000
0100
0100
3100
0000
,
0001
0010
0100
0010
0001
1000
0010
0100
,
0001
1000
0010
0100
0001
1000
0100
1000
,
0110
0100
0001
0010
1000
0010
0001
1000
,
0100
1000
0010
0100
0001
1000
0001
1000
,
0100
0010
0001
0100
0010
0100
0001
1000
,
0100
0010
0001
0100
0010
1000
0100
1000
,
0100
0010
0001
0100
0010
1000
0001
0100
,
0010
1000
0001
0010
0001
0010
0100
0010
,
0001
1000
0010
0100
0001
1000
0100
1000
,
0010
0100
0001
0010
0100
1000
0010
0100
,
0002
0000
0203
0000
,
2300
0000
3020
0000
,
2030
0000
3200
0000
,
0302
0000
0000
0000
0023
0000
0100
0130
;

//---------------dance-single - ----------------
#NOTES:
     dance-single:
     :
     Easy:
     4:
     0.262,0.335,0.161,0.336,0.000: // measure 1
0000
0000
0000
0000
,  // measure 2
0000
0000
0000
0000
,  // measure 3
0000
0000
0000
0000
,  // measure 4
0000
0000
0000
0000
,  // measure 5
0020
0230
0302
2003
,  // measure 6
3020
2030
3200
0000
,  // measure 7
2300
3002
0023
0032
,  // measure 8
2003
3020
0230
0000
,  // measure 9
0301
0001
1000
1000
,  // measure 10
0001
1000
0001
1000
,  // measure 11
0200
0300
2000
3000
,  // measure 12
0020
0030
2000
3000
,  // measure 13
0001
1000
0001
1000
,  // measure 14
0001
0001
1000
1000
,  // measure 15
0002
0003
0020
0030
,  // measure 16
0002
0003
0200
0300
,  // measure 17
0010
0010
1000
0100
,  // measure 18
1000
1000
0010
0100
,  // measure 19
0020
0030
2000
3000
,  // measure 20
0002
0003
0020
0030
,  // measure 21
0001
0100
0010
0010
,  // measure 22
0100
0001
0010
0010
,  // measure 23
0200
0300
2000
3000
,  // measure 24
0002
0003
0200
0300
,  // measure 25
1001
1001
0110
0110
,  // measure 26
2002
0000
3003
0000
,  // measure 27
0100
1000
0100
0100
,  // measure 28
0010
0001
0010
0000
,  // measure 29
1001
1001
0110
0110
,  // measure 30
2002
0000
3003
0000
,  // measure 31
0100
1000
1000
0010
,  // measure 32
0100
0001
0000
0000
,  // measure 33
0010
0010
0010
0000
0001
0000
1000
0000
,  // measure 34
0001
0100
0010
1000
,  // measure 35
0100
0000
1000
0100
,  // measure 36
0010
0000
0001
1000
,  // measure 37
0001
0001
0001
0000
0010
0000
0001
0000
,  // measure 38
1000
0010
0100
0010
,  // measure 39
1000
0000
0100
1000
,  // measure 40
0001
0000
0000
0100
,  // measure 41
0200
0000
0302
0000
,  // measure 42
2003
0000
3020
0000
,  // measure 43
2030
0000
3200
0000
,  // measure 44
0320
0000
0032
0000
,  // measure 45
0103
0000
0100
0000
0100
0000
0100
0100
,  // measure 46
0100
0100
0100
0100
,  // measure 47
0010
0010
1000
0001
,  // measure 48
0100
0010
0110
0000
,  // measure 49
0001
0001
0001
0001
,  // measure 50
0001
0001
0001
0000
0001
0000
0001
0000
,  // measure 51
0010
0010
0001
1000
,  // measure 52
0010
0100
0110
0000
,  // measure 53
1001
1001
0110
0110
,  // measure 54
2002
0000
3003
0000
,  // measure 55
0100
0100
0100
0000
1000
0000
0010
0000
,  // measure 56
0100
0100
0100
0000
0000
0000
0000
0000
,  // measure 57
1001
1001
0110
0110
,  // measure 58
2002
0000
3003
0000
,  // measure 59
0001
0001
0001
0000
0100
0000
0001
0000
,  // measure 60
0010
0010
0010
0000
0001
0000
1000
0000
,  // measure 61
2002
0000
0000
0000
,  // measure 62
0000
0000
0000
3003
,  // measure 63
0000
0000
0100
0100
0000
0000
0100
0100
,  // measure 64
0000
0000
0100
0100
0000
0000
0100
0100
;
