#TITLE:My Sweet Darlin';
#SUBTITLE:~MOSH PIT STYLE~;
#ARTIST:GHOST COMPANY;
#TITLETRANSLIT:;
#SUBTITLETRANSLIT:;
#ARTISTTRANSLIT:;
#CREDIT:;
#BANNER:My Sweet Darlin' ~MOSH PIT STYLE~-bn.png;
#BACKGROUND:My Sweet Darlin' ~MOSH PIT STYLE~-bg.png;
#LYRICSPATH:;
#CDTITLE:;
#MUSIC:My Sweet Darlin' ~MOSH PIT STYLE~.mp3;
#OFFSET:-0.020;
#SAMPLESTART:46.640;
#SAMPLELENGTH:14.300;
#SELECTABLE:YES;
#BPMS:0.000=44.280,8.000=183.980,168.000=91.980,175.500=99.400,176.000=183.980,188.000=180.940,192.000=184.000,267.000=182.360,268.000=183.980;
#STOPS:334.000=0.310
;
#BGCHANGES:;

//---------------dance-single - ----------------
#NOTES:
     dance-single:
     :
     Beginner:
     2:
     0.142,0.241,0.000,0.000,0.000: // measure 1
0000
0000
0000
0000
,  // measure 2
0000
0000
0000
0000
,  // measure 3
1000
0000
0000
0000
,  // measure 4
0001
0000
0000
0000
,  // measure 5
0100
0000
0000
0000
,  // measure 6
0001
0000
0000
0000
,  // measure 7
1000
0000
0000
0000
,  // measure 8
0010
0000
0000
0000
,  // measure 9
1000
0000
0000
0000
,  // measure 10
0100
0000
0000
0000
,  // measure 11
0010
0000
0000
0000
,  // measure 12
0001
0000
0000
0000
,  // measure 13
1000
0000
0000
0000
,  // measure 14
0010
0000
0000
0000
,  // measure 15
1000
0000
0000
0000
,  // measure 16
0100
0000
0000
0000
,  // measure 17
0010
0000
0000
0000
,  // measure 18
0001
0000
0000
0000
,  // measure 19
1000
0000
0000
0000
,  // measure 20
0001
0000
0000
0000
,  // measure 21
0100
0000
0100
0000
,  // measure 22
0010
0000
0010
0000
,  // measure 23
1000
0000
1000
0000
,  // measure 24
0001
0000
0001
0000
,  // measure 25
1000
0000
0000
0000
,  // measure 26
0100
0000
0000
0000
,  // measure 27
1000
0000
1000
0000
,  // measure 28
0010
0000
0000
0000
,  // measure 29
0010
0000
0100
0000
,  // measure 30
0010
0000
0000
0000
,  // measure 31
0100
0000
0001
0000
,  // measure 32
0100
0000
0010
0000
,  // measure 33
0100
0000
0001
0000
,  // measure 34
0100
0000
0010
0000
,  // measure 35
1000
0000
0100
0000
,  // measure 36
1000
0000
0010
0000
,  // measure 37
1000
0000
0100
0000
,  // measure 38
1000
0000
0010
0000
,  // measure 39
0100
0000
0010
0000
,  // measure 40
0100
0000
0001
0000
,  // measure 41
0100
0000
0010
0000
,  // measure 42
0100
0000
0001
0000
,  // measure 43
0100
0000
0010
0000
,  // measure 44
1000
1000
1000
1000
,  // measure 45
1000
0000
0000
0000
,  // measure 46
0010
0000
0000
0000
,  // measure 47
0100
0000
0000
0000
,  // measure 48
0001
0000
0001
0000
,  // measure 49
0001
0000
0000
0000
,  // measure 50
0010
0000
0000
0000
,  // measure 51
0100
0000
0000
0000
,  // measure 52
1000
0000
0100
0000
,  // measure 53
1000
0000
0000
0000
,  // measure 54
0010
0000
0000
0000
,  // measure 55
1000
0000
0000
0000
,  // measure 56
0001
0000
0100
0000
,  // measure 57
0001
0000
0000
0000
,  // measure 58
0010
0000
0000
0000
,  // measure 59
0100
0000
0000
0000
,  // measure 60
1000
0000
0000
0000
,  // measure 61
0010
0000
0010
0000
,  // measure 62
1000
0000
1000
0000
,  // measure 63
0100
0000
0100
0000
,  // measure 64
0010
0000
0010
0000
,  // measure 65
0001
0000
0001
0000
,  // measure 66
1000
0000
1000
0000
,  // measure 67
0010
0000
0010
0000
,  // measure 68
0100
0100
0000
0000
,  // measure 69
1000
0000
0000
0000
,  // measure 70
0000
0000
0000
0000
,  // measure 71
0010
0000
1000
0000
,  // measure 72
0100
0000
1000
0000
,  // measure 73
0001
0000
0010
0000
,  // measure 74
0001
0000
0100
0000
,  // measure 75
0010
0000
0100
0000
,  // measure 76
0001
0000
0000
0000
,  // measure 77
0010
0000
0010
0000
,  // measure 78
0001
0000
1000
0000
,  // measure 79
0100
0000
0100
0000
,  // measure 80
1000
0000
1000
0000
,  // measure 81
0010
0000
0000
0000
,  // measure 82
1000
0000
0000
0000
,  // measure 83
0100
0000
0000
0000
,  // measure 84
0010
0000
0000
0000
,  // measure 85
0000
0000
0000
0001
,  // measure 86
0000
0000
0000
1000
,  // measure 87
0000
0000
0000
0100
,  // measure 88
0000
0000
0000
1000
,  // measure 89
0000
0000
0000
0010
,  // measure 90
0000
0000
0000
0100
,  // measure 91
0000
0100
0000
0001
,  // measure 92
0000
1000
0000
0010
,  // measure 93
0000
0000
0000
1000
,  // measure 94
0000
0000
0000
0100
,  // measure 95
0100
0000
0000
0000
;

//---------------dance-single - ----------------
#NOTES:
     dance-single:
     :
     Medium:
     10:
     0.413,0.447,0.110,0.000,0.000:
0000
0000
0000
0000
,
0000
0000
0000
0000
,
0010
1000
0100
1000
,
0001
0001
0010
0010
,
0001
1000
0010
0100
,
0010
0010
1000
1000
,
0100
1000
0010
0100
,
0001
0001
1000
1000
,
0010
1000
0100
0010
,
0001
1000
0010
0010
,
0100
0010
1000
0100
,
1000
0000
0000
0000
,
0001
1000
0100
1000
,
0010
0100
0001
1000
,
0010
0100
0010
0010
,
0100
0001
1000
1000
,
0100
0010
0001
1000
,
0010
1000
0001
0100
,
0010
0100
0001
0100
,
0010
1000
0100
0000
,
1000
0100
0010
0000
0100
0000
1000
0000
,
0001
0010
0100
1000
,
0010
1000
0001
0000
0100
0000
0010
0000
,
0100
0001
1000
0100
,
0010
0100
0100
0000
,
0010
0100
0100
0000
,
1000
0100
1000
0000
0010
0000
0010
0000
,
1000
0001
0100
0010
,
0100
0001
0100
0010
,
1000
0001
1000
0000
0000
0000
0000
0000
,
0100
1000
0100
0000
1000
0000
0010
0000
,
0100
0000
0001
0000
1000
0001
1000
0001
,
1000
0010
0100
0001
,
0100
0000
0000
0000
0010
0100
0010
0100
,
0010
1000
0100
0010
,
0001
0000
1000
0000
0001
0100
0001
0100
,
0001
0000
0000
0000
0100
0010
0100
0010
,
0100
0000
0010
1000
,
1010
0000
0000
0000
0100
1000
0010
0000
,
1000
0000
0001
0000
0010
0100
1000
0000
,
0010
0000
1000
0000
0010
0100
0001
0000
,
0010
0100
1000
0010
,
1001
0000
0010
1000
,
0100
1000
0010
0100
0010
1000
0100
0000
,
1000
0100
0001
0100
,
1000
0100
0001
0100
,
1000
0010
0001
0010
,
1000
0010
0001
0010
,
1001
0000
0100
0000
,
1000
0000
0010
0000
,
1000
1000
0100
0100
,
1000
0001
0010
0010
,
1001
0000
0010
0000
,
0100
0000
0001
0000
,
0110
0001
0100
1000
,
0100
0010
1000
0000
,
0100
1000
0100
0000
1000
0000
0001
0000
,
1000
0001
1000
0000
0001
0000
1000
0000
,
0010
0100
0010
0000
0100
0000
0001
0000
,
1000
0010
1000
0000
0001
0000
0100
0000
,
0010
0100
0001
0010
,
1000
0010
0100
0010
,
1000
0100
1000
0000
0001
1000
0001
0000
,
0100
0010
0100
0000
0001
0000
0100
0000
,
0110
0001
0100
1000
,
1010
0100
0001
1000
,
1001
0100
0010
0001
,
1000
0100
1000
0000
0000
0000
0000
0000
,
0010
0000
0000
1000
0000
0000
0100
0000
,
0001
0000
0000
0100
0000
0000
1000
0000
,
0010
0100
0010
1000
,
0100
0000
0010
0000
0001
0010
0001
0010
,
0001
0100
0010
0100
,
0001
0000
1000
0000
0100
1000
0100
1000
,
0100
0000
1000
0000
0010
0100
0010
0100
,
0010
1000
0100
1000
,
1001
0000
0010
1000
,
0100
0000
0100
0000
1000
0100
0010
0000
,
0001
0000
0001
0000
0010
0100
0010
0000
,
0001
0000
0001
0000
0100
0010
1000
0000
,
1001
0000
0010
1000
,
1100
0101
1000
0010
,
1010
0000
0001
0010
,
0011
0100
1000
0010
,
1000
0100
0010
1000
,
0100
0000
0010
0000
1000
0000
0001
1000
,
0001
1000
0010
0000
0010
0000
0100
0010
,
0100
0010
1000
0000
1000
0000
0100
0000
,
0010
0000
0001
0000
1000
0000
0010
0100
,
0001
0000
0010
0100
1000
0000
0010
0000
,
1000
0000
0001
0000
0010
0000
0100
0010
,
0100
0000
0010
0001
1000
0100
0010
0000
,
0000
0000
0000
1001
,
0000
0000
0000
0000
0000
0000
0010
1000
,
0100
0000
0000
0000
;

//---------------dance-single - ----------------
#NOTES:
     dance-single:
     :
     Hard:
     15:
     0.739,0.859,0.395,0.139,0.117:
0000
0000
0000
0000
,
0000
0000
0000
0000
,
0010
0001
0010
0100
0010
1000
0001
1000
,
0100
0010
0001
1000
0010
1000
0001
0010
,
0100
1000
0100
0010
0100
0001
0100
0010
,
0100
0000
1000
0000
0001
0000
0100
0000
0010
0000
1000
0001
1000
0001
1000
0000
,
0000
0101
0000
1000
0100
1000
0010
0100
,
0001
0010
0100
0010
0001
1000
0100
0001
,
0100
1000
0010
0100
0001
0010
0100
0010
,
0001
1000
0010
0100
0001
0100
1000
0010
,
0100
0001
0100
0001
1000
0100
1000
0000
,
0010
0100
0001
1000
0010
0001
0100
0000
,
1000
0100
1000
0010
0100
0001
1000
0010
,
1000
0001
0010
0100
0010
0001
1000
0000
,
0001
0002
0000
0100
0100
0100
0103
0100
,
0010
0020
0000
1000
1000
1000
1000
1030
,
0000
0010
0100
0001
0000
1000
0100
0001
,
0000
0100
1000
0010
0000
0100
0001
0100
,
0010
1000
0001
1000
0100
1000
0010
0100
,
0001
0010
1000
0010
0001
1000
0100
0000
,
1000
0000
0000
1000
0100
0000
0001
0000
0000
0000
0100
0000
1000
0000
0010
0000
,
0100
0000
0000
0100
0001
0000
1000
0000
0000
0000
0001
0000
0010
0000
0100
0000
,
0010
0000
0000
0010
0001
0000
1000
0000
0000
0000
0100
0000
1000
0000
0001
0000
,
0100
0000
0000
0100
0001
0000
1000
0000
0010
0000
1000
0000
0100
0000
0001
0000
,
0100
1010
0100
0011
,
1000
0001
0101
0000
0010
0000
1001
0000
,
0100
1100
1010
0101
,
1001
0000
0100
0010
0100
0001
1010
0000
,
0010
0110
0000
0000
0101
0000
0000
0001
,
1000
0100
1000
0000
0100
0100
0100
0100
,
1000
0010
0001
0010
0100
0001
0010
1000
,
0010
0100
1000
0010
0100
0001
1000
0100
,
0001
0100
1000
0010
0100
0001
0010
1000
,
0010
0001
1000
0010
0100
0001
1000
0100
,
0110
0010
0001
1000
0100
1000
0010
0001
,
0010
1000
0100
0001
0100
1000
0010
0100
,
1000
0100
0001
0010
1000
0001
0100
1000
,
0010
0100
1000
0001
0010
1000
0001
0100
,
0110
0000
0001
0100
1000
0100
0010
0110
,
0000
1010
0000
1000
0100
0010
0100
1100
,
0000
0101
0000
1000
0001
0100
0010
0110
,
0000
0000
0100
0000
0001
0000
1000
0000
0010
0000
0100
0001
0100
0001
0100
0001
,
1000
0000
0010
0000
0110
0000
0001
0000
1000
0100
0000
0100
1000
0100
0000
1000
,
0010
0000
0100
0000
0001
1000
0100
0000
1000
0001
1000
0001
0100
0010
0100
0001
,
0100
1000
0100
0010
0100
0001
1000
0001
,
0010
0100
1000
0001
0100
0001
1000
0100
,
0010
0001
0010
0100
0010
1000
0010
0100
,
0010
0000
0001
0100
0001
0000
0100
0000
0100
0000
0010
0000
0010
0000
1000
0000
,
1010
0000
0100
0010
0100
0000
0001
0100
,
0001
0000
1000
0100
1000
0000
0010
0000
,
0110
0000
1000
0000
0101
0000
1000
1000
,
0100
0000
0001
0001
0101
0000
2000
0000
,
3001
0000
0100
0010
1000
0000
0100
0010
,
0001
0000
1000
0001
0100
0000
0010
0100
,
0101
0000
0100
0000
1010
0000
0100
0100
,
0001
0000
1000
1000
1100
0000
0020
0000
,
0230
0000
0301
0100
1000
0100
0010
1000
,
0001
1000
0100
0010
0001
1000
0100
1000
,
0020
0000
1030
0100
1000
0001
0100
0010
,
1000
0001
0010
0100
0010
0011
1001
0000
,
1001
1001
0110
0110
,
0101
1100
1001
1010
,
1001
0110
0011
1100
,
1001
0110
0101
1100
,
0001
1000
0001
1000
0010
0100
0010
0100
,
0001
0010
1000
0010
0001
1000
0100
0010
,
0001
0100
1000
0100
0010
1000
0100
1000
,
0010
0010
0010
0000
0001
0001
0001
0001
,
0010
0000
0000
0001
0000
0000
0100
0000
,
1000
0000
0000
0000
0000
0000
0100
0000
0000
0000
0000
0000
0010
0100
0010
0100
,
0020
0000
1030
0200
0000
1300
0010
0100
,
0002
0000
1003
0200
0000
0310
0001
1000
,
0020
0000
0130
0002
0000
1003
0100
0001
,
0200
0000
1300
0020
0000
0031
0010
1000
,
0020
0000
1030
2000
0000
3100
0010
0100
,
2000
0000
3001
0100
0110
0110
0110
0110
,
0010
1000
0100
1000
0001
0010
1000
0010
,
0001
1000
0100
0001
0100
1000
0010
0100
,
0001
1000
0100
0010
0001
0100
0010
1000
,
0001
0100
0001
0100
0010
0100
0010
1000
0010
1000
0100
1000
,
0100
0000
0000
0000
0000
0000
1000
0100
1000
0000
0000
0000
0010
0000
0000
0000
,
0010
0100
0000
0100
0001
0000
0100
0000
,
0010
0000
0000
0000
0000
0000
1000
0100
1000
0000
0000
0000
0000
0000
0000
0000
,
0010
1010
0000
1000
0001
0000
0100
1000
,
0100
0010
0100
0001
1000
0001
0010
0100
,
1000
0001
0100
0001
1000
0100
0010
0001
,
0010
0100
0010
1000
0010
0100
0010
0001
,
1000
0010
0100
0001
1000
0100
1000
0010
,
0100
0001
0010
0100
1000
0001
0100
1000
,
0100
0010
1000
0100
0010
0001
1000
0010
,
0100
0000
0001
0000
0010
0000
1000
0000
0010
0000
0001
0000
1000
0000
0100
0010
,
0100
1000
0100
1000
0010
0100
0102
0000
,
0010
0000
0013
2100
,
0010
0000
0000
0000
0010
3000
1001
0010
,
1001
0000
0000
0000
;

//---------------dance-single - ----------------
#NOTES:
     dance-single:
     :
     Easy:
     5:
     0.269,0.378,0.080,0.015,0.000:
0000
0000
0000
0000
,
0000
0000
0000
0000
,
0010
0000
1000
0000
,
0100
0000
1000
0000
,
0001
0000
0010
0000
,
0001
0000
1000
0000
,
0000
1001
0000
0000
,
0100
0000
1000
0000
,
0010
0000
1000
0000
,
0001
0000
0010
0000
,
0100
0000
1000
0000
,
0010
0000
0000
0000
,
1000
1000
1000
0000
,
0100
1000
0100
0000
,
0010
0010
0010
0000
,
0001
0010
0001
0000
,
0100
0100
0100
0000
,
0010
1000
0010
0000
,
1000
1000
1000
0000
,
0100
1000
0001
0000
,
0100
0000
0010
0000
,
1000
0000
0100
0000
,
1000
0100
1000
0100
,
0010
0001
0010
0000
,
0001
0001
0000
0000
,
1000
1000
0000
0000
,
0010
0010
0000
0000
,
0100
0100
0000
0000
,
0001
0000
1000
0000
,
1001
0000
0000
0000
,
0100
0100
1000
0100
,
1000
1000
0100
0000
,
0010
0001
0001
0010
,
0010
0001
0010
0000
,
0100
0010
0010
0100
,
0100
0010
0100
0000
,
1000
0100
0100
1000
,
1000
0100
1000
0000
,
0001
0010
0010
0001
,
0001
0010
0001
0000
,
0100
0100
0010
0010
,
0100
0100
0010
0010
,
1000
0100
0010
0001
,
1001
1001
0010
0100
,
0010
0010
0010
0010
,
0100
0100
0100
0100
,
0001
0001
0001
0001
,
1000
1000
1000
1000
,
0100
0000
0000
0000
,
1000
0000
0000
0000
,
0010
0000
1000
0000
,
0100
0000
1000
0000
,
1010
0000
0000
0000
,
0100
0000
0000
0000
,
0010
0000
0100
0000
,
0001
0000
0010
0000
,
0011
0000
0000
0000
,
0001
0000
1000
0000
,
0100
0000
1000
0000
,
0010
1000
0100
0000
,
1000
1000
0000
1000
,
1000
0000
0000
0000
,
0100
0100
0000
0100
,
0100
0000
0000
0000
,
0010
0010
0000
0000
,
0001
0001
0000
0000
,
1000
1000
0000
0000
,
0010
0010
0000
0000
,
2002
0000
0000
0000
,
0000
0000
0000
3003
,
0100
1000
0100
1000
,
0100
1000
0100
1000
,
0010
0100
0010
0100
,
0010
0100
0010
0100
,
0001
0100
0001
0100
,
0001
0100
0001
0000
,
1000
1000
0100
1000
,
0100
0100
1000
0100
,
0010
0010
0100
0010
,
0100
0100
0010
0100
,
0110
0000
0000
0000
,
1001
0000
0000
0000
,
1000
0000
0100
0000
,
0001
0000
0100
1000
,
1000
1000
1000
0100
,
0100
0100
0100
0010
,
0010
0010
0010
0001
,
0001
0001
0001
0100
,
0000
0010
0000
1000
,
0000
0100
0000
1000
,
1000
1000
1000
0010
,
0010
0010
0010
0100
,
0000
0000
0000
0010
,
0000
0000
0000
1001
,
1001
0000
0000
0000
;
