#TITLE:MENDES;
#SUBTITLE:;
#ARTIST:HUMANOID;
#TITLETRANSLIT:;
#SUBTITLETRANSLIT:;
#ARTISTTRANSLIT:;
#CREDIT:;
#BANNER:MENDES-bn.png;
#BACKGROUND:MENDES-bg.png;
#LYRICSPATH:;
#CDTITLE:;
#MUSIC:MENDES.mp3;
#OFFSET:-0.070;
#SAMPLESTART:12.100;
#SAMPLELENGTH:15.540;
#SELECTABLE:YES;
#BPMS:0.000=168.000,129.000=84.000,159.000=168.000,235.000=335.999,283.000=168.000;
#STOPS:292.000=1.800
;
#BGCHANGES:;

//---------------dance-single - ----------------
#NOTES:
     dance-single:
     :
     Beginner:
     5:
     0.248,0.289,0.132,0.000,0.000:
0000
0000
0000
0000
,
0000
0000
0000
0000
,
0010
0000
0010
0000
,
0100
0000
0001
0000
,
1001
0000
0000
0000
,
1000
0000
1000
0000
,
1001
0000
1001
0000
,
0110
0000
0110
0000
,
0000
0000
1000
0000
,
0100
0000
0010
0000
,
0001
0000
0100
0000
,
0010
0000
1000
0000
,
0001
0000
1001
0000
,
0100
0000
1000
0000
,
0010
0000
1000
0000
,
0001
0000
0010
0000
,
0100
0000
0110
0000
,
0001
0000
1000
0000
,
0010
0000
1000
0000
,
0100
0000
0010
0000
,
0001
0000
1001
0000
,
0010
0000
1000
0000
,
0001
0000
0010
0000
,
0100
0000
1000
0000
,
0010
0000
0100
0100
,
0100
0100
0100
0100
,
0100
0100
0100
0100
,
0000
0001
0001
0001
,
0001
0001
0001
0001
,
0001
0001
0001
0000
,
1000
0000
0010
0000
,
0100
0000
0001
0000
,
1001
1001
0000
0000
,
0000
0000
0000
0010
,
0010
0010
0000
1000
,
1000
1000
0000
0100
,
0100
0100
0000
0001
,
0001
0001
0000
0010
,
0001
0100
0100
0010
,
1000
1001
0000
0100
,
1000
0001
0000
0100
,
0010
1000
0000
0001
,
0010
0100
0000
0010
,
0010
0010
0010
0001
,
0100
0010
0000
1000
,
0100
1000
0000
0010
,
1000
0001
0000
0100
,
0000
0010
0000
1001
,
0000
0100
0100
0100
,
0000
1000
0001
0100
,
0000
0010
0010
0010
,
0000
1001
1001
0000
,
0000
0000
0000
0100
,
0100
1000
0010
0010
,
1000
0100
0100
1000
,
0010
0010
1000
0100
,
0100
1000
0010
0010
,
1000
0100
0100
1000
,
0010
0010
1000
0100
,
0000
0100
0000
1000
,
0000
0010
0000
0010
,
0000
1000
0000
0100
,
0000
0100
0000
1000
,
0000
0010
0000
0010
,
0000
1000
0000
0100
,
0000
0100
0000
1000
,
0000
0010
0000
0010
,
0000
1000
0000
0100
,
0000
0100
0000
1000
,
0000
0010
0000
0010
,
0000
1000
0000
0100
,
0010
0001
0100
0010
,
1000
0100
0010
0001
,
1000
1001
0000
0000
;

//---------------dance-single - ----------------
#NOTES:
     dance-single:
     :
     Easy:
     9:
     0.388,0.487,0.175,0.088,0.000:
0000
0000
0000
0000
,
0000
0000
0000
0000
,
0010
0010
0100
0100
,
0001
0100
0001
0100
0010
1000
0010
1000
,
0100
0000
0000
0000
,
1000
1000
0001
0001
,
1001
0000
0110
0000
,
0101
1000
1100
0001
,
0000
0000
0000
0000
0010
1000
0010
0000
,
0100
0001
0020
0100
,
0001
0000
0130
0000
1000
0100
1000
0000
,
0010
0100
0001
0010
,
0100
0000
1001
0000
0010
1000
0010
0000
,
0100
0001
2000
0100
,
0010
3001
0100
1000
,
0010
0000
0100
0000
0001
1000
0001
0000
,
0000
0000
0110
0000
0001
0100
0001
0000
,
0010
0100
2000
0010
,
0001
0000
3100
0000
1000
0100
1000
0000
,
0010
0100
0001
0010
,
0001
0110
0001
0100
,
0010
1000
0100
0000
0010
0001
1000
0000
,
0100
1000
0001
0000
0100
0000
0010
0000
,
1000
0100
0020
0100
,
0100
0130
1000
0101
,
0101
0010
1000
0001
,
1000
0100
0001
0000
1000
0001
1000
0001
,
0100
0010
1000
0000
1100
0000
1001
0000
,
0010
0100
0001
1010
,
0001
0000
0010
0100
0010
0001
1000
0100
,
0010
0001
0100
1000
,
0010
0000
0001
0000
1000
0001
1000
0100
,
0010
0001
0100
0000
0000
0000
0000
0000
,
0000
0000
0000
0020
,
0000
1000
0100
2030
,
0000
0100
0001
3020
,
0000
0001
0100
2030
,
0000
0001
3010
0110
,
0000
1000
0100
0001
,
0000
0000
0010
0100
1000
0000
0010
0000
,
1000
0000
0100
0000
0010
0000
0001
0100
,
0001
0010
0100
1000
,
0010
0100
0000
1001
,
0110
1001
0110
1000
,
0100
1000
0000
0000
0000
0000
0010
1000
,
0001
0100
0010
0100
,
0001
0010
0000
0011
,
0000
1100
0000
0001
,
0000
0000
1000
0100
1000
0100
1000
0000
,
0000
0010
1000
0001
,
0000
0000
0010
0001
0010
0001
0010
0000
,
0100
1000
0001
0000
,
0000
0000
0000
0000
0000
0000
0100
0010
,
0100
0000
0010
0000
1000
0100
1000
0000
,
0100
0000
0010
0001
0010
0000
0001
0000
,
0100
0010
0100
0000
0010
0000
1000
0001
,
1000
0000
0001
0000
0010
0001
0010
0000
,
0100
0000
1000
0001
1000
0000
0010
0000
,
0100
0001
0100
0000
0010
0000
1000
0000
,
0000
0100
0000
0010
,
0001
0100
0000
0010
,
0000
1000
0001
0010
,
0000
0100
0000
1000
,
0001
0100
0000
0010
,
0000
1000
0100
1000
,
1000
1000
0000
0010
,
0000
0001
0001
0001
,
0000
0010
0000
0100
,
0100
0100
0000
0010
,
0000
0001
0001
0001
,
0000
0100
0000
0010
,
1000
0100
0001
0010
,
1000
0000
0001
0010
0100
1000
0001
0100
,
1000
0220
0000
0000
,
0330
0000
0000
0000
;

//---------------dance-single - ----------------
#NOTES:
     dance-single:
     :
     Challenge:
     19:
     0.954,1.000,0.579,0.035,0.916: // measure 1
0000
0000
0000
0000
,  // measure 2
0010
0000
0000
0000
0100
0000
0000
0000
0001
0100
0001
0100
0001
0100
0001
0100
,  // measure 3
0010
0010
0100
0100
0001
0001
0010
0010
,  // measure 4
0100
0000
0100
0000
1000
0000
1000
0000
0010
1000
0010
1000
0100
1000
0100
1000
,  // measure 5
0001
0000
0000
0000
,  // measure 6
1000
0000
0000
0000
0001
0000
0000
0000
0100
0010
0100
0010
0100
0010
0100
0010
,  // measure 7
0100
0000
0101
0000
,  // measure 8
1010
1001
1100
0011
,  // measure 9
0100
1000
0100
1000
0010
0100
0010
0100
0001
0000
0100
0000
0010
0000
0100
0000
,  // measure 10
0001
0000
0010
0000
1000
0000
0010
0000
0001
1000
0100
0000
1000
0010
0100
0000
,  // measure 11
0001
0010
0100
0000
1000
0001
0100
0000
0010
0000
1000
0000
0100
0000
0010
0000
,  // measure 12
0001
0000
0100
0000
0010
0000
1000
0000
0001
0000
1000
0000
0100
0000
0010
0001
,  // measure 13
0010
0100
0010
0000
1001
0000
0000
0000
0110
0000
1000
0000
0100
0000
1000
0000
,  // measure 14
0001
0000
0100
0000
0010
0000
0100
0000
0001
1000
0100
0000
0010
0001
1000
0000
,  // measure 15
0001
0100
0010
0000
1000
0001
0010
0000
0001
0000
0100
0000
1000
0000
0100
0000
,  // measure 16
0010
0000
1000
0000
0100
0000
0010
0000
0001
0000
1000
0000
0100
0000
0010
0001
,  // measure 17
0010
0100
0010
0000
1001
0000
0000
0000
0010
1000
0100
0000
1000
0001
0100
0000
,  // measure 18
0010
0100
0001
0000
0010
0100
1000
0000
0001
1000
0100
0000
1000
0001
0010
0000
,  // measure 19
0100
0010
0001
0000
0100
0010
0100
0000
0001
0010
0100
0000
0010
0001
1000
0000
,  // measure 20
0010
0100
0001
0000
1000
0100
1000
0000
0010
0000
0100
0000
0001
0000
0010
0100
,  // measure 21
1000
0001
0100
0000
1010
0000
0000
0000
0100
0001
0100
0000
0010
1000
0100
0000
,  // measure 22
0010
0001
1000
0000
0100
0010
0001
0000
0100
0010
0100
0000
0001
0010
0100
0000
,  // measure 23
1000
0001
0100
0000
0010
1000
0010
0000
1000
0100
1000
0000
0001
0010
0100
0000
,  // measure 24
1000
0001
0100
0000
0010
0100
0001
0000
0100
0000
0010
0000
1000
0000
0100
1000
,  // measure 25
0001
0010
0100
0000
0011
0000
0000
0000
0100
1000
0100
1000
0100
1000
0000
0000
,  // measure 26
0100
1000
0000
0000
0100
1000
0100
1000
0000
0000
0100
1000
0000
0000
0100
1000
,  // measure 27
0100
1000
0100
1000
0000
0000
0100
1000
0100
1000
0100
1000
0010
0100
0001
1000
,  // measure 28
0100
0010
0001
0100
0001
1000
0001
1000
0001
1000
0000
0000
0001
0100
0000
0000
,  // measure 29
0001
0010
0001
1000
0000
0000
0001
0010
0000
0000
0001
0010
0001
1000
0001
0100
,  // measure 30
0000
0000
0001
0100
0001
0010
0001
1000
0010
0100
0001
0100
0010
1000
0100
0010
,  // measure 31
0001
0100
0010
1000
0100
1000
0010
0001
0010
1000
0100
0010
0001
0100
0010
1000
,  // measure 32
0100
0001
0100
1000
0010
0100
0010
1000
0100
0010
0001
0100
0010
1000
0100
1000
,  // measure 33
0001
0010
0001
0100
0010
0000
0000
0000
0000
0000
0000
0000
0000
0000
0000
0000
,  // measure 34
0000
0000
0000
0000
0000
0000
0000
0000
0000
0000
0000
0000
0000
0000
0000
0000
0000
0000
0001
1000
0010
0100
0001
0010
,  // measure 35
0100
0000
1000
0000
0010
0000
0100
0000
0001
0000
1000
0000
0010
0000
0000
0100
0000
0000
0000
0000
0000
0001
0000
0000
0110
0000
0000
0001
0000
0000
0000
0000
0000
1000
0000
0000
0010
0000
0100
0000
0010
0000
1000
0000
0100
0000
1000
0000
,  // measure 36
0001
0000
0010
0000
0100
0000
1000
0000
0010
0000
0100
0000
0001
0000
0000
1000
0000
0000
0000
0000
0000
0010
0000
0000
0101
0000
0000
0100
0000
0000
0000
0000
0000
0010
0000
0000
1000
0000
0100
0000
0001
0000
1000
0000
0010
0000
0001
0000
,  // measure 37
0100
0000
0010
0000
1000
0000
0001
0000
0100
0000
1000
0000
0100
0000
0000
0010
0000
0000
0000
0000
0000
0001
0000
0000
1100
0000
0000
0100
0000
0000
0000
0000
0000
1000
0000
0000
0100
0000
0010
0000
0001
0000
0100
0000
0010
0000
0001
0000
,  // measure 38
1000
0000
0100
0000
0010
0000
1000
0000
0100
0000
0010
0000
0001
0000
0000
1000
0000
0000
0000
0000
0000
0100
0000
0000
1000
0000
0000
0010
0000
0000
0000
0000
0000
0100
0000
0000
0110
0000
0000
0100
0000
0000
0000
0000
0000
0001
0000
0000
,  // measure 39
0000
0100
0101
0000
1100
0000
0010
0000
0101
0000
0001
0000
0110
0000
1000
0000
,  // measure 40
1100
0000
0000
0011
0000
0000
1001
0000
0100
0000
0100
0000
0010
0000
1000
0000
0100
0000
0010
0000
0001
0000
0100
0000
0010
0000
0000
0000
1000
0000
0000
0000
,  // measure 41
0100
0001
0100
0010
0001
0100
0010
1000
,  // measure 42
0001
0100
1000
0001
0010
1000
0100
0010
,  // measure 43
0001
0000
0100
0000
0010
0000
1000
0000
0001
0000
0000
0000
1000
0100
0000
0000
,  // measure 44
0001
0010
0000
0000
0100
0010
0000
0000
1000
0001
0000
0000
1010
0000
1000
0000
,  // measure 45
0100
0010
0001
0100
1000
0001
0010
1000
,  // measure 46
0100
0010
0001
0100
0010
1000
0001
0010
,  // measure 47
1000
0010
0001
1000
0100
0010
0011
0000
,  // measure 48
1000
0101
0010
1100
,  // measure 49
0010
0000
0000
0000
0110
0000
0000
1001
0000
0000
1010
0000
1100
0000
0000
0000
,  // measure 50
0001
0110
1000
1100
,  // measure 51
0001
0000
0000
0000
0110
0000
0000
0011
0000
0000
1001
0000
1100
0000
0000
0000
,  // measure 52
0010
0000
0101
0000
1010
0001
0000
0000
,  // measure 53
0000
0000
0200
0000
0310
0000
1001
1001
,  // measure 54
1001
0000
0100
0010
0100
0001
0100
0010
1000
0000
1000
0000
1000
0000
0010
1000
,  // measure 55
0100
0010
0001
0000
0101
0000
0101
0000
0101
0000
0010
1000
0100
1000
0010
0100
,  // measure 56
0001
0000
0001
0000
0001
0000
0010
0100
1000
0001
0100
0000
0110
0000
0110
0000
,  // measure 57
0110
0000
1000
0001
0010
0100
1000
0010
1000
0000
1000
0000
1000
0000
0010
0100
,  // measure 58
0001
1000
0100
0000
1100
0000
1100
0000
1100
0000
1000
0100
0001
1000
0010
0001
,  // measure 59
0100
0000
0100
0000
0100
0000
0010
1000
0100
1000
0001
0000
0110
0000
0000
0000
,  // measure 60
0101
0000
1100
0100
1000
0010
0100
0001
,  // measure 61
1000
0001
0011
0000
0101
0000
1010
1000
,  // measure 62
0010
0100
0010
1000
0001
1000
1100
0000
,  // measure 63
0011
0000
0110
0010
0001
0100
0010
1000
,  // measure 64
0100
1000
1001
0000
0011
0000
0110
0100
,  // measure 65
0010
1000
0001
1000
0100
0010
0011
0001
,  // measure 66
0100
0010
1000
0100
1000
0010
0100
0001
,  // measure 67
1000
0010
0110
0100
0010
1000
0100
0001
,  // measure 68
0100
1000
0010
0100
0001
1000
1010
0010
,  // measure 69
0100
0010
1000
0100
1000
0001
0010
1000
,  // measure 70
0001
0100
1000
0010
0100
0010
1000
0100
,  // measure 71
0010
0000
0001
0000
0010
0000
0100
0000
1000
0000
0010
0000
0110
0100
0001
1000
,  // measure 72
0100
0001
1000
0010
0001
0100
0010
1000
0010
0001
0010
0100
0001
0010
1000
0010
,  // measure 73
0100
0001
1000
0010
0001
0100
0010
1000
0100
0001
0100
1000
0001
0100
1000
0001
,  // measure 74
0020
0030
0000
0000
2002
0000
0000
0000
0000
0000
0000
0000
0000
0000
0000
0000
,  // measure 75
3003
0000
0000
0000
;

//---------------dance-single - ----------------
#NOTES:
     dance-single:
     :
     Medium:
     13:
     0.604,0.616,0.438,0.026,0.061:
0000
0000
0000
0000
,
0000
0000
0000
0000
,
0010
0100
0010
0000
1000
0000
0001
0000
,
0100
0000
0010
0000
1000
0100
0001
1000
,
0110
0000
0000
0000
,
0001
0000
0100
0000
0010
1000
0100
1000
,
1001
0000
1010
0000
,
0101
1100
1010
0000
,
1010
1000
0001
0010
0100
1000
0010
0100
,
0001
0010
1000
0010
0001
1000
0100
1000
,
0001
0100
0010
0000
0100
0001
0100
0010
,
1000
0000
0100
0000
1000
0000
0001
0000
0000
0000
0010
0000
0100
0000
0010
0001
,
0000
0100
0000
0000
0110
0000
0000
0000
1010
0000
1000
0000
0100
0000
0010
0000
,
0001
0100
1000
0010
0100
0001
0010
1000
,
0010
0001
1000
0100
0010
0001
0100
0010
,
0100
0000
0001
0000
1000
0000
0100
0000
0010
0000
0001
0000
1000
0000
0000
0010
,
0000
0100
0000
0000
1001
0000
1000
0000
0010
1000
0100
0000
1000
0000
0010
0000
,
0100
0000
0001
0000
0010
0000
0100
0000
0010
0100
0010
0000
0001
0000
1000
0000
,
0010
0000
0100
0000
0001
0000
1000
0000
0010
0100
0010
0000
1000
0000
0001
0000
,
0010
0000
0100
0000
1000
0000
0001
0000
0000
0000
0001
0000
0100
0000
0010
1000
,
0000
1000
0000
0000
0101
0000
0000
0000
1100
0000
0000
0000
0010
0000
1000
0000
,
0100
0010
0001
0000
0110
0000
0001
0100
,
1000
0100
0010
0000
1010
0000
1100
0000
,
0011
0000
1001
0000
0010
1000
0100
0010
,
0001
0100
0010
0000
1100
0100
0100
0000
,
1100
0000
1100
0100
0000
1100
0000
1100
,
0100
0100
0000
1100
0100
0100
1000
0010
,
0100
0001
0011
0010
0010
0000
0011
0000
,
0011
0010
0000
0011
0000
0011
0010
0010
,
0000
0011
0010
0010
0001
0010
0100
1000
,
0010
0100
0001
0010
1000
0010
0001
1000
,
0100
0010
0001
0100
0010
1000
0001
0100
,
0010
1000
0101
0000
0000
0000
0000
0000
,
0000
0000
0000
0000
0000
0000
1001
0100
,
0010
1000
0100
0000
1100
0000
0010
1000
,
0001
0100
0010
0000
0110
0000
0001
0010
,
1000
0010
0001
0000
1010
0000
0100
1000
,
0010
0100
0001
0000
0101
0000
0110
0000
,
0000
0001
0100
0000
1100
0001
0110
0000
,
1000
0000
0000
0001
0000
0000
0100
0000
0010
0000
0010
0000
0000
0000
0000
0000
0110
0000
0000
0000
0000
0000
0000
0000
0101
0000
0000
0000
0100
0000
0000
0000
,
0010
1000
0000
0010
0100
0000
1000
0010
,
0100
0001
0010
1000
0010
0001
1000
0000
,
0010
0100
0001
0100
0010
0000
1100
0000
,
0101
0000
1010
0000
0011
0000
0100
1000
,
0010
0100
0000
0001
0010
0100
0010
0001
,
1000
0010
0100
0001
1000
0100
0010
0000
,
0001
1000
0000
0100
0010
0100
0001
0010
,
0100
0011
1100
1001
,
0010
0000
0000
0000
1000
0000
0000
0001
0000
0000
0100
0000
0010
0000
0000
0000
,
0100
0101
0010
1100
,
0001
0000
0000
0000
1000
0000
0000
0010
0000
0000
0100
0000
0001
0000
0010
0000
,
0100
0010
0001
1000
0100
0010
0000
0000
,
0000
0000
0200
0000
0310
0000
0001
0001
,
0001
0010
0100
1000
0010
0010
0010
1000
,
0001
0010
1000
1000
1000
0010
0001
1000
,
0100
0100
0100
1000
0010
0100
0001
0001
,
0001
0010
0001
0100
0010
0010
0010
0100
,
0001
0010
0100
0100
0100
1000
0001
0100
,
0010
0010
0010
1000
0100
0010
0001
0000
,
1000
0000
0010
0000
0100
0000
0001
0100
,
0001
0100
0010
1000
,
0100
0000
1000
0100
1000
0000
0010
0000
,
0100
0000
0001
0000
0010
0000
1000
0010
,
1000
0010
0001
1000
,
0010
0000
0100
0010
0100
0000
0001
0000
,
0100
0000
0010
0000
1000
0000
0100
1000
,
0100
1000
0010
0100
,
0001
0000
0010
0100
0010
0000
0001
0000
,
1000
0000
0010
0000
0100
0000
0001
0100
,
0001
0100
0010
1000
,
0100
0000
0010
0000
0001
0000
0001
0100
,
1000
0010
0001
0100
1000
0010
1000
0010
,
0001
1000
0100
0001
1000
0010
0100
0010
,
0001
0220
0000
0000
,
0330
0000
0000
0000
;

//---------------dance-single - ----------------
#NOTES:
     dance-single:
     :
     Hard:
     16:
     0.787,0.876,0.491,0.018,0.438:
0000
0000
0000
0000
,
0000
0000
0000
0000
0010
1000
0001
0100
,
0010
0010
0100
0100
0001
0001
0010
0010
,
1000
1000
0010
0010
0001
1000
0100
0010
,
1001
0000
0000
0000
,
0010
1000
0100
1000
0001
0001
1000
1000
,
1100
0000
0110
0000
,
0101
1100
0011
1100
,
0001
0000
1000
0000
0001
0000
1000
0000
0010
0100
0001
0000
0010
0000
0100
0000
,
1000
0000
0001
0000
0100
0000
0010
0000
1000
0100
0010
0000
0001
0000
1000
0000
,
0010
0000
0100
0000
0001
0000
0010
0000
0100
0010
0001
0000
0100
0000
0010
0000
,
1000
0000
0001
0000
0010
0000
0100
0000
1000
0010
1000
0000
0001
0000
0100
0000
,
0010
1000
1010
0000
0110
0100
0001
0010
,
1000
0000
0010
0000
0001
0000
1000
0000
0100
0010
0001
0000
0100
0000
0010
0000
,
0100
0000
0001
0000
1000
0000
0100
0000
0010
0100
1000
0000
0010
0000
0100
0000
,
0001
0000
0010
0000
0100
0000
1000
0000
0001
0100
0010
0000
0100
0000
0001
0000
,
1000
0100
1100
0000
0110
0100
0001
0010
,
1000
0000
0010
0000
0001
1000
0001
1000
0100
0000
1000
0000
0010
0000
0100
0000
,
0001
0000
0010
0000
0100
1000
0100
1000
0010
0000
0100
0000
0001
0000
0010
0000
,
0100
0000
1000
0000
0001
0100
0001
0100
0010
0000
0100
0000
0001
0000
0010
0000
,
0100
1000
1001
0000
1010
1000
0001
0010
,
0100
0000
1000
0000
0010
0100
0010
0100
0001
0000
0010
0000
0100
0000
1000
0000
,
0001
0000
0100
0000
0010
1000
0010
1000
0100
0000
0010
0000
0001
0000
0100
0000
,
0010
1000
0100
0010
0001
1000
0001
1000
,
0010
0100
1001
0000
0110
0100
0110
0000
,
1001
0000
1100
1100
0000
0101
0000
1010
,
0010
1010
0000
1001
1000
1001
0010
0100
,
0001
0010
0110
0010
0110
0000
0011
0000
,
1100
1100
0000
1001
0000
0101
0001
0101
,
0000
1010
1000
1010
0100
0010
0100
0001
,
0010
0100
1000
0010
0100
0001
0010
1000
,
0010
0000
0001
0000
1000
0000
0100
0000
0010
0001
0010
0100
1000
0001
0100
0010
,
1000
0001
1000
0100
0010
0000
0000
0000
0000
0000
0000
0000
0000
0000
0000
0000
,
0000
0000
0000
0000
0000
0000
0000
0000
0000
0000
0000
0000
0000
0000
0000
0000
0000
0000
0001
0000
0001
0010
0000
0010
,
0100
0000
0100
1000
0000
1000
0010
0000
0000
0000
0000
0000
0110
0000
0000
0000
0000
0000
1000
0000
1000
0010
0000
0010
,
0100
0000
0100
0001
0000
0001
0010
0000
0000
0000
0000
0000
0011
0000
0000
0000
0000
0000
0010
0000
0010
0100
0000
0100
,
1000
0000
1000
0001
0000
0001
0100
0000
0000
0000
0000
0000
0110
0000
0000
0000
0000
0000
1000
0000
1000
0010
0000
0010
,
0100
0000
0000
0000
0100
0000
0001
0000
0000
0000
0001
0000
1000
0000
0000
0000
0000
0000
0000
0000
0000
0000
0000
0000
1100
0000
0000
0000
0000
0000
0000
0000
0000
0000
0000
0000
0101
0000
0000
0010
0000
0000
0000
0000
0000
1000
0000
0000
,
0000
0100
1100
0000
0101
0000
0010
0000
1001
0000
0010
0000
1100
0000
0001
0000
,
0110
0000
0000
0101
0000
0000
1100
0000
0010
0000
0010
0000
0000
0000
0000
0000
0001
0000
0100
0000
1000
0000
0010
0000
0001
0000
0000
0000
0100
0000
0000
0000
,
0010
1000
0000
0100
0010
0001
1000
0100
,
1000
0010
0100
0001
0010
1000
0010
0001
,
1000
0000
0010
0000
0100
0000
0001
0000
1000
0000
0000
0000
0100
1000
0000
0000
,
0100
1000
0000
0000
0001
0100
0000
0000
0001
0100
0000
0000
0010
0000
0100
0000
,
0001
0010
1000
0010
0001
0000
1000
0100
,
0010
0001
0100
0010
1000
0001
0100
0010
,
0100
0001
1000
0100
0010
0000
0001
1000
,
0001
0000
0000
0000
0100
0010
0000
0000
0110
0000
0000
0000
0101
0000
0000
0000
,
0010
0000
1000
0000
1100
0000
0000
0001
0000
0000
0010
0000
0110
0000
0000
0000
,
0001
0000
0000
1000
0100
0000
0010
0000
0001
0000
0100
0000
0010
0000
0100
0000
,
0001
0000
0000
0000
0010
0000
0000
0100
0000
0000
1000
0000
0100
0000
1000
0000
,
0100
0000
1000
0000
0001
0100
0001
0100
0001
0100
0001
0000
0000
0000
0000
0000
,
0000
0000
0000
0000
0110
0000
0001
0100
,
0010
0000
1000
0100
1000
0100
1000
0100
0010
0000
0001
0000
0100
0000
0010
0100
,
0010
0100
0010
0100
0001
0000
0010
0000
0100
0000
1000
0001
1000
0001
1000
0001
,
0010
0000
0100
0000
1000
0000
0001
0100
0001
0100
0001
0100
0010
0000
1000
0000
,
0100
0000
0010
0001
0010
0001
0010
0001
0100
0000
0010
0000
1000
0000
0100
0010
,
0100
0010
0100
1000
0001
0000
1000
0000
0010
0000
0001
0010
0001
0010
0001
0010
,
1000
0000
0100
0000
1000
0000
0001
0010
0100
1000
0001
1000
0001
0000
0000
0000
,
0001
0000
0001
0000
0010
0100
1000
0001
,
0100
0010
0100
0000
0100
0000
0100
0000
,
0010
1000
0100
0010
0001
1000
0010
0000
,
0010
0000
0010
0000
1000
0001
0010
1000
,
0010
0001
1000
0000
1000
0000
1000
0000
,
0100
1000
0010
0100
0001
0010
0100
0000
,
0110
0000
0100
0000
0010
0001
0100
0010
,
1000
0001
0100
0000
0101
0000
0100
0000
,
0010
1000
0100
0010
0001
0100
0010
0000
,
1010
0000
0010
0000
1000
0100
0010
0001
,
1000
0001
1000
0000
1001
0000
1000
0000
,
0100
0000
0010
0000
0001
0000
0100
0000
0010
0000
1000
0000
0001
0010
0100
1000
,
0001
0010
0100
1000
0010
0100
0001
1000
0010
0100
0001
1000
0100
0010
0001
1000
,
0100
0010
0001
1000
0010
0100
0001
1000
0010
0100
0001
1000
0100
0001
0100
1000
,
0010
2002
0000
0000
,
3003
0000
0000
0000
;
