#TITLE:Alone Again;
#SUBTITLE:(Steve Smart & Westfunk Mix);
#ARTIST:Alyssa Reid;
#TITLETRANSLIT:;
#SUBTITLETRANSLIT:;
#ARTISTTRANSLIT:;
#CREDIT:;
#BANNER:Alone Again (Steve Smart & Westfunk Mix)-bn.png;
#BACKGROUND:Alone Again (Steve Smart & Westfunk Mix)-bg.png;
#LYRICSPATH:;
#CDTITLE:;
#MUSIC:Alone Again (Steve Smart & Westfunk Mix).mp3;
#OFFSET:-0.040;
#SAMPLESTART:78.768;
#SAMPLELENGTH:16.180;
#SELECTABLE:YES;
#BPMS:0.000=124.980;
#STOPS:;
#BGCHANGES:;

//---------------dance-single - ----------------
#NOTES:
     dance-single:
     :
     Beginner:
     1:
     0.089,0.125,0.061,0.000,0.000:
0000
0000
0000
0000
,
0000
0000
0000
0000
,
0000
0000
0000
0000
,
0000
0000
0000
0000
,
0000
0000
0000
0000
,
0010
0000
0000
0000
,
1000
0000
0000
0000
,
0001
0000
0000
0000
,
1000
0000
0000
0000
,
0110
0000
0000
0000
,
0100
0000
0000
0000
,
1000
0000
0000
0000
,
0001
0000
0000
0000
,
0100
0000
0100
0000
,
0000
0000
0000
0000
,
0001
0000
0001
0000
,
0000
0000
0000
0000
,
1000
0000
1000
0000
,
0000
0000
0000
0000
,
0010
0000
0010
0000
,
0000
0000
0000
0000
,
0110
0000
0000
0000
,
1000
1000
0000
0000
,
1000
0000
0000
0000
,
0001
0001
0000
0000
,
1001
0000
0000
0000
,
0100
0000
0000
0000
,
1000
0000
0000
0000
,
0001
0000
0000
0000
,
0010
0000
0010
0000
,
0010
0000
0000
0000
,
0100
0000
0100
0000
,
0100
0000
0000
0000
,
1001
0000
0000
0000
,
1000
0000
0000
0000
,
0001
0000
0000
0000
,
0100
0100
0100
0000
,
0100
0000
0000
0000
,
0001
0000
0000
0000
,
1000
0000
0000
0000
,
0000
0000
0000
0000
,
1001
0000
0000
0000
,
1000
1000
0000
0000
,
0001
0001
0000
0000
,
0010
0000
0000
0000
,
0100
0100
0000
0000
,
1000
1000
0000
0000
,
0010
0010
0000
0000
,
0100
0000
0000
0000
,
1001
0000
0000
0000
;

//---------------dance-single - ----------------
#NOTES:
     dance-single:
     :
     Medium:
     6:
     0.270,0.300,0.031,0.133,0.000:
0000
0000
0000
0000
,
0000
0000
0000
0000
,
0000
0000
0000
0000
,
0000
0000
0000
0000
,
0000
0000
0000
0000
,
0010
0010
1000
0001
,
1000
0000
1000
0100
0100
0000
0000
0000
,
1000
0000
1000
0000
0001
0000
0010
0001
,
0100
0000
0000
0000
,
1010
0100
1000
0000
,
0001
0010
0001
1000
,
0010
0100
0001
0000
,
0010
0001
1000
0000
,
0010
1000
0200
0310
,
0001
1000
0020
0130
,
0001
1000
0002
1003
,
0100
0010
0002
1003
,
0010
0100
2000
3100
,
0010
1000
0200
0310
,
0001
1000
0100
0000
2000
0000
3010
0000
,
1000
0001
0010
0000
0200
0000
0310
0000
,
0001
0001
1000
1000
,
0010
0100
0010
0000
,
1000
1000
0001
0001
,
1000
0100
0001
0000
0001
0100
1000
0000
,
1010
0000
0100
0000
,
1000
0100
0001
0000
,
0010
0000
0001
0000
,
0010
0001
0100
0000
,
0010
0000
1000
0100
1000
0000
0000
0000
,
0010
0010
1000
0001
,
0100
0000
0001
0100
0001
0000
0000
0000
,
1000
0001
1000
0000
,
0010
0000
0100
0100
0000
0000
0000
0000
,
0001
0000
1000
0000
0100
0000
1000
0100
,
0010
0000
0000
0000
0001
1000
0001
0000
,
1000
0000
0100
0000
1000
1000
0000
0000
,
0010
0000
1000
0010
,
0100
0000
0010
0010
0010
0000
0000
0000
,
1000
0000
0001
0000
1000
0000
0100
1000
,
0100
0000
0000
0000
,
1001
0000
0100
0000
0001
1000
0100
0000
,
0010
0001
1000
0020
,
0130
0010
2000
0100
,
3100
0002
0103
1000
,
0010
0000
0100
0000
0010
1000
0100
0000
,
1000
0001
0100
0000
0010
0000
1000
0000
,
0002
0010
0013
2000
,
3010
0000
0001
0000
1000
0000
0010
1000
,
0001
0000
0000
0000
;

//---------------dance-single - ----------------
#NOTES:
     dance-single:
     :
     Hard:
     9:
     0.368,0.376,0.072,0.153,0.123: // measure 1
0000
0000
0000
0000
,  // measure 2
0000
0000
0000
0000
,  // measure 3
0000
0000
0000
0000
,  // measure 4
0000
0000
0000
0000
,  // measure 5
0000
0000
0000
0000
,  // measure 6
1010
0000
0100
0000
0010
0000
0001
0100
,  // measure 7
1000
0010
2000
3000
,  // measure 8
0100
0000
1000
0000
0001
0000
0010
0001
,  // measure 9
0200
0300
0000
0000
,  // measure 10
0001
0000
0000
0001
0000
0000
0001
0000
2000
0000
0000
0000
3000
0000
0100
0000
,  // measure 11
1000
0000
0000
1000
0000
0000
1000
0000
0010
0000
0000
0010
0000
0000
0010
0000
,  // measure 12
0100
0000
0000
0100
0000
0000
0100
0000
0002
0000
0000
0000
0003
0000
0010
0000
,  // measure 13
0100
0000
0000
0100
0000
0000
0100
0000
2000
0000
0000
0000
3001
0000
0000
0000
,  // measure 14
0100
0000
0010
0000
1000
0100
1000
0000
,  // measure 15
0001
1000
0100
0000
0010
0001
0100
0000
,  // measure 16
0010
0000
0100
0000
0001
1000
0100
0000
,  // measure 17
1000
0100
0001
1000
0010
0100
0001
0000
,  // measure 18
0020
0130
0001
0100
,  // measure 19
2000
0000
3100
0000
0010
0100
0101
0000
,  // measure 20
0010
0000
1000
0000
0001
1000
0100
0000
,  // measure 21
1000
0010
0100
0010
1000
0001
0000
0000
,  // measure 22
2100
0000
0010
0000
3100
1000
0100
0000
,  // measure 23
0102
0000
1000
0000
0103
0010
0100
0000
,  // measure 24
1000
0000
0010
0100
0001
0000
0000
0000
,  // measure 25
0010
0000
0100
0010
0100
0001
1001
0000
,  // measure 26
0001
0000
0000
0001
0000
0000
0001
0000
0200
0000
0000
0000
0300
0000
0010
0000
,  // measure 27
0100
0000
0000
0100
0000
0000
0100
0000
0001
0000
0000
0001
0000
0000
0001
0000
,  // measure 28
1000
0000
0000
1000
0000
0000
1000
0000
0200
0000
0000
0000
0300
0000
1000
0000
,  // measure 29
0010
0000
0000
0010
0000
0000
0010
0000
0100
0000
0000
0100
0000
0000
0100
0000
,  // measure 30
0010
0000
0000
0100
0010
0000
0100
0000
0010
0000
0000
0000
1000
0000
0000
0000
,  // measure 31
0001
0000
1000
0000
0100
0100
0010
0000
,  // measure 32
0001
0000
0000
0100
0001
0000
0100
0000
0001
0000
0000
0000
1000
0000
0000
0000
,  // measure 33
0100
0010
0100
0010
0001
1000
0001
0000
,  // measure 34
1010
0100
0001
1000
,  // measure 35
0100
0000
0001
0000
1000
0000
0010
1000
,  // measure 36
0001
0000
0100
0010
1000
0010
0100
0010
,  // measure 37
1000
0100
1000
0001
0010
0100
0010
0000
,  // measure 38
0001
0000
1000
0000
0010
0000
0100
0010
,  // measure 39
1000
0001
1000
0010
0100
0000
0010
0000
,  // measure 40
1000
0100
0010
0001
1000
0001
0100
0010
,  // measure 41
0100
0010
1001
0000
,  // measure 42
1000
0000
0000
0100
0000
0000
1000
0000
0002
0000
0000
0000
0003
0000
0000
0000
,  // measure 43
0100
0000
0000
0010
0000
0000
1000
0000
0001
0000
0000
0010
0000
0000
0001
0000
,  // measure 44
1000
0000
0000
0100
0000
0000
1000
0000
0020
0000
0000
0000
0030
0000
0000
0000
,  // measure 45
0100
0000
0000
0010
0000
0000
1000
0000
0100
0000
0000
0010
0000
0000
0001
0000
,  // measure 46
1000
0000
0000
0001
0000
0000
0010
0000
0200
0000
0000
0000
0300
0000
0000
0000
,  // measure 47
0010
0000
0000
0001
0000
0000
0100
0000
0010
0000
0000
1000
0000
0000
0001
0000
,  // measure 48
1000
0000
0000
0100
0000
0000
1000
0000
0020
0000
0000
0000
0030
0000
0000
0000
,  // measure 49
0100
0000
0000
0100
0000
0000
0100
0000
0001
0000
0000
0000
1000
0000
0010
0000
,  // measure 50
0001
0000
0000
0000
;

//---------------dance-single - ----------------
#NOTES:
     dance-single:
     :
     Easy:
     3:
     0.216,0.225,0.051,0.266,0.000:
0000
0000
0000
0000
,
0000
0000
0000
0000
,
0000
0000
0000
0000
,
0000
0000
0000
0000
,
0000
0000
0000
0000
,
0020
0000
0230
0000
,
0302
0000
2003
0000
,
3020
0000
2030
0000
,
3200
0000
0320
0000
,
0031
0100
0010
0000
,
1000
0100
0010
0000
,
0001
1000
0100
0000
,
1000
0100
0010
0000
,
0100
1000
0001
0100
,
0010
0100
0001
0000
,
0010
0001
1000
0010
,
0100
0010
1000
0000
,
0100
0100
1000
0000
,
0010
0010
1000
0000
,
0001
0001
0010
0000
,
0100
0100
0010
0000
,
0002
0000
0100
0000
,
0100
0000
0010
0013
,
0100
0000
0001
0000
,
2000
0100
3100
0000
,
2000
0000
3020
0000
,
2030
0000
3002
0000
,
0023
0000
0230
0000
,
2300
0000
3002
0000
,
0103
0100
0001
0001
,
1000
1000
0100
0100
,
1000
0010
0100
0001
,
1000
0100
0010
0001
,
0101
0000
0010
0000
,
1000
0000
0010
0000
,
1000
0000
0100
0000
,
1000
0000
0001
0000
,
1100
0000
0010
0000
,
1000
0000
0001
0000
,
0100
0000
0010
0000
,
2002
0000
3003
0000
,
0200
0010
0310
0000
,
0200
0000
0310
0000
,
2000
0100
3100
0000
,
2000
0000
3100
0000
,
0002
0010
0013
0000
,
0002
0000
0013
0000
,
0001
1000
0010
0100
,
0001
0000
0000
0110
,
0110
0000
0000
0000
;
