#TITLE:강남거리;
#SUBTITLE:;
#ARTIST:Orange Caramel;
#TITLETRANSLIT:The Gangnam Avenue;
#SUBTITLETRANSLIT:;
#ARTISTTRANSLIT:;
#GENRE:EURODANCE;
#CREDIT:;
#BANNER:The Gangnam Avenue.png;
#BACKGROUND:The Gangnam Avenue-bg.png;
#LYRICSPATH:;
#CDTITLE:cdtitle.png;
#MUSIC:The Gangnam Avenue.ogg;
#OFFSET:-0.360000;
#SAMPLESTART:30.499998;
#SAMPLELENGTH:13.801428;
#SELECTABLE:YES;
#BPMS:0.000000=140.000000
;
#STOPS:
;
#BGCHANGES:0.000=The Gangnam Avenue.avi=1.000=0=0=0=StretchNoLoop==CrossFade_Fastest==,
99999=-nosongbg-=1.000=0=0=0 // don't automatically add -songbackground-
;
#KEYSOUNDS:;
#ATTACKS:;

//---------------dance-single - ----------------
#NOTES:
     dance-single:
     :
     Hard:
     10:
     0.460017,0.520579,0.223504,0.091057,0.169698,389.000000,362.000000,27.000000,11.000000,0.000000,0.000000,0.460017,0.520579,0.223504,0.091057,0.169698,389.000000,362.000000,27.000000,11.000000,0.000000,0.000000:
0000
0000
0000
0000
,
0000
0000
0000
0000
,
2000
0000
0000
0000
,
3020
0000
0000
0000
,
0230
0000
0000
0000
,
0302
0000
0000
0000
,
0023
0000
0000
0000
,
0230
0000
0000
0000
,
2300
0000
0000
0000
,
3002
0000
0000
0000
,
1003
0000
1010
0010
,
0000
0100
0110
0000
,
0001
0000
1001
1000
,
0000
0100
0110
0000
,
0010
0000
0011
0001
,
0000
1000
1010
0000
,
0001
0000
1000
0100
0010
0000
0001
1000
,
0002
0000
0000
0000
0000
1003
0010
0100
,
0001
0000
0011
0000
0010
0100
0010
0001
,
0100
0010
1000
0100
0010
0000
1001
0000
,
0001
1000
0010
0001
0010
1000
0100
0020
,
0000
0031
0100
0010
1000
0000
1100
0000
,
0001
1000
0100
0001
0000
1000
0010
0001
,
0000
1000
0100
0001
0000
0100
1000
0010
,
0100
0000
0000
0000
0110
0000
0000
0010
1000
0000
0100
0000
0010
0000
0001
0000
,
0100
0000
0110
0000
1001
0001
0010
0100
,
1000
0000
1010
0000
0001
0010
0001
1000
,
0010
0000
0000
0100
0000
0000
0010
0000
1000
0000
0000
0000
0100
0000
0010
0000
,
0001
0000
0000
0100
0000
0000
0010
0000
0100
0000
0000
0001
0000
0000
0010
0000
,
0100
0000
0000
1000
0000
0000
0010
0000
0100
0000
0000
0000
0001
0000
1000
0000
,
0001
1000
0010
0001
0000
1000
0100
0001
,
0000
1000
0010
0001
0000
0010
1000
0010
,
0100
0000
0000
0000
1001
0000
0000
0001
0010
0000
0100
0000
0010
0000
0001
0000
,
1000
0000
1010
0000
1001
0000
0001
0010
,
0001
0000
0000
0100
0000
0000
0010
0000
1000
0000
0000
0100
0000
0000
0010
0000
,
0001
0000
0000
0100
0000
0000
1000
0000
0100
0000
0000
0000
0001
0000
0010
0000
,
0100
0000
0000
1000
0000
0000
0010
0000
0100
0000
0000
0001
0000
0000
1000
0000
,
0100
0000
0000
0001
0000
0000
0100
0000
1000
0000
0000
0000
0010
0000
0100
0000
,
0001
0000
0000
0010
0000
0000
0001
0000
1000
0000
0000
0010
0000
0000
1000
0000
,
0001
0000
0000
0100
0000
0000
0001
0000
1000
0000
0000
0000
0100
0000
0010
0000
,
0001
0000
0000
0100
0000
0000
0010
0000
1000
0000
0000
0100
0000
0000
1000
0000
,
0001
0000
0000
0100
0000
0000
0001
0000
1000
0000
0001
0000
0010
0000
0100
0000
,
1000
0000
1010
0000
0010
0100
0010
1000
,
0100
0010
0001
0100
0010
0000
1001
0000
,
1000
0001
0010
1000
0010
0001
0100
0020
,
0000
1030
0100
0010
0001
0000
0101
0000
,
1000
0001
0100
1000
0000
0001
0010
1000
,
0000
0001
0100
1000
0000
0100
0001
0010
,
0100
0000
0000
0000
0110
0000
0000
0010
0001
0000
0100
0000
0010
0000
1000
0000
,
0100
0000
0110
0000
1001
1000
0010
0100
,
0001
0000
0011
0000
1000
0010
1000
0001
,
0010
0000
0000
0100
0000
0000
0010
0000
0001
0000
0000
0000
0100
0000
0010
0000
,
1000
0000
0000
0100
0000
0000
0010
0000
0100
0000
0000
1000
0000
0000
0010
0000
,
0100
0000
0000
0001
0000
0000
0010
0000
0100
0000
0000
0000
1000
0000
0001
0000
,
1000
0001
0010
1000
0000
0001
0100
1000
,
0000
0001
0010
1000
0000
0010
0001
0010
,
0100
0000
0000
0000
1001
0000
0000
1000
0010
0000
0100
0000
0010
0000
1000
0000
,
0001
0000
0011
0000
1001
0000
1000
0010
,
1000
0000
0000
0100
0000
0000
1000
0010
1000
0000
0000
0001
0000
0000
0100
0000
,
0001
0000
0000
0010
0000
0000
0100
0000
1000
0000
0000
0000
0001
0000
0100
0000
,
0001
0000
0000
0010
0000
0000
0001
0100
0001
0000
0000
1000
0000
0000
0010
0000
,
1000
0000
0000
0100
0000
0000
0010
0000
0001
0000
0000
0000
1000
0000
0010
0000
,
1000
0000
0000
0001
0000
0000
0010
0100
0010
0000
0000
0001
0000
0000
1000
0000
,
0010
0000
0000
0100
0000
0000
0010
0000
1000
0000
0000
0000
0100
0000
0010
0000
,
0001
0000
0000
1000
0000
0000
0010
0100
0010
0000
0000
1000
0000
0000
0001
0000
,
1000
0000
0000
0100
0000
0000
0010
0000
0000
0001
0000
0000
0100
0000
0010
0000
,
1000
1000
0100
0010
0100
0001
0100
0000
,
1000
0010
0100
0010
0001
0000
0110
0000
,
0001
0001
0010
0100
0010
1000
0010
0000
,
0001
0001
0100
0100
0010
0010
1000
1000
;

//---------------dance-single - ----------------
#NOTES:
     dance-single:
     :
     Medium:
     7:
     0.309831,0.375974,0.115891,0.149003,0.000000,262.000000,248.000000,14.000000,18.000000,0.000000,0.000000,0.309831,0.375974,0.115891,0.149003,0.000000,262.000000,248.000000,14.000000,18.000000,0.000000,0.000000:
0000
0000
0000
0000
,
0000
0000
0000
0000
,
2000
0000
0000
0000
,
3002
0000
0000
0000
,
0203
0000
0000
0000
,
0320
0000
0000
0000
,
2030
0000
0000
0000
,
3002
0000
0000
0000
,
0023
0000
0000
0000
,
0230
0000
0000
0000
,
1300
0000
0010
1000
,
0000
0100
0010
0000
,
0001
0000
0100
0001
,
0000
0010
0100
0000
,
1000
0000
0010
0100
,
0000
0001
1000
0000
,
0100
0000
0000
0100
0010
0000
0001
1000
,
0002
0000
0000
0000
,
1003
0000
1001
0000
0001
1000
0000
0100
,
0000
0010
0001
0000
0100
0000
0001
0000
,
0000
0010
0100
0000
1000
0001
0000
0100
,
0000
0010
1000
0000
0100
0000
1000
0000
,
0010
0100
0010
0000
1000
0000
0001
0000
,
0010
0100
0010
0000
0001
0000
1000
0000
,
0010
0010
0100
0100
,
1001
0110
1001
0000
,
1000
0000
0010
0000
1000
0001
0000
0000
,
0010
0100
1000
0010
,
1000
0000
0100
0000
1000
0001
0000
0000
,
0100
0010
1000
0001
,
0010
0100
0010
0000
0001
0000
1000
0000
,
0010
0100
0010
0000
1000
0000
0001
0000
,
0010
0010
0100
0100
,
1001
0110
1001
0000
,
2000
0000
3020
0000
,
0230
0000
0302
0000
,
2003
0000
3200
0000
,
0320
0000
0032
0000
,
1003
0000
0001
0100
0001
0000
1000
0000
,
0100
0000
1000
0010
1000
0000
0001
0000
,
0010
0000
0001
0100
0001
0000
1000
0000
,
0100
0000
1000
0010
1000
0000
0001
1000
,
0001
0000
1001
0000
1000
0100
0000
0010
,
0000
0001
0100
0000
0010
0000
1000
0000
,
0000
0100
0010
0000
0001
1000
0000
0010
,
0000
1000
0100
0000
0010
0000
0001
0000
,
0100
0010
0100
0000
0001
0000
1000
0000
,
0100
0010
0100
0000
1000
0000
0001
0000
,
0100
0100
0010
0010
,
1001
0110
1001
0000
,
1000
0000
0010
0000
1000
0001
0000
0000
,
0010
0100
1000
0010
,
1000
0000
0100
0000
1000
0001
0000
0000
,
0100
0010
1000
0100
,
0010
0100
0010
0000
0001
0000
1000
0000
,
0010
0100
0010
0000
1000
0000
0001
0000
,
0010
0010
0100
0100
,
1001
0110
1001
0000
,
1000
0100
0010
0001
,
0100
0000
0010
0000
1000
0000
0001
1000
,
0001
0010
0100
1000
,
0010
0000
0100
0000
0001
0000
1000
0001
,
1000
0100
0010
0001
,
0100
0000
0010
0000
1000
0000
0001
1000
,
0001
0010
0100
1000
,
0010
0100
0002
0000
,
1003
0100
1000
0000
0010
0000
0100
0000
,
0001
0010
0001
0000
0100
0000
0010
0000
,
1000
0001
1000
0000
0100
0000
0010
0000
,
0001
0000
0001
0000
1000
0000
1000
0001
;

//---------------dance-single - ----------------
#NOTES:
     dance-single:
     :
     Easy:
     5:
     0.216409,0.259824,0.000000,0.115891,0.000000,183.000000,183.000000,0.000000,14.000000,0.000000,0.000000,0.216409,0.259824,0.000000,0.115891,0.000000,183.000000,183.000000,0.000000,14.000000,0.000000,0.000000:
0000
0000
0000
0000
,
0000
0000
0000
0000
,
2000
0000
0000
3000
,
0002
0000
0000
0003
,
0200
0000
0000
0300
,
0020
0000
0000
0030
,
2000
0000
0000
3000
,
0002
0000
0000
0003
,
0020
0000
0000
0030
,
0200
0000
0000
0300
,
1000
0000
0001
1000
,
0000
1000
0001
0000
,
0100
0000
0010
0100
,
0000
0100
0010
0000
,
1000
0000
0001
1000
,
0000
1000
0001
0000
,
0010
0000
0100
0010
,
0002
0000
0000
0003
,
1000
0010
1000
0000
,
0001
0010
0001
0000
,
1000
0100
1000
0000
,
0001
0100
0001
0000
,
1000
1000
0010
0010
,
0100
0100
0001
0001
,
1000
0000
0001
0000
,
0010
0100
0010
0000
,
0001
0100
0001
0000
,
1000
0100
1000
0000
,
0001
0010
0001
0000
,
1000
0010
1000
0000
,
0001
0001
0100
0100
,
0010
0010
1000
1000
,
0001
0000
1000
0000
,
0100
0010
0100
0000
,
2000
0000
0000
3000
,
0020
0000
0000
0030
,
0200
0000
0000
0300
,
0002
0000
0000
0003
,
1000
0000
0001
0000
,
1000
0000
0010
0000
,
1000
0000
0001
0000
,
0010
0000
0100
0000
,
1000
0010
1000
0000
,
0001
0010
0001
0000
,
1000
0100
1000
0000
,
0001
0100
0001
0000
,
1000
1000
0010
0010
,
0100
0100
0001
0001
,
1000
0000
0001
0000
,
0010
0100
0010
0000
,
0001
0100
0001
0000
,
1000
0100
1000
0000
,
0001
0010
0001
0000
,
1000
0010
1000
0000
,
0001
0001
0100
0100
,
0010
0010
1000
1000
,
0001
0000
1000
0000
,
0100
0010
0100
0000
,
1000
0010
1000
0010
,
0100
0001
0100
0001
,
1000
0100
1000
0100
,
0010
0001
0010
0001
,
0100
0010
0100
0010
,
1000
0001
1000
0001
,
0010
0100
0010
0100
,
1000
0001
2000
0000
,
3001
0100
0001
0000
,
1000
0100
1000
0000
,
0001
0010
0001
0000
,
1000
0010
1000
0001
;

//---------------dance-single - ----------------
#NOTES:
     dance-single:
     :
     Beginner:
     3:
     0.127717,0.143829,0.000000,0.000000,0.000000,108.000000,108.000000,0.000000,0.000000,0.000000,0.000000,0.127717,0.143829,0.000000,0.000000,0.000000,108.000000,108.000000,0.000000,0.000000,0.000000,0.000000:
// measure 0
0000
0000
0000
0000
,  // measure 1
0000
0000
0000
0000
,  // measure 2
1000
0000
0000
0000
,  // measure 3
0001
0000
0000
0000
,  // measure 4
1000
0000
0000
0000
,  // measure 5
0001
0000
0000
0000
,  // measure 6
0100
0000
0000
0000
,  // measure 7
0010
0000
0000
0000
,  // measure 8
0100
0000
0000
0000
,  // measure 9
0010
0000
0000
0000
,  // measure 10
1000
0000
0000
0000
,  // measure 11
0001
0000
0000
0000
,  // measure 12
1000
0000
0000
0000
,  // measure 13
0001
0000
0000
0000
,  // measure 14
0010
0000
0000
0000
,  // measure 15
0100
0000
0000
0000
,  // measure 16
0010
0000
0000
0000
,  // measure 17
0100
0000
0000
0000
,  // measure 18
1000
0000
1000
0000
,  // measure 19
0010
0000
0010
0000
,  // measure 20
0100
0000
0100
0000
,  // measure 21
0001
0000
0001
0000
,  // measure 22
1000
0000
1000
0000
,  // measure 23
0100
0000
0100
0000
,  // measure 24
0010
0000
0010
0000
,  // measure 25
0001
0000
0001
0000
,  // measure 26
1000
0000
0001
0000
,  // measure 27
1000
0000
0000
0000
,  // measure 28
0010
0000
0100
0000
,  // measure 29
0010
0000
0000
0000
,  // measure 30
1000
0000
0001
0000
,  // measure 31
1000
0000
0001
0000
,  // measure 32
1000
0000
1000
0000
,  // measure 33
0001
0000
0001
0000
,  // measure 34
1000
0000
0000
0000
,  // measure 35
0100
0000
0000
0000
,  // measure 36
0010
0000
0000
0000
,  // measure 37
0001
0000
0000
0000
,  // measure 38
1000
0000
0000
0000
,  // measure 39
0010
0000
0000
0000
,  // measure 40
0100
0000
0000
0000
,  // measure 41
0001
0000
0000
0000
,  // measure 42
1000
0000
1000
0000
,  // measure 43
0001
0000
0001
0000
,  // measure 44
0010
0000
0010
0000
,  // measure 45
0100
0000
0100
0000
,  // measure 46
1000
0000
1000
0000
,  // measure 47
0001
0000
0001
0000
,  // measure 48
0100
0000
0100
0000
,  // measure 49
0010
0000
0010
0000
,  // measure 50
1000
0000
0001
0000
,  // measure 51
1000
0000
0000
0000
,  // measure 52
0100
0000
0010
0000
,  // measure 53
0100
0000
0000
0000
,  // measure 54
1000
0000
0001
0000
,  // measure 55
1000
0000
0001
0000
,  // measure 56
1000
0000
1000
0000
,  // measure 57
0001
0000
0001
0000
,  // measure 58
1000
0000
0001
0000
,  // measure 59
1000
0000
0001
0000
,  // measure 60
0100
0000
0010
0000
,  // measure 61
0100
0000
0010
0000
,  // measure 62
1000
0000
0001
0000
,  // measure 63
1000
0000
0001
0000
,  // measure 64
0010
0000
0100
0000
,  // measure 65
0010
0000
0100
0000
,  // measure 66
1000
0000
1000
0000
,  // measure 67
0010
0000
0010
0000
,  // measure 68
0100
0000
0100
0000
,  // measure 69
0001
0000
0001
0000
;
