#TITLE:しろねこさん;
#SUBTITLE:;
#ARTIST:Ryu☆ feat. moimoi;
#TITLETRANSLIT:Shironeko-san;
#SUBTITLETRANSLIT:;
#ARTISTTRANSLIT:Ryu feat. moimoi;
#GENRE:BUBBLEGUM DANCE;
#CREDIT:;
#BANNER:Shironeko-san.png;
#BACKGROUND:Shironeko-san-bg.png;
#LYRICSPATH:;
#CDTITLE:cdtitle.png;
#MUSIC:Shironeko-san.ogg;
#OFFSET:-0.660000;
#SAMPLESTART:46.791313;
#SAMPLELENGTH:14.884613;
#SELECTABLE:YES;
#BPMS:0.000000=130.000000
;
#STOPS:
;
#BGCHANGES:;
#KEYSOUNDS:;
#ATTACKS:;

//---------------dance-single - ----------------
#NOTES:
     dance-single:
     :
     Hard:
     12:
     0.504863,0.492735,0.086773,0.102550,0.429923,448.000000,437.000000,11.000000,13.000000,0.000000,0.000000,0.504863,0.492735,0.086773,0.102550,0.429923,448.000000,437.000000,11.000000,13.000000,0.000000,0.000000:
0000
0000
0000
0000
,
0000
0000
0000
0000
,
0000
0000
0000
0000
,
0000
0000
0000
0000
,
0000
0000
0000
0000
,
1000
0000
0000
1000
0000
0000
0010
0000
0000
0010
0000
0000
0100
0000
0001
0000
,
0010
0000
0000
0010
0000
0000
0100
0000
0000
0100
0000
0000
1000
0000
0010
0000
,
0100
0000
0000
0100
0000
0000
0001
0000
0000
0001
0000
0000
0010
0000
0100
0000
,
0000
0000
1000
0001
0000
1000
0001
0000
1000
0000
0010
0000
0100
0000
0000
0000
,
0001
0000
0001
0000
0010
0000
0010
0000
0001
1000
0000
0010
0000
0000
2000
0000
,
0000
0000
3100
0010
0000
0100
0010
0000
0001
1000
0000
0010
0000
0100
0010
0000
,
1000
0000
1000
0000
0100
0000
0100
0000
1000
0001
0000
0100
0000
0000
0002
0000
,
0000
0000
0013
0100
0000
0010
0100
0000
1000
0000
0001
0000
1000
0000
0000
0000
,
0001
0000
0001
0000
0100
0000
0100
0000
0010
1000
0000
0100
0000
0000
2000
0000
,
0000
0000
3010
0100
0000
0010
0001
0000
0010
1000
0000
0100
0000
0010
0001
0000
,
1000
0000
1000
0000
0010
0000
0010
0000
0100
0001
0000
0010
0000
0000
1001
0000
,
0000
0000
0001
1000
0000
0001
1000
0000
0001
0000
0100
0000
0010
0000
0000
0000
,
1000
0100
0010
0100
0001
0100
0010
0000
,
0001
0100
1000
0100
0010
0000
1000
0000
,
0001
0010
0100
0010
0001
1000
0010
0000
,
0100
0001
0010
0001
0100
0000
0010
0000
,
1000
0100
0010
0001
0100
0010
1000
0000
,
0001
0010
1000
0010
0001
1000
1000
0000
,
0001
0100
0010
0100
1000
0100
0010
0000
,
0100
0001
0010
1000
0010
0001
1000
0000
,
0001
0000
0001
0000
1000
0000
1000
0000
0001
0100
0000
0010
0000
0000
0200
0000
,
0000
0000
0301
0010
0000
0001
1000
0000
0100
0010
0000
0100
0000
1000
0001
0000
,
1000
0000
1000
0000
0001
0000
0001
0000
1000
0010
0000
0100
0000
0000
0020
0000
,
0000
0000
1030
0100
0000
1000
0001
0000
0010
0000
0100
0000
0010
0000
0000
0000
,
0001
0000
0001
0000
0100
0000
0100
0000
0010
1000
0000
0100
0000
0000
0020
0000
,
0000
0000
0130
1000
0000
0001
1000
0000
0010
0100
0000
0010
0000
0001
0010
0000
,
1000
0000
1000
0000
0100
0000
0100
0000
0010
0001
0000
0100
0000
0000
1001
0000
,
0000
0000
0001
1000
0000
0001
1000
0000
0100
0000
0010
0000
0001
0000
0000
0000
,
0100
0001
0010
0001
1000
0000
1001
0000
,
0100
1000
0010
1000
0001
0000
1001
0000
,
0010
0001
0100
0010
1000
0000
0100
0010
,
0100
1000
0002
0100
,
0013
0100
0001
0100
1000
0000
1001
0000
,
0010
0100
1000
0100
0001
0000
1001
0000
,
1000
0010
0100
0001
0010
0100
0010
0001
,
0000
0000
1000
0001
0000
1000
0001
0000
0100
0000
0010
0000
1000
0000
0000
0000
,
0001
0000
0000
0001
0000
0000
0010
0000
0000
0100
0000
0000
1000
0000
0001
0000
,
1000
0000
0000
1000
0000
0000
0010
0000
0000
0100
0000
0000
1001
0000
0000
0000
,
0001
0000
0000
0001
0000
0000
1000
0000
0000
0100
0000
0000
0010
0000
0001
0000
,
1000
0000
0000
1000
0000
0000
0001
0000
0000
0000
0100
0000
0110
0000
0000
0000
,
0001
0001
0010
0010
,
0100
0100
1000
1000
,
0001
0100
0010
1000
0100
0010
0001
1000
,
0000
0000
0001
0100
0000
0001
0100
0000
0010
0000
1000
0000
1100
0000
0000
0000
,
0000
0000
1000
0010
0000
1000
0010
0000
0100
0000
0001
0000
0010
0000
0000
0000
,
0001
0000
0001
0000
0100
0000
0100
0000
0001
1000
0000
0100
0000
0000
2000
0000
,
0000
0000
3010
0100
0000
0010
0001
0000
0010
0100
0000
0010
0000
1000
0100
0000
,
1000
0000
1000
0000
0010
0000
0010
0000
1000
0001
0000
0010
0000
0000
0002
0000
,
0000
0000
0103
0010
0000
0100
1000
0000
0100
0000
0010
0000
1000
0000
0000
0000
,
0001
0000
0001
0000
1000
0000
1000
0000
0100
0010
0000
0001
0000
0000
0200
0000
,
0000
0000
0301
0010
0000
1000
0010
0000
0001
0100
0000
0010
0000
1000
0100
0000
,
1000
0000
1000
0000
0001
0000
0001
0000
0100
0010
0000
1000
0000
0000
1001
0000
,
0000
0000
0001
1000
0000
0001
1000
0000
0100
0000
0010
0000
0001
0000
0000
0000
,
1000
0000
1000
0000
0010
0000
0010
0000
0100
0001
0000
0100
0000
0000
0002
0000
,
0000
0000
0013
0100
0000
0010
0001
0000
0100
0010
0000
1000
0000
0001
1000
0000
,
0001
0000
0001
0000
0010
0000
0010
0000
0100
1000
0000
0100
0000
0000
2000
0000
,
0000
0000
3010
0100
0000
0010
1000
0000
0100
0000
0010
0000
0001
0000
0000
0000
,
0100
0000
0100
0000
0010
0000
0010
0000
1000
0001
0000
0010
0000
0000
0200
0000
,
0000
0000
1300
0010
0000
1000
0001
0000
1000
0100
0000
0010
0000
0001
0100
0000
,
0010
0000
0010
0000
0100
0000
0100
0000
0001
1000
0000
0100
0000
0000
1001
0000
,
0000
0000
1000
0001
0000
1000
0001
0000
0100
0000
0010
0000
1000
0000
0000
0000
;

//---------------dance-single - ----------------
#NOTES:
     dance-single:
     :
     Medium:
     9:
     0.354982,0.363068,0.007888,0.007888,0.051275,315.000000,314.000000,1.000000,1.000000,0.000000,0.000000,0.354982,0.363068,0.007888,0.007888,0.051275,315.000000,314.000000,1.000000,1.000000,0.000000,0.000000:
0000
0000
0000
0000
,
0000
0000
0000
0000
,
0000
0000
0000
0000
,
0000
0000
0000
0000
,
0000
0000
0000
0000
,
1000
0000
0000
1000
0000
0000
0010
0000
0000
0010
0000
0000
0100
0000
0000
0000
,
0001
0000
0000
0001
0000
0000
0010
0000
0000
0010
0000
0000
0100
0000
0000
0000
,
1000
0000
0000
1000
0000
0000
0001
0000
0000
0001
0000
0000
0100
0000
0002
0000
,
0000
0000
0000
0003
0000
1000
0001
0000
,
1000
0100
1000
0100
0010
0000
0100
0000
,
1000
0000
0010
0000
0100
0001
0100
0000
,
0001
0010
0001
0010
0100
0000
0010
0000
,
0001
0000
0100
0000
0010
1000
0010
0000
,
0100
0010
0100
0010
1000
0000
0100
0000
,
0010
0000
0001
0000
1000
0010
1000
0000
,
0001
1000
0001
1000
0100
0010
0010
0001
,
0000
0000
1000
0000
0000
1000
0000
0000
1000
0000
0001
0000
1000
0000
0000
0000
,
0001
0000
0010
0000
0100
1000
0100
0000
,
1000
0010
1000
0000
0001
0000
0010
0000
,
0001
0000
0100
0000
0010
1000
0010
0000
,
1000
0100
1000
0000
0001
0000
0100
0000
,
0010
0100
0010
0000
1000
0100
0010
0000
,
0100
0000
1000
0001
1000
0010
0010
0000
,
0100
0001
0100
0000
0001
0010
0001
0000
,
0010
0100
0010
0100
1000
0000
0000
0000
,
0001
0001
0100
0100
0010
0000
1000
0000
,
0100
0010
0100
1000
,
0010
0010
0100
0100
0001
0000
1000
0000
,
0100
0000
0010
0000
0001
1000
0001
0000
,
1000
1000
0010
0010
0100
0000
0001
0000
,
0010
0100
0010
0001
,
0100
0100
0010
0010
1000
0000
0001
1000
,
0000
0000
0001
0000
0000
0001
0000
0000
0001
0000
0010
0000
0100
0000
0000
0000
,
1000
0010
0001
0010
,
1000
0100
0010
0001
,
1000
0100
0001
0100
,
1000
0010
0100
0001
,
1000
0100
0010
0100
,
1000
0010
0001
0010
,
1000
0000
0100
0000
0010
0000
0001
1000
,
0000
0000
0010
0000
0000
0010
0000
0000
0010
0000
0100
0000
0001
0000
0000
0000
,
1000
1000
0100
0100
,
0010
0010
0001
1001
,
1000
1000
0010
0010
,
0100
0000
0100
0000
0001
1000
1000
0000
,
0001
1000
0001
1000
,
0100
0010
0100
0010
,
0001
1000
0001
1000
0001
1000
0001
1000
,
0000
0000
0010
0000
0000
0010
0000
0000
0010
0000
0100
0000
0010
0000
0000
0000
,
0000
0000
0100
0000
0000
0100
0000
0000
0100
0000
0010
0000
0100
0000
0000
0000
,
0001
0001
0010
0010
0100
0000
1000
0000
,
0010
0100
0010
1000
,
0100
0100
0010
0010
0001
0000
1000
0000
,
0010
0000
0100
0000
0001
1000
0001
0000
,
1000
1000
0100
0100
0010
0000
0001
0000
,
0100
0010
0100
0001
,
0010
0010
0100
0100
1000
0000
0001
1000
,
0000
0000
0001
0000
0000
0001
0000
0000
0001
0000
1000
0000
0010
0000
0000
0000
,
1000
0100
1000
0000
0001
0100
0001
0000
,
0010
0100
0010
0001
,
1000
0010
1000
0000
0001
0010
0001
0000
,
0100
0000
0010
0000
1000
0001
1000
0000
,
0001
1000
0100
0000
1000
0001
0100
0000
,
0001
0000
0010
0000
0100
1000
0100
0000
,
1000
0001
0010
0000
0001
1000
0010
1000
,
0000
0000
0100
0000
0000
0100
0000
0000
0100
0000
0010
0000
0001
0000
0000
0000
;

//---------------dance-single - ----------------
#NOTES:
     dance-single:
     :
     Easy:
     5:
     0.215243,0.233401,0.007888,0.031554,0.000000,191.000000,190.000000,1.000000,4.000000,0.000000,0.000000,0.215243,0.233401,0.007888,0.031554,0.000000,191.000000,190.000000,1.000000,4.000000,0.000000,0.000000:
0000
0000
0000
0000
,
0000
0000
0000
0000
,
0000
0000
0000
0000
,
0000
0000
0000
0000
,
0000
0000
0000
0000
,
1000
0000
1000
0000
,
0001
0000
0001
0000
,
0100
0000
0100
0000
,
0000
0000
0000
0000
,
0001
0001
1000
1000
,
0001
0010
0100
1000
,
0010
0010
0100
0100
,
0001
1000
0100
0010
,
0001
0001
0100
0100
,
0010
1000
0100
0010
,
0100
0100
1000
1000
,
0000
0000
0010
0100
,
0001
0000
1000
0000
,
0100
0010
0100
0000
,
1000
0000
0001
0000
,
0100
0010
0100
0000
,
0001
0000
0010
0000
,
0001
0100
0001
0000
,
1000
0000
0100
0000
,
1000
0010
1000
0000
,
0001
0001
1000
1000
,
0100
0010
0001
0100
,
0010
0010
1000
1000
,
0001
0010
0100
1000
,
0001
0001
1000
1000
,
0010
1000
0100
0010
,
0001
0001
0100
0100
,
0000
0000
0000
0000
,
0001
0100
0010
0000
,
1000
0100
1000
0000
,
0010
0100
0001
0000
,
0010
0100
0010
0000
,
0001
0100
0010
1000
,
0001
0010
0100
1000
,
0010
0100
0001
1000
,
0000
0000
0100
0010
,
0002
0000
0000
0003
,
2000
0000
0000
3000
,
0020
0000
0000
0030
,
0200
0000
0000
0300
,
0001
0001
0001
0001
,
1000
1000
1000
1000
,
0001
0010
0100
1000
,
0000
0000
0001
1001
,
0000
0000
1000
0001
,
1000
1000
0010
0010
,
0100
0001
0010
0100
,
1000
1000
0001
0001
,
0100
0010
0100
0001
,
0010
0010
0100
0100
,
1000
0010
1000
0001
,
0010
0010
0001
0001
,
0000
0000
1000
0001
,
1000
1000
0010
0010
,
1000
0100
0010
0001
,
0100
0100
0010
0010
,
1000
0001
0010
0100
,
1000
1000
0001
0001
,
0100
0010
1000
0001
,
1000
1000
0001
0001
,
0000
0000
1000
0001
;

//---------------dance-single - ----------------
#NOTES:
     dance-single:
     :
     Beginner:
     2:
     0.117200,0.181534,0.007888,0.031554,0.000000,104.000000,103.000000,1.000000,4.000000,0.000000,0.000000,0.117200,0.181534,0.007888,0.031554,0.000000,104.000000,103.000000,1.000000,4.000000,0.000000,0.000000:
// measure 0
0000
0000
0000
0000
,  // measure 1
0000
0000
0000
0000
,  // measure 2
0000
0000
0000
0000
,  // measure 3
0000
0000
0000
0000
,  // measure 4
0000
0000
0000
0000
,  // measure 5
1000
0000
0000
0000
,  // measure 6
0001
0000
0000
0000
,  // measure 7
1000
0000
0000
0000
,  // measure 8
0000
0000
0000
0000
,  // measure 9
0001
0000
0001
0000
,  // measure 10
1000
0000
1000
0000
,  // measure 11
0010
0000
0010
0000
,  // measure 12
0100
0000
0100
0000
,  // measure 13
0001
0000
0001
0000
,  // measure 14
1000
0000
1000
0000
,  // measure 15
0100
0000
0100
0000
,  // measure 16
0000
0000
0000
0000
,  // measure 17
1000
0000
0000
0000
,  // measure 18
0010
0000
0100
0000
,  // measure 19
0001
0000
0000
0000
,  // measure 20
0010
0000
0100
0000
,  // measure 21
1000
0000
0000
0000
,  // measure 22
0001
0000
0100
0000
,  // measure 23
0001
0000
0000
0000
,  // measure 24
1000
0000
0000
0000
,  // measure 25
0001
0000
0001
0000
,  // measure 26
1000
0000
1000
0000
,  // measure 27
0100
0000
0100
0000
,  // measure 28
0010
0000
0010
0000
,  // measure 29
0001
0000
0001
0000
,  // measure 30
1000
0000
1000
0000
,  // measure 31
0010
0000
0010
0000
,  // measure 32
0000
0000
0000
0000
,  // measure 33
1000
0000
0001
0000
,  // measure 34
1000
0000
0001
0000
,  // measure 35
0100
0000
0010
0000
,  // measure 36
0100
0000
0010
0000
,  // measure 37
1000
0000
0001
0000
,  // measure 38
1000
0000
0001
0000
,  // measure 39
0010
0000
0100
0000
,  // measure 40
0010
0000
0100
0000
,  // measure 41
2000
0000
0000
3000
,  // measure 42
0020
0000
0000
0030
,  // measure 43
0200
0000
0000
0300
,  // measure 44
0002
0000
0000
0003
,  // measure 45
1000
1000
1000
0000
,  // measure 46
0001
0001
0001
0000
,  // measure 47
1000
1000
0001
0001
,  // measure 48
0000
0000
0000
1001
,  // measure 49
0000
0000
0000
0000
,  // measure 50
1000
0000
1000
0000
,  // measure 51
0001
0000
0001
0000
,  // measure 52
0100
0000
0100
0000
,  // measure 53
0010
0000
0010
0000
,  // measure 54
1000
0000
1000
0000
,  // measure 55
0001
0000
0001
0000
,  // measure 56
0010
0000
0010
0000
,  // measure 57
0000
0000
0000
0000
,  // measure 58
1000
0000
0010
0000
,  // measure 59
1000
0000
0010
0000
,  // measure 60
0100
0000
0001
0000
,  // measure 61
0100
0000
0001
0000
,  // measure 62
0010
0000
0100
0000
,  // measure 63
0010
0000
0100
0000
,  // measure 64
1000
0000
0001
0000
,  // measure 65
0000
0000
1000
1000
;
