#VERSION:0.83;
#TITLE:REcorrection;
#SUBTITLE:;
#ARTIST:猫叉Master feat. 常盤ゆう;
#TITLETRANSLIT:;
#SUBTITLETRANSLIT:;
#ARTISTTRANSLIT:Nekomata Master feat. Yu Tokiwa;
#GENRE:SOFT POP;
#ORIGIN:;
#CREDIT:;
#BANNER:REcorrection.png;
#BACKGROUND:REcorrection-bg.png;
#PREVIEWVID:;
#JACKET:REcorrection-jacket.png;
#CDIMAGE:;
#DISCIMAGE:;
#LYRICSPATH:;
#CDTITLE:cdtitle.png;
#MUSIC:REcorrection.ogg;
#OFFSET:-0.360000;
#SAMPLESTART:68.365448;
#SAMPLELENGTH:16.875000;
#SELECTABLE:YES;
#BPMS:0.000=116.000;
#STOPS:;
#DELAYS:;
#WARPS:;
#TIMESIGNATURES:0.000=4=4;
#TICKCOUNTS:0.000=4;
#COMBOS:0.000=1;
#SPEEDS:0.000=1.000=0.000=0;
#SCROLLS:0.000=1.000;
#FAKES:;
#LABELS:0.000=Song Start;
#BGCHANGES:;
#KEYSOUNDS:;
#ATTACKS:
;

//---------------dance-single - ----------------
#NOTEDATA:;
#CHARTNAME:;
#STEPSTYPE:dance-single;
#DESCRIPTION:;
#CHARTSTYLE:;
#DIFFICULTY:Hard;
#METER:8;
#RADARVALUES:0.316193,0.361892,0.024234,0.016156,0.000000,274.000000,271.000000,3.000000,2.000000,0.000000,0.000000,0.000000,0.000000,0.000000,0.316193,0.361892,0.024234,0.016156,0.000000,274.000000,271.000000,3.000000,2.000000,0.000000,0.000000,0.000000,0.000000,0.000000;
#CREDIT:;
#NOTES:
0000
0000
0000
0000
,
1000
1000
0001
0000
,
0001
0001
1000
0010
,
1000
0000
0100
0000
,
0010
0000
0001
0000
,
0100
0000
0010
0000
,
1000
0100
1000
0001
,
1000
0000
0001
0000
,
0100
0000
0000
0000
0010
0000
0000
1000
,
0001
0010
0100
0000
,
1000
0000
0000
0001
1000
0100
1000
0010
,
1000
0000
0000
0000
0000
0000
0001
1000
,
0001
0000
1000
0100
0010
0100
1000
0000
,
0010
0100
0001
0000
,
1000
0000
0000
0001
0010
0001
0100
0001
,
1000
0000
0000
0000
0000
0100
0010
0100
,
1000
0000
1000
0000
0001
1000
0001
0000
,
1001
1000
0010
0100
,
0001
0000
0010
0100
1000
0001
1000
0010
,
1000
0000
0001
0000
0010
0000
0001
1000
,
0100
0000
1000
0001
0100
0001
0010
0000
,
1001
0001
1000
0100
,
0010
0000
0100
1000
0010
1000
0100
0010
,
0001
0000
0100
0000
0001
0010
0100
0010
,
0001
1000
0001
0000
0000
0000
0000
1000
,
0001
0000
0001
1000
0000
1000
0100
0001
,
0000
0001
0100
1000
0000
0010
0100
0000
,
0001
0000
0001
1000
0000
1000
0010
0001
,
0000
0001
0010
1000
0000
0100
0010
0100
,
1000
0000
1000
0001
0000
0001
0100
1000
,
0000
1000
0100
0001
1000
0100
1000
0100
,
0010
0001
0100
0001
0000
1000
0002
0000
,
0000
0000
0000
0000
1003
0000
0001
1000
,
0001
0010
0100
1000
0001
0000
0001
1000
,
0010
0001
0010
1000
0001
0000
0001
1000
,
0100
0010
0100
1000
0001
0000
0100
0000
,
0001
0000
0010
0100
1000
0000
0001
1000
,
0001
0100
0010
1000
0001
0000
0001
1000
,
0100
0001
0100
1000
0001
0000
0001
1000
,
0010
0100
0010
0001
0010
1000
0001
0000
,
0010
0000
0100
1000
0010
1000
0001
0000
,
1000
0100
0010
0001
1000
0000
1000
0001
,
0100
1000
0100
0001
1000
0000
1000
0001
,
0010
0100
0010
0001
1000
0000
0010
0000
,
1000
0000
0100
0010
0001
0000
1000
0001
,
1000
0010
0100
0001
1000
0000
1000
0001
,
0010
1000
0010
0001
1000
0000
1000
0001
,
0100
0010
0100
1000
0100
0001
2000
0000
,
0000
0000
0000
3100
0010
0001
1000
0000
,
1001
0000
0001
0000
,
1000
1000
0010
0100
,
0001
0000
0010
0000
,
0001
0100
0001
1000
,
0100
0000
0010
0000
,
0001
0001
1000
0010
,
1000
0000
0001
0000
,
1000
0000
0000
0000
;

//---------------dance-single - ----------------
#NOTEDATA:;
#CHARTNAME:;
#STEPSTYPE:dance-single;
#DESCRIPTION:;
#CHARTSTYLE:;
#DIFFICULTY:Medium;
#METER:6;
#RADARVALUES:0.222720,0.271419,0.008078,0.008078,0.000000,193.000000,192.000000,1.000000,1.000000,0.000000,0.000000,0.000000,0.000000,0.000000,0.222720,0.271419,0.008078,0.008078,0.000000,193.000000,192.000000,1.000000,1.000000,0.000000,0.000000,0.000000,0.000000,0.000000;
#CREDIT:;
#NOTES:
0000
0000
0000
0000
,
0001
0001
1000
0000
,
1000
1000
0001
1000
,
0001
0000
1000
0000
,
0001
0000
0010
0000
,
0100
0000
1000
0000
,
0001
1000
0010
1000
,
0001
0000
0010
0000
,
0100
0000
0010
0000
,
0001
0000
0000
0000
,
1000
0000
0000
0000
,
0001
0000
0000
0000
,
1000
0000
0001
1000
,
0001
0000
0100
0000
,
0010
0000
1000
0000
,
0100
0000
0010
0000
,
0001
0000
0001
0000
1000
0001
1000
0000
,
0001
0100
0010
0100
,
0001
0010
0100
1000
,
0010
0100
0010
1000
,
0100
0010
0001
1000
,
0001
0001
1000
1000
,
0010
0100
0001
0010
,
0100
0100
1000
1000
,
0001
1000
0001
0000
0000
0000
0000
0000
,
1000
0010
1000
0000
,
0001
0010
0100
1000
,
0001
0100
0001
0000
,
1000
0001
1000
0000
,
0100
0010
0100
0000
,
1000
0010
0100
0001
,
0010
0010
0100
0100
,
0000
0000
1000
1001
,
0001
0100
0001
0000
1000
0000
0100
0000
,
1000
0010
1000
0000
0001
0000
0010
0000
,
0001
1000
0001
1000
0100
0000
0010
0000
,
0001
0100
0010
1000
,
0001
0010
0001
0000
1000
0000
0010
0000
,
1000
0100
1000
0000
0001
0000
0100
0000
,
0001
1000
0001
0000
1000
0100
0010
0000
,
0001
0001
1000
1000
,
0001
0010
0001
0000
1000
0000
0010
0000
,
1000
0100
1000
0000
0001
0000
0100
0000
,
0001
1000
0001
1000
0010
0000
0100
0000
,
0001
0010
0100
1000
,
0001
0100
0001
0000
1000
0000
0100
0000
,
1000
0010
1000
0000
0001
0000
0010
0000
,
0001
1000
0001
0000
1000
0010
0200
0000
,
0000
0300
0001
0001
,
1000
0000
0001
0000
,
1000
0100
0010
0001
,
0100
0000
0010
0000
,
0100
0000
0001
0000
,
1000
0000
0100
0000
,
1000
0010
0100
0001
,
0010
0000
0001
0000
,
1000
0000
0000
0000
;

//---------------dance-single - ----------------
#NOTEDATA:;
#CHARTNAME:;
#STEPSTYPE:dance-single;
#DESCRIPTION:;
#CHARTSTYLE:;
#DIFFICULTY:Easy;
#METER:3;
#RADARVALUES:0.122323,0.158328,0.000000,0.000000,0.000000,106.000000,106.000000,0.000000,0.000000,0.000000,0.000000,0.000000,0.000000,0.000000,0.122323,0.158328,0.000000,0.000000,0.000000,106.000000,106.000000,0.000000,0.000000,0.000000,0.000000,0.000000,0.000000,0.000000;
#CREDIT:;
#NOTES:
0000
0000
0000
0000
,
1000
0000
0001
0000
,
1000
0000
0001
0000
,
0100
0000
0010
0000
,
0100
0000
0010
0000
,
1000
0000
0001
0000
,
1000
0000
0001
0000
,
0010
0000
0100
0000
,
0010
0000
0100
0000
,
1000
0000
0000
0000
,
0010
0000
0000
0000
,
0100
0000
0000
0000
,
0001
0000
1000
0001
,
1000
0000
0000
0000
,
0100
0000
0000
0000
,
0010
0000
0000
0000
,
0001
0001
1000
1000
,
0001
0000
0001
0000
,
0100
0000
0100
0000
,
0010
0000
0010
0000
,
1000
0000
1000
0000
,
0001
0000
0001
0000
,
0010
0000
0010
0000
,
0100
0000
0100
0000
,
1000
0001
0000
0000
,
1000
0000
0001
0000
,
1000
0000
0001
0000
,
0100
0000
0010
0000
,
0100
0000
0010
0000
,
1000
0000
0001
0000
,
1000
0000
0001
0000
,
0010
0000
0100
1000
,
0000
0000
0001
1000
,
0001
0000
0000
0000
,
1000
0000
0000
0000
,
0010
0000
0100
0000
,
0010
0000
1000
0000
,
0001
0000
0000
0000
,
1000
0000
0000
0000
,
0100
0000
0010
0000
,
0100
0000
1000
0000
,
0001
0000
0100
0000
,
0010
0000
0100
0000
,
0001
0000
0010
0000
,
0100
0000
1000
0000
,
0001
0000
0100
0000
,
0010
0000
1000
0000
,
0001
0000
0010
0100
,
0000
0000
1000
0001
,
1000
0000
0001
0000
,
1000
0000
0001
0000
,
0100
0000
0010
0000
,
0100
0000
0010
0000
,
1000
0000
0001
0000
,
1000
0000
0001
0000
,
0010
0000
0100
0000
,
0010
0000
0000
0000
;

//---------------dance-single - ----------------
#NOTEDATA:;
#CHARTNAME:;
#STEPSTYPE:dance-single;
#DESCRIPTION:;
#CHARTSTYLE:;
#DIFFICULTY:Beginner;
#METER:1;
#RADARVALUES:0.076163,0.113091,0.000000,0.000000,0.000000,66.000000,66.000000,0.000000,0.000000,0.000000,0.000000,0.000000,0.000000,0.000000,0.076163,0.113091,0.000000,0.000000,0.000000,66.000000,66.000000,0.000000,0.000000,0.000000,0.000000,0.000000,0.000000,0.000000;
#CREDIT:;
#NOTES:
// measure 0
0000
0000
0000
0000
,  // measure 1
1000
0000
0000
0000
,  // measure 2
0001
0000
0000
0000
,  // measure 3
0100
0000
0000
0000
,  // measure 4
0010
0000
0000
0000
,  // measure 5
1000
0000
0000
0000
,  // measure 6
0001
0000
0000
0000
,  // measure 7
0010
0000
0000
0000
,  // measure 8
0100
0000
0000
0000
,  // measure 9
1000
0000
0000
0000
,  // measure 10
0010
0000
0000
0000
,  // measure 11
0100
0000
0000
0000
,  // measure 12
0001
0000
0000
0000
,  // measure 13
1000
0000
0000
0000
,  // measure 14
0100
0000
0000
0000
,  // measure 15
0010
0000
0000
0000
,  // measure 16
0001
0000
1000
0000
,  // measure 17
0001
0000
0000
0000
,  // measure 18
1000
0000
0000
0000
,  // measure 19
0010
0000
0000
0000
,  // measure 20
0100
0000
0000
0000
,  // measure 21
0001
0000
0000
0000
,  // measure 22
1000
0000
0000
0000
,  // measure 23
0100
0000
0000
0000
,  // measure 24
0010
0000
0000
0000
,  // measure 25
0001
0000
0000
0000
,  // measure 26
0100
0000
0000
0000
,  // measure 27
0010
0000
0000
0000
,  // measure 28
0100
0000
0000
0000
,  // measure 29
0001
0000
0000
0000
,  // measure 30
0010
0000
0000
0000
,  // measure 31
0100
0000
0000
1000
,  // measure 32
0000
0000
0000
0000
,  // measure 33
0001
0000
0001
0000
,  // measure 34
1000
0000
1000
0000
,  // measure 35
0001
0000
0000
0000
,  // measure 36
1000
0000
0000
0000
,  // measure 37
0010
0000
0010
0000
,  // measure 38
0100
0000
0100
0000
,  // measure 39
0010
0000
0000
0000
,  // measure 40
0100
0000
0000
0000
,  // measure 41
0001
0000
0001
0000
,  // measure 42
1000
0000
1000
0000
,  // measure 43
0001
0000
0000
0000
,  // measure 44
1000
0000
0000
0000
,  // measure 45
0100
0000
0100
0000
,  // measure 46
0010
0000
0010
0000
,  // measure 47
0100
0000
0000
0010
,  // measure 48
0000
0000
0001
0000
,  // measure 49
1000
0000
0000
0000
,  // measure 50
0001
0000
0000
0000
,  // measure 51
0100
0000
0000
0000
,  // measure 52
0010
0000
0000
0000
,  // measure 53
1000
0000
0000
0000
,  // measure 54
0001
0000
0000
0000
,  // measure 55
0010
0000
0000
0000
,  // measure 56
0100
0000
0000
0000
;
